#VERSION:0.83;
#TITLE:RECONSTRUCTION_SEQUENCE\:act_one\:reminiscence;
#SUBTITLE:;
#ARTIST:Z-I-v Sound Team "Karl with a K";
#TITLETRANSLIT:;
#SUBTITLETRANSLIT:;
#ARTISTTRANSLIT:;
#GENRE:;
#ORIGIN:;
#CREDIT:;
#BANNER:reconstruction_sequence_act_1_reminiscence_banner.png;
#BACKGROUND:reconstruction_sequence_act_1_reminiscence_bg.png;
#PREVIEWVID:;
#JACKET:;
#CDIMAGE:;
#DISCIMAGE:;
#LYRICSPATH:;
#CDTITLE:;
#MUSIC:reconstruction_sequence_act_1_reminiscence.ogg;
#OFFSET:0.029000;
#SAMPLESTART:98.711227;
#SAMPLELENGTH:10.500000;
#SELECTABLE:YES;
#BPMS:0.000=170.000,
48.000=175.000,
82.000=180.000,
158.000=175.000,
200.000=85.000,
239.000=190.000,
341.000=195.000,
345.000=200.000,
349.000=205.000,
353.000=210.000,
357.000=215.000;
#STOPS:;
#DELAYS:;
#WARPS:;
#TIMESIGNATURES:0.000=4=4;
#TICKCOUNTS:0.000=4;
#COMBOS:0.000=1;
#SPEEDS:0.000=1.000=0.000=0;
#SCROLLS:0.000=1.000,
239.000=2.000,
242.000=1.000;
#FAKES:;
#LABELS:0.000=Song Start;
#BGCHANGES:;
#KEYSOUNDS:;
#ATTACKS:
;

//---------------dance-single - ----------------
#NOTEDATA:;
#CHARTNAME:;
#STEPSTYPE:dance-single;
#DESCRIPTION:;
#CHARTSTYLE:;
#DIFFICULTY:Challenge;
#METER:18;
#RADARVALUES:0.893436,1.452574,0.182015,0.298505,1.343274,859.000000,834.000000,25.000000,41.000000,38.000000,0.000000,0.000000,0.000000,0.000000,0.893436,1.452574,0.182015,0.298505,1.343274,859.000000,834.000000,25.000000,41.000000,38.000000,0.000000,0.000000,0.000000,0.000000;
#CREDIT:Karl with a K;
#NOTES:
0000
0000
0000
0000
,
0000
0000
0000
0000
,
0000
0000
0000
0000
,
0000
0000
0000
0000
,
2200
0000
3000
0020
0000
0000
0000
0000
,
0030
0000
2300
3020
,
0000
0032
0000
0000
0000
0000
0013
0000
,
2010
0000
0000
0000
0000
0000
0000
0000
0000
3100
0000
0000
0000
0000
0000
0000
0000
0000
1000
0000
0000
0000
0000
0000
0010
0000
0000
0000
1000
0000
0000
0000
0010
0000
0000
0000
0100
0000
0000
0000
0001
0000
0000
0000
0100
0000
0000
0000
,
0010
1000
0001
0010
0100
0010
0001
1000
0100
0010
0001
1000
,
0010
0100
1000
0001
1000
0100
0010
1000
0001
0010
0100
0001
,
0100
0000
0000
0000
0010
0000
0000
0000
0001
0000
0000
0000
1000
0000
0000
0000
0001
0000
0000
0100
0000
0000
0010
0000
0000
1000
0000
0000
0100
0000
0000
0010
0000
0000
0001
0000
0000
1000
0000
0000
0200
0000
0000
0000
0000
0000
0000
0000
,
0000
0000
0000
0300
,
1000
0100
0010
0001
0200
0000
0000
0000
0000
0000
0000
0000
0000
0000
0000
0000
,
0000
0000
0000
0000
0000
0000
0000
0000
0000
0000
0000
0000
0310
0100
0001
0100
,
0001
0010
0100
1000
0200
0000
0000
0000
0000
0000
0000
0000
0000
0000
1000
0000
,
1000
0000
0000
0000
0000
0000
1000
0000
0000
0000
0000
0000
1000
0000
0000
0000
0000
0000
0000
0000
0000
1000
0000
0000
0000
0000
0000
0000
0000
0000
1000
0000
0000
0000
0000
0000
1300
0000
0000
0000
0010
0000
0000
0000
0010
0000
0000
0000
,
1000
0000
0000
0000
0010
0000
0000
0000
0010
0000
0000
0000
1000
0000
0000
0010
0000
0000
0100
0000
0000
0001
0000
0000
0020
0000
0000
0000
0000
0000
0000
0000
0000
0000
0000
0000
0000
0000
0000
0000
0000
0000
0000
0000
0000
0000
0000
0000
,
0000
0000
0001
0000
0001
0000
0001
0000
0001
0000
0000
0100
0000
0000
0100
0000
,
0130
0010
0001
0010
0001
0100
0010
1000
0010
0100
0010
0100
1000
0100
0010
0100
,
0001
0000
0000
0100
0000
0000
0001
0000
0000
0010
0000
0000
0001
0000
0000
1000
0000
0000
0001
0000
0100
0000
0010
0000
1000
0000
0000
0000
0000
0000
0000
0000
0000
0000
0000
0000
0000
0000
0000
0000
0000
0000
0000
0000
0000
0000
0000
0000
,
0000
0000
0000
0000
0000
0000
0000
0000
0001
0010
0100
0010
0100
1000
0100
1000
,
0000
0001
1000
0010
0000
1000
0001
0100
0001
0100
0010
1000
0000
0100
1000
0001
,
0000
1000
0001
0100
0001
1000
0100
1000
0001
0100
0000
0010
0000
1000
0010
0000
,
1000
0000
1000
0001
0100
0001
1000
0100
0010
0001
0100
0001
0010
0000
0100
0010
,
0100
0000
0000
0000
0000
0000
0010
0000
0000
0001
0000
0000
0010
0000
0000
0001
0000
0000
1000
0000
0000
0010
0000
0000
0100
0000
0000
0001
0000
0000
1000
0000
0000
0100
0000
0000
0010
0000
0000
0000
0000
0000
0001
0000
0000
0000
0100
0000
,
0000
0000
0001
0000
0000
0000
0010
0000
0000
0100
0000
0000
1000
0000
0000
0001
0000
0000
1000
0000
0000
0010
0000
0000
0100
0000
0000
0000
0000
0000
0001
0000
0000
0000
1000
0000
0000
0000
0010
0000
0000
0000
1000
0000
0000
0100
0000
0000
,
1000
0000
0000
0001
0000
0000
1000
0000
0000
0010
0000
0000
0100
0000
0000
0001
0000
0000
0000
0000
0000
0010
0000
0000
0000
0000
0000
0001
0000
0000
1000
0000
0000
0000
0000
0000
0100
0000
0000
0000
0010
0000
0000
0000
0001
0000
0000
0000
,
0100
0001
1000
0010
1000
0001
1000
0001
0010
0100
0010
0000
0001
0010
0100
1000
,
0001
0100
0010
1000
0010
0100
0010
0001
0000
1000
0100
0010
0000
1000
0001
0010
,
0001
0010
0100
0001
0000
0100
0010
0001
1000
0000
0001
0010
0001
1000
0010
0100
,
0010
0001
0000
0010
0000
0100
0001
0000
1001
0000
1000
0001
0010
0001
1000
0100
,
1000
0100
0010
0100
0001
0000
0100
0010
0001
0000
0010
0001
0100
0001
1000
0010
,
0100
0000
0000
0001
0000
0000
1000
0000
0000
0010
0000
0000
0100
0000
0000
0000
0000
0000
1000
0000
0000
0000
0100
0000
0000
0000
0010
0000
0000
0000
0100
0000
0000
0010
0000
0000
1000
0000
0000
0001
0000
0000
1000
0000
0000
0100
0000
0000
,
0010
0000
0000
0000
0000
0000
1000
0000
0000
0000
0001
0000
0000
0000
0100
0000
0000
0000
0010
0000
0000
0001
0000
0000
1000
0000
0000
0010
0000
0000
1000
0000
0000
0010
0000
0000
0100
0000
0000
1000
0000
0000
0000
0000
0000
0100
0000
0000
,
0000
0000
0000
0001
0000
0000
0100
0000
0000
0000
0000
0000
0010
0000
0000
0000
0001
0000
0000
0000
1000
0000
0000
0000
0100
0000
0000
0010
0000
0000
1000
0000
0000
0100
0000
0000
0010
0000
0000
0100
0000
0000
0010
0000
0000
0001
0000
0000
,
0100
0010
0100
0000
0001
0010
0100
1000
0001
0000
0100
0000
0010
0000
0100
0000
,
0001
0100
0010
0100
1000
0100
0010
0100
,
0001
0000
0000
0000
1001
0000
0000
0000
1000
0100
0010
0100
1000
0100
0010
0100
,
1000
0001
0010
0100
1000
0001
0010
0100
2000
0000
0000
0000
3020
0000
0000
0000
,
0230
0000
0000
0000
1300
0100
0010
0000
0110
0000
0000
0000
0100
0010
0100
0000
,
1000
0001
0010
1000
0020
0100
0130
0001
,
1000
0000
0010
0000
0001
0000
1000
0100
1000
0000
0100
0000
0110
0000
0000
0000
,
0200
0000
0301
1000
0010
0001
0100
0001
,
0010
1000
0100
0010
0002
0000
0103
0001
,
1000
0000
0100
0000
0010
0000
M00M
0000
M00M
0000
M00M
0000
,
0110
0000
0000
0000
0100
0010
0100
0000
1000
0000
0001
0000
0010
0000
1000
0000
,
0010
0000
0100
0000
0100
0000
0001
0000
1000
0000
0010
0000
0001
0000
1000
0100
,
1000
0000
0100
0000
0110
0000
0000
0000
0100
0010
0100
0000
0001
0000
1000
0000
,
0010
0001
0100
0001
0010
1000
0100
0M00
,
0001
0000
0100
0000
0001
0000
1000
0000
0010
0000
0001
0000
,
1002
0000
0100
0000
0100
0000
0100
0100
0000
0100
0000
0100
0100
0000
0100
0000
,
0100
0000
0100
0000
0100
0100
0000
0000
1003
0000
1000
0000
1000
0000
0100
0001
,
0000
0M01
0000
1000
0100
0000
M100
0000
0001
0000
0001
0000
0010
1000
0000
10M0
,
0200
0000
1300
0001
0100
0000
0010
1000
0002
0000
0013
0000
0020
0000
0031
0000
,
1000
0010
0200
0000
0001
0000
0302
0000
0023
0000
0031
2000
0010
0000
3020
0000
,
1030
0002
0010
0000
0203
0000
0301
0001
0100
0000
0100
0000
0001
0010
0100
1000
,
0001
0100
0001
1000
0100
1000
0010
0100
0010
0001
0010
0100
0001
0010
0100
0001
0100
0010
0001
1000
0010
0100
0001
0100
,
1000
0000
0100
0000
0001
0000
0010
0000
0100
0000
0010
0000
1000
0000
0000
0010
0000
0000
0100
0000
0000
1000
0000
0000
0001
0000
0000
1000
0000
0000
0010
0000
0000
0100
0000
0000
0010
0000
0000
0001
0000
0000
0010
0000
0000
0100
0000
0000
,
0001
0000
0000
0000
0000
0000
1000
0000
0000
0000
0000
0000
0001
0000
0000
0000
0000
0000
1000
0000
0000
0000
0000
0000
0200
0000
0000
0000
0000
0000
0000
0000
0000
0000
0000
0000
0000
0000
0000
0000
0000
0000
0000
0000
0000
0000
0000
0000
0000
0000
0000
0000
0000
0000
0000
0000
0000
0000
0000
0000
0000
0000
0000
0000
0000
0000
0000
0000
0000
0000
0000
0000
0000
0000
0000
0000
0000
0000
0000
0000
0000
0000
0000
0000
0000
0000
0000
0000
0320
0000
0000
0000
0000
0000
0000
0000
0000
0000
0000
0000
0000
0000
0000
0000
0000
0000
0000
0000
0000
0000
0000
0000
0000
0000
0000
0000
0032
0000
0000
0000
0000
0000
0000
0000
0000
0000
0000
0000
0000
0000
0000
0000
0000
0000
0000
0000
0000
0000
0000
0000
2003
0000
0000
0000
0000
0000
0000
0000
0000
0000
0000
0000
0000
0000
0000
0000
0000
0000
0000
0000
0000
0000
0000
0000
3002
0000
0000
0000
0000
0000
0000
0000
0000
0000
0000
0000
0000
0000
0000
0000
0000
0000
0000
0000
0203
0000
0000
0000
0000
0000
0000
0000
,
0000
0000
0000
0302
0000
0000
0000
0000
2003
0000
0000
0000
0000
3200
0000
0000
0000
2300
0000
0000
0000
3020
0000
0000
0000
2030
0000
0000
3001
0000
0100
0000
0001
0100
0001
0000
0000
0000
0000
0000
0000
0000
0000
0000
0000
0000
0000
0000
,
0000
0000
0000
0000
0000
0000
MMMM
0000
MMMM
0000
MMMM
0000
MMMM
0000
MMMM
0000
MMMM
0000
MMMM
0000
0000
0000
0000
0000
1001
0000
0000
0000
0000
0000
0000
0000
0000
1001
0000
0000
0000
0000
0000
0000
0000
0000
0101
0000
0000
0000
0000
0000
,
0000
0101
0000
0000
0000
1001
0000
0000
1001
0000
0000
1100
0000
0000
0000
1000
,
0010
0100
0000
0000
0010
1000
0001
0100
0010
0000
0001
0000
0010
0000
0100
0000
,
0001
1000
0001
0000
0010
0000
0001
0010
0100
0001
1000
0000
0010
0000
0001
0100
,
0010
0000
1000
0000
0001
0100
0010
1000
0001
0100
0010
1000
0001
0000
0010
0000
,
0100
0000
0001
0000
0100
0010
0001
1000
0100
0010
0001
0000
0100
0010
0001
0000
,
0010
0100
1000
0000
0100
0010
1000
0001
1000
0000
0100
0000
0010
0000
1000
0000
,
0010
0001
1000
0000
0001
0000
1000
0001
0100
0010
1000
0000
0001
0000
1000
0010
,
0100
0000
1000
0000
0100
0001
1000
0100
0010
0001
1000
0100
0010
0000
0100
0000
,
0001
0000
0000
0000
0000
0000
0100
0000
0000
0000
0000
0000
1000
0000
0000
0001
0000
0000
1000
0000
0000
0001
0000
0000
0100
0000
0000
0000
0000
0000
0001
0000
0000
0000
0000
0000
0100
0000
0000
0000
1000
0000
0000
0000
0001
0000
0000
0000
,
0010
0000
0000
0000
1000
0000
0000
0000
0001
0000
0000
0000
1000
0000
0000
0010
0000
0000
1000
0000
0000
0010
0000
0000
1000
0000
0000
0000
0000
0000
0000
0000
0000
0000
0000
0000
1010
0000
0000
0000
0000
0000
0000
0000
0000
0000
0000
0000
,
0011
1000
0001
1001
1000
1001
0000
1000
,
1100
0000
0000
0000
1000
0100
1000
0100
0010
0000
0100
0000
0110
0000
0000
0000
,
0010
0000
0001
0000
0100
0000
0010
1000
0001
1000
0001
0000
0000
0000
1001
0000
,
0000
0000
1100
0000
0000
0000
0011
0000
0001
0100
0010
1000
0001
0100
0010
1000
,
0001
0000
0100
0000
0010
0000
1000
0000
0001
0000
0000
0010
0000
0000
1000
0000
0000
0010
0000
0000
0001
0000
0010
0000
0100
0000
1000
0000
0001
0000
0010
0000
,
0100
0000
1000
0000
0001
0000
0010
0000
0001
0000
0000
0100
0000
0000
1000
0000
0000
0100
0000
0000
0001
0000
1000
0000
0001
0000
1000
0000
0001
0000
0010
0000
,
0001
0000
0010
0000
0001
0000
1000
0000
0001
0000
0000
0100
0000
0000
1000
0000
0000
0100
0000
0000
0001
0000
1000
0000
0100
0000
1000
0000
0001
0000
0010
0000
,
0001
0000
0010
0000
0001
0000
1000
0000
0010
0000
0100
0000
0010
0000
0000
1000
0000
0000
0100
0000
0000
0000
0000
0000
1000
0000
0010
0000
1000
0000
0000
0000
,
0001
0000
0010
0001
0000
1000
0010
1000
0000
0001
0010
0001
0000
1000
0010
1000
,
0001
0010
0000
0001
0010
0001
1000
0010
0000
1000
0000
0001
0010
0000
0001
0010
,
0001
0000
1000
0010
1000
0000
0001
0010
0001
0010
0001
0000
1000
0010
1000
0100
,
1000
0100
0000
0001
0000
0000
0000
0000
0100
1000
0001
0000
0100
1000
0000
0000
,
0000
0100
0001
0010
1000
0000
0000
0000
0000
0000
0010
0100
1000
0000
0001
0000
,
0000
0000
0000
0100
1000
0000
0000
0100
0001
0000
0000
1000
0010
0100
0001
1000
,
0100
0010
0001
2000
0000
0000
0000
0000
0000
0000
0000
0000
0000
0000
0000
0000
,
0000
0000
0000
0000
,
0000
0000
0000
0000
,
0000
0000
0000
0000
,
0000
0000
0000
0000
0010
0000
0000
0000
3010
0001
0010
0001
1000
0100
1000
0100
,
0010
0100
0010
0100
0010
1000
0010
1000
0001
0100
0001
0100
0000
0000
0000
0000
;

//---------------dance-single - ----------------
#NOTEDATA:;
#CHARTNAME:;
#STEPSTYPE:dance-single;
#DESCRIPTION:;
#CHARTSTYLE:;
#DIFFICULTY:Hard;
#METER:17;
#RADARVALUES:0.724941,0.957378,0.160174,0.211138,0.895516,697.000000,675.000000,22.000000,29.000000,0.000000,0.000000,0.000000,0.000000,0.000000,0.724941,0.957378,0.160174,0.211138,0.895516,697.000000,675.000000,22.000000,29.000000,0.000000,0.000000,0.000000,0.000000,0.000000;
#CREDIT:Karl with a K;
#NOTES:
0000
0000
0000
0000
,
0000
0000
0000
0000
,
0000
0000
0000
0000
,
0000
0000
0000
0000
,
1002
0000
0000
2003
0000
0000
0000
0000
,
0000
0000
3001
0020
,
0000
0032
0000
0000
0000
0000
2003
0000
,
0010
0000
0000
0000
0000
0000
0000
0000
0000
0010
0000
0000
0000
0000
0000
0000
0000
0000
3010
0000
0000
0000
0000
0000
1000
0000
0000
0000
0100
0000
0000
0000
0010
0000
0000
0000
0001
0000
0000
0000
0100
0000
0000
0000
0010
0000
0000
0000
,
1000
0000
1000
0001
0010
0100
1000
0010
0100
0001
0000
0001
,
1000
0100
1000
0000
0001
0100
0001
0000
1000
0010
1000
0000
,
0001
0010
0001
0000
2000
0000
0000
0000
0000
0000
0000
0000
,
0000
0002
0000
0000
,
3000
0203
0000
0000
,
0000
0000
0000
0000
0000
0000
0000
0000
0000
0000
0000
0000
0310
0100
0010
0100
,
0010
0000
0010
1000
0200
0000
0000
0000
0000
0000
0000
0000
0000
0000
1300
0000
,
0100
0000
0000
0000
0000
0000
1000
0000
0000
0000
0000
0000
0100
0000
0000
0000
0000
0000
0000
0000
0000
0100
0000
0000
0000
0000
0000
0000
0000
0000
0100
0000
0000
0000
0000
0000
1000
0000
0000
0000
0001
0000
0000
0000
1000
0000
0000
0000
,
0010
0000
0000
0000
0100
0000
0000
0000
0010
0000
0000
0000
1000
0000
0000
0010
0000
0000
1000
0000
0000
0000
0000
0000
0200
0000
0000
0000
0000
0000
0000
0000
0000
0000
0000
0000
0000
0000
0000
0000
0000
0000
0000
0000
0000
0000
0000
0000
,
0000
0000
0301
0000
0100
0000
0001
0000
0100
0000
0000
0100
0000
0000
0100
0000
,
0020
0000
0100
0000
0100
0000
0130
1000
0002
0000
1000
0000
1000
0000
1003
0001
,
1000
0100
1000
0001
0100
0001
1000
0001
1000
0000
0000
0000
0000
0000
0000
0000
,
0000
0000
0000
0000
0000
0000
0000
0000
0001
0000
0100
0000
0010
0000
1000
0010
,
0000
0100
0001
0010
0000
0001
1000
0010
1000
0000
0100
0010
0000
0100
1000
0010
,
0000
1000
0010
0100
0001
0000
0010
0001
1000
0100
0000
0010
0000
0001
1000
0000
,
0001
0000
1000
0001
0100
0000
0001
0010
0100
1000
0001
0010
0001
0000
0100
0010
,
0000
0000
0000
0000
0000
0000
1000
0000
0000
0010
0000
0000
0100
0000
0000
0000
0000
0000
0001
0000
0000
0100
0000
0000
0001
0000
0000
0000
0000
0000
0010
0000
0000
0100
0000
0000
1000
0000
0000
0000
0000
0000
0001
0000
0000
0000
0010
0000
,
0000
0000
0001
0000
0000
0000
0100
0000
0000
0010
0000
0000
1000
0000
0000
0000
0000
0000
1000
0000
0000
0100
0000
0000
0010
0000
0000
0000
0000
0000
0001
0000
0000
0000
1000
0000
0000
0000
0100
0000
0000
0000
1000
0000
0000
0010
0000
0000
,
1000
0000
0000
0010
0000
0000
1000
0000
0000
0100
0000
0000
0010
0000
0000
0001
0000
0000
0000
0000
0000
0100
0000
0000
0000
0000
0000
0001
0000
0000
1000
0000
0000
0000
0000
0000
0010
0000
0000
0000
0100
0000
0000
0000
0001
0000
0000
0000
,
0010
0001
1000
0010
0000
1000
0000
0010
0100
0000
0100
0000
0001
0100
0010
1000
,
0001
0010
0100
0000
0100
0010
0100
1000
0000
1000
0010
0100
0000
0001
1000
0000
,
0100
0010
0001
1000
0000
0010
0100
0001
0000
0000
0001
0010
0100
0000
0001
0100
,
0010
0001
0000
0100
0000
0010
1000
0000
0001
0000
1000
0001
0100
0001
0010
0000
,
0100
1000
0010
1000
0001
0000
0010
0100
1000
0000
0100
0010
1000
0010
0100
0000
,
1000
0000
0000
0001
0000
0000
0100
0000
0000
0000
0000
0000
0001
0000
0000
0000
0000
0000
1000
0000
0000
0000
0010
0000
0000
0000
0100
0000
0000
0000
0010
0000
0000
0100
0000
0000
0001
0000
0000
0000
0000
0000
1000
0000
0000
0010
0000
0000
,
0100
0000
0000
0000
0000
0000
0001
0000
0000
0000
0010
0000
0000
0000
0100
0000
0000
0000
0010
0000
0000
0000
0000
0000
1000
0000
0000
0000
0000
0000
0010
0000
0000
0100
0000
0000
0010
0000
0000
0001
0000
0000
0000
0000
0000
0100
0000
0000
,
0000
0000
0000
0001
0000
0000
0100
0000
0000
0000
0000
0000
0010
0000
0000
0000
1000
0000
0000
0000
0001
0000
0000
0000
0010
0000
0000
0000
0000
0000
0001
0000
0000
0100
0000
0000
0010
0000
0000
0100
0000
0000
0010
0000
0000
0001
0000
0000
,
0010
0100
0001
0000
0001
0010
0100
1000
0002
0000
0000
0000
0000
0000
0000
0000
,
0000
0000
1000
0000
,
0003
0000
1001
0000
1000
0001
1000
0001
,
1000
0010
0100
0001
1000
0010
0100
0001
1000
0000
0000
0000
0000
0000
0000
0000
,
0000
0000
0000
0000
0001
0100
0010
0000
0210
0000
0000
0000
0310
0000
1000
0000
,
0001
0100
1000
0001
0010
1000
0100
0010
,
0001
0100
1000
0100
0010
0100
1000
0100
,
0020
0000
0130
0010
1000
0010
0100
0001
,
1000
0001
1000
0010
0002
0000
0013
1000
,
0100
0000
0010
0000
0100
0000
0000
0000
0000
0000
0000
0000
,
0110
0000
0010
0010
0001
0010
1000
0001
,
0100
1000
0100
0010
0001
1000
0001
1000
,
0010
1000
0100
0000
0001
0001
0100
0001
,
1000
0010
0100
0001
1000
0001
1000
0020
,
0031
0000
0001
0000
0001
0000
1000
0000
1000
0000
1000
0000
,
2002
0000
0000
0000
,
0000
0000
0000
0000
0000
0000
3000
0000
0103
0000
0100
0000
0100
0000
0100
1000
,
0000
0100
0000
0100
0001
0000
0100
0000
0100
0000
0100
0000
0100
0010
0000
0000
,
2000
0000
0000
3010
0001
0010
1000
0100
,
0001
0000
1000
0000
0010
0000
0001
0000
0200
0000
0000
0302
0000
0000
0023
0000
,
0000
2030
0000
0000
3002
0000
0000
0000
0000
0000
0103
0000
0010
0001
0100
0000
,
0001
0000
0100
0001
0100
0001
0100
0000
0000
0010
0100
0010
0100
0000
0000
1000
0000
0100
0010
0100
0010
0100
0000
0000
,
0001
0010
0001
0010
0000
0000
0001
0000
0000
0000
0000
0000
0100
0000
0000
0000
0000
0000
0010
0000
0000
0000
0000
0000
,
1000
0100
0220
0000
0000
0000
0000
0000
0000
0000
0000
0000
0000
0000
0000
0000
,
0000
0000
0000
0330
,
0000
0000
0000
0000
0000
0000
0000
0000
1001
0000
0000
1001
0000
0000
1001
0000
,
0000
1001
0000
0000
0000
0110
0000
0000
0110
0000
0000
0110
0000
0000
0000
0000
,
0000
0000
0000
0000
1000
0100
1000
0000
0001
0000
0100
0000
0001
0000
1000
0000
,
0100
0010
0100
0000
1000
0000
0001
0010
0001
0010
0001
0000
1000
0000
0010
1000
,
0010
0000
0100
0000
0001
0010
0001
0000
0010
0100
0010
0000
0100
0000
1000
0000
,
0010
0000
0100
0000
0001
0100
0001
0000
0100
0001
0100
0000
0001
1000
0100
0000
,
1000
0100
1000
0000
0100
0010
0001
0010
0100
0000
0010
0000
0001
0000
0100
0000
,
0010
0100
0010
0000
1000
0000
0001
0100
0001
0000
1000
0000
1000
0000
0100
0010
,
0001
0000
0010
0000
0001
0100
0001
0100
0001
0000
1000
0100
1000
0000
1000
0000
,
0010
0000
0000
0000
0000
0000
0100
0000
0000
0000
0000
0000
0001
0000
0000
0100
0000
0000
0010
0000
0000
0100
0000
0000
0001
0000
0000
0000
0000
0000
1000
0000
0000
0000
0000
0000
0100
0000
0000
0000
0010
0000
0000
0000
0100
0000
0000
0000
,
1000
0000
0010
0000
0100
0000
0010
0000
0000
0100
0000
0000
0010
0000
0000
0000
0000
0000
0110
0000
0000
0000
0000
0000
,
1010
1000
0100
0010
1000
1010
0000
0010
,
0001
0000
0001
0100
0010
0001
0011
0000
,
0010
1000
0100
1000
0010
1010
0000
0011
,
0000
0000
1100
0000
0000
0000
0101
0000
1000
0010
1000
0000
1000
0001
1000
0000
,
1000
0000
0100
0000
1000
0000
0000
0000
0001
0000
0000
0010
0000
0000
0100
0000
0000
1000
0000
0000
0001
0000
0010
0000
0001
0000
0000
0000
0001
0000
1000
0000
,
0001
0000
0000
0000
0001
0000
0100
0000
0001
0000
0000
0100
0000
0000
0010
0000
0000
1000
0000
0000
0001
0000
0010
0000
0001
0000
0010
0000
0001
0000
0010
0000
,
0001
0000
0010
0000
0001
0000
0010
0000
0100
0000
0000
0010
0000
0000
1000
0000
0000
0010
0000
0000
0100
0000
1000
0000
0001
0000
1000
0000
0001
0000
1000
0000
,
0001
1000
0001
1000
0001
1000
0002
0000
0000
0100
0000
0000
1003
0001
1000
0000
,
1000
0000
1000
0010
0000
0100
0000
0100
0000
0001
0000
0001
0000
0001
0010
0001
,
0010
0001
0000
1000
0100
1000
0100
1000
0000
0010
0000
0010
0100
0000
0001
0100
,
0001
0000
0010
0000
0010
0000
0100
0010
0100
0010
0100
0000
1000
0010
1000
0010
,
1000
0010
0000
1010
0000
0000
0000
0000
0001
0000
0001
0000
0010
0001
0000
0000
,
0000
1000
0010
1000
0010
0000
0000
0000
0000
0000
0100
0001
0100
0000
0001
0000
,
0000
0000
0000
0010
0001
0000
0000
1000
0100
0000
0000
0010
0100
0001
1000
0010
,
0100
0001
1000
0002
0000
0000
0000
0000
0000
0000
0000
0000
0000
0000
0000
0000
,
0000
0000
0000
0000
,
0000
0000
0000
0000
,
0000
0000
0000
0000
,
0000
0000
0000
0000
0003
0000
0000
0000
1000
0100
1000
0100
0010
0001
0010
0001
,
1000
0010
1000
0010
0100
0001
0100
0001
1000
0001
1000
0001
0000
0000
0000
0000
;

//---------------dance-single - ----------------
#NOTEDATA:;
#CHARTNAME:;
#STEPSTYPE:dance-single;
#DESCRIPTION:;
#CHARTSTYLE:;
#DIFFICULTY:Medium;
#METER:14;
#RADARVALUES:0.572048,0.725787,0.167454,0.218419,0.422276,550.000000,527.000000,23.000000,30.000000,0.000000,0.000000,0.000000,0.000000,0.000000,0.572048,0.725787,0.167454,0.218419,0.422276,550.000000,527.000000,23.000000,30.000000,0.000000,0.000000,0.000000,0.000000,0.000000;
#CREDIT:Karl with a K;
#NOTES:
// measure 0
0000
0000
0000
0000
,  // measure 1
0000
0000
0000
0000
,  // measure 2
0000
0000
0000
0000
,  // measure 3
0000
0000
0000
0000
,  // measure 4
2000
0000
0000
3020
0000
0000
0000
0000
,  // measure 5
0000
0000
0130
0002
,  // measure 6
0000
0023
0000
0000
0000
0000
0130
0000
,  // measure 7
0010
0000
0000
0001
0000
0000
1000
0000
1000
0100
0000
0100
,  // measure 8
0010
0000
0000
0001
0000
0001
0100
0000
0100
0010
0000
0000
,  // measure 9
1000
0000
0100
0000
0010
0000
0001
0000
1000
0000
0010
0000
,  // measure 10
0100
0000
0002
0000
0000
0000
0000
0000
0000
0000
0000
0000
,  // measure 11
0000
0000
0000
0000
,  // measure 12
0000
0203
0000
0000
,  // measure 13
0000
0000
0000
0000
0000
0000
0310
0010
,  // measure 14
0010
0000
1000
0100
2000
0000
0000
0000
0000
0000
0000
0000
0000
0000
0001
0000
,  // measure 15
0001
0000
0000
0000
0000
0000
0001
0000
0000
0000
0000
0000
0001
0000
0000
0000
0000
0000
0000
0000
0000
0001
0000
0000
0000
0000
0000
0000
0000
0000
0000
0000
0000
0000
0000
0000
3100
0000
0000
0000
0010
0000
0000
0000
0100
0000
0000
0000
,  // measure 16
0010
0000
0000
0000
0001
0010
0001
0000
0200
0000
0000
0000
0000
0000
0000
0000
,  // measure 17
0000
0000
0010
0000
0010
0000
0010
0000
0010
0000
0000
0010
0000
0000
0310
0000
,  // measure 18
0010
1000
0100
0010
0001
0100
0010
1000
,  // measure 19
0100
0010
0001
0001
1001
0000
0000
0000
,  // measure 20
0000
0000
0000
0000
0000
0000
0000
0000
1000
0000
0100
0000
0010
0000
0010
0001
,  // measure 21
0000
0100
0000
0010
0000
1000
0100
0000
1000
0000
1000
0100
0000
0100
0010
0001
,  // measure 22
0000
0000
1000
0000
0010
0000
0100
0000
0001
0100
0000
0010
0000
1000
0001
0000
,  // measure 23
1000
0000
0100
0000
0100
0000
0010
0000
0100
0010
0100
0010
0001
0000
0001
1000
,  // measure 24
0001
0000
0000
0001
0000
0000
0010
0000
0000
0100
0000
0000
1000
0000
0000
0010
0000
0000
0100
0000
0000
0001
0000
0100
,  // measure 25
0000
0001
0000
0010
0000
0000
0100
0000
0000
1000
0000
0000
0100
0000
0000
0010
0000
0001
0000
0010
0000
0001
0000
0000
,  // measure 26
0100
0000
0000
0010
0000
0000
0100
0000
0000
0000
0000
0000
0010
0000
0000
1000
0000
0000
0000
0000
0000
0001
0000
0000
0000
0000
0000
0010
0000
0000
0001
0000
0000
0000
0000
0000
0010
0000
0000
0000
0100
0000
0000
0000
0010
0000
0000
0000
,  // measure 27
0100
0000
1000
0000
0010
0000
0100
0000
0010
0000
1000
0000
0010
0100
0010
0100
,  // measure 28
0001
0000
0100
0000
0010
0000
0001
0010
0000
0100
0000
0010
0000
1000
0100
0000
,  // measure 29
1000
0000
0001
0100
0000
0100
0010
1000
0000
0000
0001
0000
0010
0000
0100
0000
,  // measure 30
0001
0100
0000
0010
0000
0001
1000
0000
0001
0000
0100
0000
0100
0000
1000
0000
,  // measure 31
0100
0010
0100
0010
1000
0000
1000
0000
0010
0000
0100
0001
0100
0000
0100
0000
,  // measure 32
0001
0000
0000
0100
0000
0000
0010
0000
0000
1000
0000
0100
0000
1000
0000
0010
0000
0000
0100
0000
0000
0001
0000
0000
,  // measure 33
0100
0000
0000
0000
0000
0000
0010
0000
0000
0000
1000
0000
0000
0000
0010
0000
0000
0000
1000
0000
0000
0000
0000
0000
0100
0000
0000
0010
0000
0000
0100
0000
0000
0000
0000
0000
0010
0000
0000
1000
0000
0000
0000
0000
0000
0010
0000
0000
,  // measure 34
0000
0000
0000
0100
0000
0000
1000
0000
0000
0000
0000
0000
0010
0000
0000
0000
0100
0000
0000
0000
0010
0000
0000
0000
0001
0000
0000
0000
0000
0000
0010
0000
0000
0000
0000
0000
0100
0000
0000
0000
0000
0000
0001
0000
0000
0000
0000
0000
,  // measure 35
0010
0000
0001
0000
0100
0010
0100
0010
2000
0000
0000
0000
0000
0000
0000
0000
,  // measure 36
0000
0000
0000
0000
,  // measure 37
0000
0000
3000
0000
0001
0001
0001
0001
,  // measure 38
1000
1000
1000
1000
0010
0000
0100
0000
,  // measure 39
0010
0110
0020
2030
,  // measure 40
3001
1000
0001
0000
0100
0000
0010
0000
,  // measure 41
1000
0010
1000
0010
0001
0000
1000
0001
,  // measure 42
1000
0000
0100
0001
1000
0001
1000
0000
,  // measure 43
1000
0100
0010
0001
0100
0000
0010
1000
,  // measure 44
0100
0000
0100
0000
0010
0000
0000
0000
0000
0000
0000
0000
,  // measure 45
0110
0000
0010
0010
0001
0001
1000
1000
,  // measure 46
0100
0100
1000
1000
0010
0010
1000
1000
,  // measure 47
0100
0100
0010
0000
0100
0100
0010
0010
,  // measure 48
1000
1000
0001
0001
0100
1000
0001
0010
,  // measure 49
0001
0000
0001
0000
0001
0000
1000
0000
1000
0000
1000
0000
,  // measure 50
2002
0000
0000
0000
,  // measure 51
0000
0000
0000
0000
3003
0000
0000
0000
1000
0000
0100
0000
1000
0000
0100
1000
,  // measure 52
0000
0100
0000
1000
0100
0000
1000
0000
0001
0000
0100
0000
0001
0100
0000
0000
,  // measure 53
0002
0000
0000
0010
0023
0032
0203
0320
,  // measure 54
2030
0000
3200
0000
2300
0000
3002
0000
0203
0000
0000
0302
0000
0000
0023
0000
,  // measure 55
0000
0032
0000
0000
0200
0000
0000
0000
0300
0000
0000
0000
1003
0000
1000
0000
,  // measure 56
0100
0010
0100
0001
0100
1000
0010
0100
,  // measure 57
1000
0100
0010
0000
0010
0000
0010
0000
,  // measure 58
0010
2002
0000
0000
0000
0000
0000
0000
,  // measure 59
0000
0000
0000
3003
,  // measure 60
0000
0000
0000
0000
0000
0000
0000
0000
0000
0000
0000
0110
0000
0000
0110
0000
,  // measure 61
0000
0110
0000
0000
0000
0110
0000
0000
0110
0000
0000
0110
0000
0000
0000
0000
,  // measure 62
0000
0000
0000
0000
1000
0000
0100
0000
0010
0000
0100
0000
1000
0000
0100
1000
,  // measure 63
0000
0010
0100
0001
0100
0001
0100
0010
,  // measure 64
0100
1000
0100
0010
1000
0100
0010
0001
,  // measure 65
0100
0010
1000
0100
0010
0001
1000
0010
,  // measure 66
0100
0010
0100
0010
0100
0000
1000
0000
0100
0000
0010
0000
1000
0000
0100
0000
,  // measure 67
0010
1000
0010
0100
1000
0010
0100
0001
,  // measure 68
1000
0001
0010
0001
0100
0010
0100
0001
,  // measure 69
1000
0000
0000
0010
0000
0000
0100
0000
0000
1000
0000
0000
0100
0000
0000
0001
0000
0000
1000
0000
0100
0000
1000
0000
,  // measure 70
0100
0101
0101
0101
,  // measure 71
1000
0100
1000
0000
1100
1000
0000
1100
,  // measure 72
1000
0000
0001
0100
1010
0000
1010
0000
,  // measure 73
1000
0001
0010
0001
0011
0000
0001
0011
,  // measure 74
0000
0011
0000
0011
1000
1000
0010
0010
,  // measure 75
0100
0000
0100
0000
0001
0000
0000
0001
0000
0000
1000
0000
1000
0000
0100
0000
,  // measure 76
0100
0000
0010
0000
0010
0000
0000
0001
0000
0000
0001
0000
0001
0000
0100
0000
,  // measure 77
0100
0000
0010
0000
0010
0000
0000
1000
0000
0000
0001
0000
0001
0000
0010
0000
,  // measure 78
0010
0000
0100
0000
0100
0000
1100
0000
0000
1000
0000
0000
1000
0000
0010
0000
,  // measure 79
1000
0000
0000
0001
0000
0010
0000
0001
0000
1000
0000
0010
0000
1000
0001
1000
,  // measure 80
0001
1000
0000
0100
0010
0100
0010
0100
0000
0010
0000
0000
0001
0000
0000
0100
,  // measure 81
0000
0000
0010
0000
0010
0000
1000
0010
1000
0010
1000
0000
0001
0100
0001
0100
,  // measure 82
0001
0100
0000
0100
0000
0000
0000
0000
0001
0000
0100
0000
0001
0000
0000
0000
,  // measure 83
0000
0000
1000
0000
0100
1000
0000
0000
0000
0000
0001
0000
0100
0000
0001
0000
,  // measure 84
0000
0000
0000
0000
1000
0100
0000
0000
1000
0100
0000
0000
0010
0001
0010
0001
,  // measure 85
0100
0010
0100
0020
0000
0000
0000
0000
0000
0000
0000
0000
0000
0000
0000
0000
,  // measure 86
0000
0000
0000
0000
,  // measure 87
0000
0000
0000
0000
,  // measure 88
0000
0000
0000
0000
,  // measure 89
0000
0000
0030
0000
0100
0100
0100
0100
,  // measure 90
0100
0100
0100
0100
0100
0100
0000
0000
;

//---------------dance-single - ----------------
#NOTEDATA:;
#CHARTNAME:;
#STEPSTYPE:dance-single;
#DESCRIPTION:;
#CHARTSTYLE:;
#DIFFICULTY:Easy;
#METER:11;
#RADARVALUES:0.333868,0.528573,0.145612,0.247541,0.138332,321.000000,301.000000,20.000000,34.000000,0.000000,0.000000,0.000000,0.000000,0.000000,0.333868,0.528573,0.145612,0.247541,0.138332,321.000000,301.000000,20.000000,34.000000,0.000000,0.000000,0.000000,0.000000,0.000000;
#CREDIT:Karl with a K;
#NOTES:
// measure 0
0000
0000
0000
0000
,  // measure 1
0000
0000
0000
0000
,  // measure 2
0000
0000
0000
0000
,  // measure 3
0000
0000
0000
0000
,  // measure 4
2002
0000
0000
0000
,  // measure 5
0000
0000
3003
0220
,  // measure 6
0000
0000
0000
0000
,  // measure 7
0000
0330
0001
0100
,  // measure 8
0010
1000
0100
0010
,  // measure 9
0001
0000
0000
0000
1000
0000
0000
0000
0001
0000
0000
0000
,  // measure 10
1000
0000
0000
0000
,  // measure 11
0000
0000
0000
0000
,  // measure 12
0000
2002
0000
0000
,  // measure 13
0000
0000
3003
0010
,  // measure 14
1000
0200
0000
0000
,  // measure 15
0010
0000
0000
0000
0010
0000
0000
0010
0000
0000
0310
0000
0100
0000
0000
0000
,  // measure 16
0001
0000
0100
0010
0120
0000
0000
0000
,  // measure 17
0000
0000
0000
0000
0100
0000
0000
0000
0100
0000
0000
0100
0000
0000
0230
0000
,  // measure 18
2300
0001
0002
0000
,  // measure 19
0000
0000
3003
0000
,  // measure 20
0000
0000
0000
0000
0000
0000
0000
0000
0001
0000
0000
0000
0100
0000
0000
0010
,  // measure 21
0000
0000
1000
0000
0000
0100
0000
0000
0010
0000
0010
0000
0000
0001
0000
0000
,  // measure 22
0100
0000
0001
0000
0000
0000
1000
0000
0000
0100
0000
0010
0000
0000
0001
0000
,  // measure 23
0100
0010
1000
1000
0001
0000
0010
0000
,  // measure 24
0100
0000
1000
0000
0001
0000
1000
0010
,  // measure 25
0000
1000
0000
0010
0100
0001
0000
1000
,  // measure 26
0010
0000
0100
0000
0000
0001
0000
0010
0000
0000
0001
0000
1000
0000
0000
0000
,  // measure 27
0001
0000
0000
0010
0000
0100
0000
0010
0001
0000
0100
0000
1000
0000
0100
0000
,  // measure 28
0001
0000
0000
0000
0100
0000
0000
0010
0000
0000
1000
0000
0000
0100
0000
0000
,  // measure 29
0001
0000
0100
0000
0000
1000
0000
0000
0001
0000
0001
0000
0000
0000
1000
0000
,  // measure 30
0000
0100
0000
0010
0000
0000
0001
0000
0100
0000
0010
0000
0001
0000
1000
0000
,  // measure 31
0100
0000
0001
1000
1000
1000
1000
0000
,  // measure 32
0001
0000
1000
0010
0000
0001
0000
0010
,  // measure 33
0100
0000
0001
0000
0000
0000
1000
0000
0010
0000
0100
0000
0000
0001
0000
0100
,  // measure 34
0000
0000
0001
0000
0010
0000
0000
0000
1000
0000
0000
0010
0000
0100
0000
0010
,  // measure 35
0000
0100
1000
0100
0020
0000
0000
0000
,  // measure 36
0000
0000
0000
0000
,  // measure 37
0000
0000
0000
0000
,  // measure 38
0000
0000
0032
0000
,  // measure 39
0000
0103
0110
0010
,  // measure 40
0001
1000
0001
0010
,  // measure 41
1000
0001
0100
1000
,  // measure 42
0100
0001
1000
1000
,  // measure 43
1000
0000
0010
0100
0010
0000
1000
0000
,  // measure 44
0100
0000
0100
0000
0100
0000
0000
0000
0000
0000
0000
0000
,  // measure 45
0110
0010
0010
0010
,  // measure 46
0001
0001
0001
0001
,  // measure 47
0010
1000
1000
1000
,  // measure 48
0010
0010
0100
0100
,  // measure 49
1000
0000
0001
0000
,  // measure 50
2002
0000
0000
0000
,  // measure 51
0000
0000
0000
0000
,  // measure 52
0000
0000
0000
3003
,  // measure 53
2000
0000
0000
3020
0000
0000
0230
0000
,  // measure 54
0000
0302
0000
0000
0203
0000
0000
0320
,  // measure 55
0000
0000
2030
0000
0000
3200
0000
0000
,  // measure 56
0320
0000
0000
2030
0000
3002
0000
0000
,  // measure 57
0203
1300
0000
0000
,  // measure 58
0000
1001
0000
0000
0000
0000
0000
0000
,  // measure 59
0000
0000
0000
0000
,  // measure 60
0000
0000
0000
0000
0000
0000
0000
0000
0000
0000
0000
1000
0000
0000
1000
0000
,  // measure 61
0000
1000
0000
0000
0000
0001
0000
0000
0001
0000
0000
0001
0000
0000
0000
0000
,  // measure 62
0000
0000
1000
0000
0100
0000
0010
0100
,  // measure 63
0010
0000
0001
0000
0100
0000
0010
0100
,  // measure 64
0010
0000
1000
0000
0010
0000
0100
0010
,  // measure 65
0100
0000
0001
0000
0010
0100
1000
0100
,  // measure 66
0010
0100
1000
0010
1000
0000
0010
0000
,  // measure 67
0100
0000
0001
0000
0010
0000
0100
0010
,  // measure 68
0001
0000
0010
0100
1000
0010
0100
0001
,  // measure 69
0100
0010
1000
0100
1000
0100
1000
0000
,  // measure 70
1001
1000
0010
0001
,  // measure 71
0010
1000
0001
0010
,  // measure 72
1000
0010
0001
0100
,  // measure 73
1000
0100
0001
1000
,  // measure 74
0100
0000
0001
0000
0100
0010
0100
0010
,  // measure 75
0100
0010
0200
0000
0000
1300
0010
1000
,  // measure 76
0010
1000
0020
0000
0000
0130
0001
0100
,  // measure 77
0001
0100
0002
0000
0000
0103
0010
0100
,  // measure 78
0010
0100
0010
1000
0000
0000
1000
0000
,  // measure 79
1000
0000
0000
0001
0000
0000
0001
0000
0000
0000
0001
0000
0000
0000
0001
0000
,  // measure 80
0001
0000
0000
0000
1000
0000
0000
0000
0010
0000
0100
0000
0010
0000
0000
1000
,  // measure 81
0000
0000
0000
0001
0000
0000
0000
0001
0000
0000
0000
0000
1000
0000
0000
0000
,  // measure 82
1000
0000
0000
1001
0000
0000
0000
0000
0110
0000
0000
0000
0110
0000
0000
0000
,  // measure 83
0000
1001
0000
0000
0000
0000
0000
0000
0000
0000
0110
0000
0000
0000
0110
0000
,  // measure 84
0000
0000
0000
1001
0000
0000
0000
1001
0000
0000
0000
0000
0110
0000
0000
0000
,  // measure 85
0000
0220
0000
0000
,  // measure 86
0000
0000
0000
0000
,  // measure 87
0000
0000
0000
0000
,  // measure 88
0000
0000
0000
0000
,  // measure 89
0000
0330
2002
0000
,  // measure 90
0000
0000
0000
3003
;

//---------------dance-single - ----------------
#NOTEDATA:;
#CHARTNAME:;
#STEPSTYPE:dance-single;
#DESCRIPTION:;
#CHARTSTYLE:;
#DIFFICULTY:Beginner;
#METER:4;
#RADARVALUES:0.163294,0.330358,0.152893,0.065526,0.025482,157.000000,136.000000,21.000000,9.000000,0.000000,0.000000,0.000000,0.000000,0.000000,0.163294,0.330358,0.152893,0.065526,0.025482,157.000000,136.000000,21.000000,9.000000,0.000000,0.000000,0.000000,0.000000,0.000000;
#CREDIT:;
#NOTES:
// measure 0
0000
0000
0000
0000
,  // measure 1
0000
0000
0000
0000
,  // measure 2
0000
0000
0000
0000
,  // measure 3
0000
0000
0000
0000
,  // measure 4
1000
0000
0000
0000
,  // measure 5
0000
0000
0000
1000
,  // measure 6
0000
0000
0000
0000
,  // measure 7
0000
0000
0001
0000
,  // measure 8
0000
0000
0000
0000
,  // measure 9
0001
0000
0000
0000
,  // measure 10
0000
0000
0000
0000
,  // measure 11
0000
0000
0000
0000
,  // measure 12
0000
1001
0000
0000
,  // measure 13
0000
0000
0000
0000
,  // measure 14
0000
1001
0000
0000
,  // measure 15
0000
0000
0000
0010
,  // measure 16
0000
0100
2002
0000
,  // measure 17
0000
0000
0000
0000
,  // measure 18
0000
0000
0000
0000
,  // measure 19
0000
0000
3003
0000
,  // measure 20
0000
0000
0001
0000
,  // measure 21
0001
0000
0000
0100
0000
0000
0000
0100
,  // measure 22
0000
0000
0000
0010
0000
0000
0000
0010
,  // measure 23
0000
1000
0000
1000
,  // measure 24
0000
1000
0000
1000
,  // measure 25
0000
0100
0000
0000
0000
0100
0000
0000
,  // measure 26
0000
0010
0000
0000
0000
0010
0000
0000
,  // measure 27
0001
0000
0001
0000
,  // measure 28
1000
0000
0000
0000
0010
0000
0000
0001
,  // measure 29
0000
0000
0000
0010
0000
0000
0000
1000
,  // measure 30
0000
0000
0000
0100
0000
0000
0001
0000
,  // measure 31
0000
0100
0000
1000
,  // measure 32
0000
0000
0001
0000
0000
0100
0000
0000
,  // measure 33
0000
1000
0000
0000
0000
0100
0000
0000
,  // measure 34
0000
0001
0000
0000
0010
0000
0000
0000
,  // measure 35
1000
0000
0020
0000
,  // measure 36
0000
0000
0000
0000
,  // measure 37
0000
0000
0000
0000
,  // measure 38
0000
0000
0031
0000
,  // measure 39
0000
0000
0100
0000
,  // measure 40
0010
0000
0100
0000
,  // measure 41
0010
0000
0100
0000
,  // measure 42
0000
0000
1000
0000
,  // measure 43
0000
0000
0100
0000
,  // measure 44
0001
0000
0000
0000
,  // measure 45
0010
0010
0010
0000
,  // measure 46
0010
0010
0010
0000
,  // measure 47
0010
0010
0010
0000
,  // measure 48
0010
0010
0010
0000
,  // measure 49
0110
0000
0000
0000
,  // measure 50
1001
0000
0000
0000
,  // measure 51
0000
0000
0000
0000
,  // measure 52
0000
0000
0000
0000
,  // measure 53
2000
0000
0000
3002
,  // measure 54
0000
0000
0203
0000
,  // measure 55
0000
0320
0000
0000
,  // measure 56
1030
0000
0000
0100
0000
0001
0000
0000
,  // measure 57
0010
1000
0000
0000
,  // measure 58
0000
1001
0000
0000
0000
0000
0000
0000
,  // measure 59
0000
0000
0000
0000
,  // measure 60
0000
0000
0000
0000
,  // measure 61
0000
0000
0000
0000
,  // measure 62
0000
1000
1000
1000
,  // measure 63
0000
0001
0001
0001
,  // measure 64
0000
0100
0100
0100
,  // measure 65
0000
0010
0010
0010
,  // measure 66
0000
1000
1000
1000
,  // measure 67
0000
0010
0010
0010
,  // measure 68
0000
0100
0100
0100
,  // measure 69
0000
1000
1000
1000
,  // measure 70
0000
0100
0000
0001
,  // measure 71
0000
0010
0000
1000
,  // measure 72
0000
0010
0001
0000
,  // measure 73
1000
0000
0100
0000
,  // measure 74
0001
0000
0100
0100
,  // measure 75
0100
0000
0100
0000
0000
1000
0000
1000
,  // measure 76
0000
1000
0000
0000
0000
0010
0000
0010
,  // measure 77
0000
0010
0000
0000
0000
1000
0000
1000
,  // measure 78
0000
1000
0000
1001
0000
0000
1001
0000
,  // measure 79
0000
0000
0000
0000
0000
1001
0000
0000
0000
0000
0000
0000
0000
0000
1001
0000
,  // measure 80
0000
0000
0000
0000
0000
1001
0000
0000
0000
0000
0000
0000
0000
0000
1001
0000
,  // measure 81
0000
0000
0000
0000
0000
0000
0000
1001
0000
0000
0000
0000
0000
0000
0000
1001
,  // measure 82
0000
0000
1001
0000
,  // measure 83
0000
1001
0000
0000
0000
0000
0000
0000
0000
0000
1001
0000
0000
0000
0000
0000
,  // measure 84
0000
0000
0000
1001
0000
0000
0000
0000
0000
0000
0000
1001
0000
0000
0000
0000
,  // measure 85
0000
1001
0000
0000
,  // measure 86
0000
0000
0000
0000
,  // measure 87
0000
0000
0000
0000
,  // measure 88
0000
0000
0000
0000
,  // measure 89
0000
0000
0220
0000
,  // measure 90
0000
0000
0000
0330
;
