#VERSION:0.83;
#TITLE:RAVERobber;
#SUBTITLE:;
#ARTIST:dj VERTICAI;
#TITLETRANSLIT:;
#SUBTITLETRANSLIT:;
#ARTISTTRANSLIT:;
#GENRE:;
#ORIGIN:;
#CREDIT:;
#BANNER:RAVERobber.png;
#BACKGROUND:RAVERobber-bg.png;
#PREVIEWVID:;
#JACKET:RAVERobber-jacket.png;
#CDIMAGE:;
#DISCIMAGE:;
#LYRICSPATH:;
#CDTITLE:;
#MUSIC:RAVERobber.ogg;
#OFFSET:-0.029871;
#SAMPLESTART:79.555153;
#SAMPLELENGTH:15.000000;
#SELECTABLE:YES;
#BPMS:0.000=175.000;
#STOPS:;
#DELAYS:;
#WARPS:;
#TIMESIGNATURES:0.000=4=4;
#TICKCOUNTS:0.000=4;
#COMBOS:0.000=1;
#SPEEDS:0.000=1.000=0.000=0;
#SCROLLS:0.000=1.000;
#FAKES:;
#LABELS:0.000=Song Start;
#BGCHANGES:;
#KEYSOUNDS:;
#ATTACKS:
;

//---------------dance-single - ----------------
#NOTEDATA:;
#CHARTNAME:;
#STEPSTYPE:dance-single;
#DESCRIPTION:;
#CHARTSTYLE:;
#DIFFICULTY:Hard;
#METER:16;
#RADARVALUES:0.815568,0.828723,0.408356,0.264230,0.600524,713.000000,662.000000,51.000000,33.000000,0.000000,0.000000,0.000000,0.000000,0.000000,0.815568,0.828723,0.408356,0.264230,0.600524,713.000000,662.000000,51.000000,33.000000,0.000000,0.000000,0.000000,0.000000,0.000000;
#CREDIT:;
#NOTES:
0000
0000
0000
0000
,
0000
0000
0000
0000
,
1000
0000
0100
0000
0010
0000
0001
0000
0010
0000
0100
0000
1000
0000
0001
1000
,
0001
0000
0000
0010
0000
0000
0010
0000
0100
0000
1000
0000
0002
0000
0000
0000
,
1003
0000
0010
0000
0100
0000
0001
0000
0100
0000
0010
0000
1000
0000
0001
1000
,
0001
0100
0100
0100
0010
1000
2001
0000
,
3001
0010
0100
1000
0100
0010
0001
1000
,
0010
0000
0100
0010
0100
0010
1000
0000
1010
0000
0000
0000
0012
0000
0000
0000
,
1003
0100
0001
0100
0110
0010
0110
0000
,
0100
0000
1000
0000
0010
0000
1000
0001
0100
0000
0001
0000
0010
0000
0001
0000
,
1000
0100
1000
0001
0010
0001
0100
0010
,
0010
1000
0010
0100
0002
0000
0103
0010
,
1000
0001
0010
0001
1000
0100
1000
0001
,
0010
1000
0010
0001
0100
1000
0100
0100
,
0101
0000
0001
1000
1100
0000
1000
0001
,
0011
0010
0001
1000
1010
0010
1000
0010
,
0110
0100
0001
0010
0100
1000
0010
0100
,
0001
0000
0001
0000
1000
0000
1000
0000
0100
0010
0100
0000
1001
0000
0000
0000
,
0001
0100
0000
0100
0000
0000
0001
0100
0000
0100
0000
0000
0100
0000
0001
0000
,
1000
0100
0000
0100
0000
0000
1000
0100
0000
0100
0000
0000
0010
0000
0001
0000
,
1000
0010
0000
0010
0000
0000
1000
0010
0000
0010
0000
0000
0010
0000
1000
0000
,
0001
0010
0000
0010
0000
0000
0100
0010
0000
0010
0000
0000
0001
0000
1000
0000
,
0001
0100
0000
0100
0000
0000
1000
0100
0000
0100
0000
0000
0100
0000
0001
0000
,
1000
0100
0000
0100
0000
0000
0001
0100
0000
0100
0000
0000
0010
0000
0001
0000
,
1000
0010
0000
0010
0000
0000
0001
0010
0000
0010
0000
0000
1000
0000
0001
0000
,
1000
0100
1000
0001
0010
0100
0020
0000
,
0031
0000
0010
0000
0100
0000
0010
0000
0001
0000
0010
0000
0100
0000
1000
0001
,
1000
0000
0010
0000
0100
0000
0010
0000
1000
0000
0010
0000
0100
0000
0001
1000
,
0001
0000
0010
0000
0100
0000
1000
0000
0010
0000
0100
0000
0010
0000
1000
0001
,
1000
0000
0010
0000
0100
0000
0001
0000
0010
0000
0010
0000
0100
0010
0100
0010
,
0001
0000
0010
0000
1000
0000
0001
0000
0100
0000
1000
0000
0001
1000
0001
1000
,
0001
0000
0100
0000
1000
0000
0001
0000
0010
0000
1000
0000
0001
0100
0001
0100
,
0010
0000
0010
0000
0010
0000
0010
0000
0010
0000
0010
0000
0010
1000
0001
1000
,
0200
0000
0000
0000
0300
0000
0000
0000
0100
0000
0100
1000
0001
0000
1000
0000
,
0001
0000
0100
0000
0001
0000
0100
0000
0010
0000
0100
0010
0000
0010
0100
0000
,
0010
0000
1000
0000
0010
0000
1000
0000
0001
0000
1000
0001
0000
0001
0010
0000
,
0001
0000
0010
0000
0001
0000
0010
0000
0100
0000
0010
0100
0000
0100
0010
0000
,
0100
1000
0000
0100
1000
0000
0001
0100
0000
0001
0100
0000
0010
0000
0100
0000
,
0001
0000
0100
0000
0001
0000
0100
0000
0001
0000
0010
0001
0000
0001
0010
0000
,
0100
0000
1000
0000
0100
0000
1000
0000
0010
0000
1000
0010
0000
0010
0100
0000
,
0001
0000
0100
0000
1000
0000
0100
0000
0001
0000
0001
1000
0000
0100
0010
0100
,
2000
0000
3002
0000
1003
0010
0100
0001
,
1000
0000
1000
0000
1100
0000
0100
0000
0110
0000
0000
0110
0000
0000
0010
0000
,
0001
0000
0001
0000
0101
0000
0100
0000
0110
0000
0000
0110
0000
0000
0010
0000
,
1000
0000
0001
0000
0011
0000
1000
0000
1010
0000
0000
1010
0000
0000
0010
0000
,
0200
0302
2003
3200
0000
2300
3020
0130
,
0001
0100
0001
0000
0000
0101
0000
0000
1001
0000
0000
1100
0000
0000
0100
0000
,
0110
0000
1000
0000
1001
0000
0100
0000
0110
0000
0000
0110
0000
0000
0010
0000
,
0001
1000
0000
1000
0100
0000
1000
0010
0000
0010
0100
0000
0100
0001
1000
0001
,
1000
0000
0000
1000
0000
0000
1000
0001
0100
0000
0010
0000
1000
0000
1000
0001
,
0020
0000
0000
0000
,
0230
0000
0000
0000
,
1300
0000
0000
0100
0000
0000
1000
0000
0001
0000
0000
1000
0000
0000
0001
0000
,
0100
0000
0000
0001
0000
0000
0100
0000
0001
0000
0010
0000
0100
0000
1000
0000
,
0001
0000
0100
0001
0000
0100
0001
0000
0100
0000
0010
0100
0000
0010
0100
0000
,
0010
0000
1000
0010
0000
1000
0010
0000
1000
0000
0001
1000
0000
0001
1000
0100
,
1000
0000
0000
1100
0000
0000
1001
0000
0001
0000
0000
0101
0000
0000
1001
0000
,
2000
3000
0000
0020
0030
0000
0200
0300
0000
0002
0003
0000
0010
0001
0010
0100
,
1000
0000
0001
0000
0010
0000
0001
0000
1000
0000
0100
0010
0000
0010
0001
0000
,
1000
0000
0001
0000
0100
0000
0001
0000
1000
0010
0000
0100
0000
0100
0001
0000
,
1000
0000
0001
0000
0010
0000
0001
0000
1000
0000
0000
1100
0000
0000
0100
0000
,
0010
0000
0001
1000
0000
0000
0010
0000
0010
1000
0000
0001
0000
0000
0010
0000
,
0001
0000
1000
0000
0010
0000
1000
0000
0001
0000
0100
0010
0000
0010
1000
0000
,
0001
0000
1000
0000
0100
0000
1000
0000
0001
0010
0000
0100
0000
0100
1000
0000
,
0001
0000
0100
0000
1000
0000
0100
0000
0001
0000
0000
0101
0000
0000
0100
0001
,
1000
0000
0010
0000
0100
0000
0010
0000
1000
0010
1000
0000
0001
0010
0001
0000
,
1000
0000
0001
0000
0010
0000
0100
0000
1000
0100
1000
0000
0001
0000
0010
0000
,
0001
0000
1000
0000
0010
0000
0100
0010
0200
0000
0000
0000
0301
0000
1000
0000
,
0001
0000
0010
0000
0100
0000
1000
0000
0001
0000
0010
0100
0010
0000
0100
0000
,
1000
0000
0000
1100
0000
0000
1000
0000
0001
0000
0000
0101
0000
0000
0001
0000
,
1000
0000
0010
0100
0010
0000
1000
0000
0001
0000
0010
0100
0010
0000
0001
0000
,
1000
0000
1000
0000
0010
0000
0100
0000
0001
1000
0001
1000
0100
0000
0010
0000
,
0100
1000
0100
0010
0100
0001
0100
0010
,
0001
0001
1000
1000
0020
0230
0320
0230
,
0302
0000
0000
0000
0000
0000
0000
1003
,
2000
0000
0000
0000
0000
0000
0000
0000
3010
0000
0000
0100
0000
0000
0010
0000
,
2002
0000
0000
3003
,
0001
1000
0001
1000
0001
0000
0001
0100
0010
0000
0010
0000
1000
0000
1000
0001
,
0010
0000
0010
0000
0010
0000
0010
0000
0110
0000
0000
0011
0000
0000
1100
0000
,
1000
0000
1000
0000
0001
0000
0001
0000
0101
0000
0000
0110
0000
0000
1010
0000
,
0010
0000
0100
0000
0001
0000
1000
0000
1001
0000
0000
0011
0000
0000
1010
0000
,
2000
0000
0000
3010
0000
0000
0020
0000
0000
0130
0000
0000
0200
0000
0301
0000
,
1000
0001
1000
0000
0000
1100
0000
0000
1001
0000
0000
0011
0000
0000
1001
0000
,
1000
0000
0010
0000
0100
0010
0100
0010
0100
0000
0000
0101
0000
0000
1010
0000
,
1000
0001
0000
0010
0000
0001
0000
1000
0000
0100
0000
0100
0010
0000
0001
0000
,
0100
0000
0000
0100
0000
0000
0100
0000
0010
0000
1000
0000
0100
1000
0100
0010
,
0002
0003
0000
0000
;

//---------------dance-single - ----------------
#NOTEDATA:;
#CHARTNAME:;
#STEPSTYPE:dance-single;
#DESCRIPTION:;
#CHARTSTYLE:;
#DIFFICULTY:Medium;
#METER:13;
#RADARVALUES:0.582222,0.587012,0.360314,0.280244,0.228199,509.000000,464.000000,45.000000,35.000000,0.000000,0.000000,0.000000,0.000000,0.000000,0.582222,0.587012,0.360314,0.280244,0.228199,509.000000,464.000000,45.000000,35.000000,0.000000,0.000000,0.000000,0.000000,0.000000;
#CREDIT:;
#NOTES:
0000
0000
0000
0000
,
0000
0000
0000
0000
,
1000
0100
0010
0000
0100
0010
0001
0000
,
1000
0000
0000
0001
0000
0000
0001
0000
0100
0000
0010
0000
2000
0000
0000
0000
,
3001
0100
0010
0000
0100
0010
1000
0000
,
0001
1000
0100
1000
0100
0010
0002
0000
,
1003
0001
0010
0000
0010
0001
1000
0000
,
0020
0000
1030
0001
2000
0000
3200
0000
,
1300
0001
0100
0001
0010
0000
1001
0000
,
0001
0100
1000
0000
1000
0100
0001
0000
,
2000
0000
3002
0000
1003
0100
0010
0001
,
0000
0001
0020
0000
0230
0000
1300
0001
,
0200
0000
0320
0000
0130
0001
1000
0010
,
0000
0010
1000
0001
0000
0001
0010
0000
,
2100
3001
0102
1003
,
1000
1000
0100
0010
0001
0001
0100
0010
,
2000
3002
2003
3002
,
0103
0100
0010
0100
0020
0000
0030
0000
,
1000
0000
0000
1000
0000
0000
0100
0000
0000
0100
0000
0000
1000
0000
0001
0000
,
0100
0000
0000
0100
0000
0000
0001
0000
0000
0001
0000
0000
0100
0000
0010
0000
,
1000
0000
0000
1000
0000
0000
0010
0000
0000
0010
0000
0000
1000
0000
0001
0000
,
0010
0000
0000
0010
0000
0000
0100
0000
0000
0100
0000
0000
0010
0000
0001
0000
,
1000
0000
0000
0100
0000
0000
1000
0000
0000
0100
0000
0000
0100
0000
1000
0000
,
0001
0000
0000
0100
0000
0000
0001
0000
0000
0100
0000
0000
0100
0000
0001
0000
,
0010
0000
0000
0001
0000
0000
0010
0000
0000
0001
0000
0000
0001
0000
1000
0000
,
0010
1000
0010
0100
0001
0100
0020
0000
,
1030
1100
0100
1100
,
1000
0000
1001
0000
0001
1000
0010
0100
,
0001
0101
0100
0101
,
0001
0000
1001
0000
1000
0001
0010
0100
,
1000
1100
0110
0011
,
0110
1001
1010
0101
,
0100
0010
1000
0010
0100
0001
0010
0100
,
2000
0000
0000
0000
0001
0001
3001
0000
,
0101
0000
0000
0000
0101
0000
0000
0000
0100
0000
0000
0010
0000
0000
1000
0000
,
1100
0000
0000
0000
1100
0000
0000
0000
0100
0000
0000
1000
0000
0000
0001
0000
,
0101
0000
0000
0000
0101
0000
0000
0000
0001
0000
0000
1000
0000
0000
0010
0000
,
1000
0000
0000
1000
0000
0000
0001
0000
0000
0001
0000
0000
0010
0000
0010
0000
,
0011
0000
0000
0000
0011
0000
0000
0000
0010
0000
0000
0100
0000
0000
1000
0000
,
1010
0000
0000
0000
1010
0000
0000
0000
1000
0000
0000
0001
0000
0000
0010
0000
,
0011
0000
0000
0000
0011
0000
0000
0000
0010
0000
0000
0100
0000
0000
0010
0000
,
0002
0000
2003
0000
3001
0100
0010
1000
,
0000
0000
0010
0000
0010
0000
0000
0000
1000
0000
0000
0010
0000
0000
0100
0000
,
0110
0000
0000
0000
0110
0000
0000
0000
0001
0000
0000
1000
0000
0000
0100
0000
,
0110
0000
0000
0000
0110
0000
0000
0000
0100
0000
0000
1000
0000
0000
0001
0000
,
0010
0001
1000
0020
0000
1030
0010
0100
,
0100
0000
0001
0000
0000
0001
0000
0000
1001
0000
0000
1001
0000
0000
1000
0000
,
0010
0000
0100
0000
0001
0000
0100
0000
0010
0000
0000
0010
0000
0000
1000
0000
,
0100
0000
0000
1100
0000
0000
1001
0000
0000
0101
0000
0000
1000
0000
0100
0000
,
0010
0000
0000
0010
0000
0000
0100
0000
0010
0000
0001
0000
1000
0000
0010
0000
,
0200
0000
0000
0000
,
0320
0000
0000
0000
,
2030
0000
0000
0000
,
3002
0000
0000
0000
,
0013
0000
0010
0000
0100
1000
0001
0100
,
0010
0000
0010
0000
0100
0001
1000
0100
,
1000
0000
0000
0001
0000
0000
0100
0000
0001
0000
0000
1000
0000
0000
0100
0000
,
1000
0000
0000
1000
0000
0000
0001
0000
0000
0001
0000
0000
0100
0000
0010
0000
,
1000
0000
0010
0000
0100
0000
0000
0000
0001
0000
0000
0001
0000
0000
1000
0000
,
0001
0000
0010
0000
0100
0000
0000
0000
1000
0000
0000
1000
0000
0000
0001
0000
,
1000
0000
0010
0000
0100
0000
0000
0000
0001
0000
0000
0001
0000
0000
0100
0000
,
0010
0000
0000
0010
0000
0000
1000
0000
0001
0000
0000
0001
0000
0000
0100
0000
,
0001
0000
1000
0000
0100
0000
0000
0000
0010
0000
0000
0010
0000
0000
0100
0000
,
1000
0000
0001
0000
0100
0000
0000
0000
0010
0000
0000
0010
0000
0000
0100
0000
,
0001
0000
0100
0000
1000
0000
0100
0000
0010
0000
0000
0010
0000
0000
1000
0000
,
0100
0001
0100
1000
0100
0010
0100
0010
,
0002
0000
1003
0000
1000
0010
0100
0002
,
0003
0001
1000
0000
0020
0000
0130
0001
,
2000
0000
3001
0000
1000
0100
0010
0100
,
0000
0100
1000
0001
0000
0001
0100
0100
,
0010
0101
0010
1100
,
0010
0010
0100
0001
0010
0010
0100
1000
,
0001
0011
1001
1010
,
0010
0000
0100
0000
0001
0000
1000
0000
0100
0000
0000
0010
0000
0000
0100
0000
,
2000
0000
0000
0000
0000
0000
0000
3001
,
0002
0000
0000
0000
0000
0000
0000
0000
1003
0000
0000
0100
0000
0000
0100
0000
,
0020
0000
0000
0000
,
0031
0001
0001
1000
0001
0100
0010
1000
,
0100
0000
0100
0000
0100
0000
0100
0000
0100
0000
0000
1000
0000
0000
0001
0000
,
0100
0000
0100
0000
0001
0000
0001
0000
1000
0000
0000
0010
0000
0000
1000
0000
,
0100
0000
0100
0000
0010
0000
0010
0000
0100
0000
0000
1000
0000
0000
0001
0000
,
1000
0000
0000
0010
0000
0000
0001
0000
0000
0010
0000
0000
1000
0000
0001
0000
,
1000
0000
1000
0000
0000
0100
0000
0000
0010
0000
0000
0100
0000
0000
1000
0000
,
0001
0000
0100
0000
0001
0000
0100
0000
0010
0000
0000
0100
0000
0000
0001
0000
,
0001
0000
0000
0101
0000
0000
1001
0000
0000
1100
0000
0000
0100
0000
1000
0000
,
0001
0000
0000
1000
0000
0000
1000
0000
0001
0000
0010
0000
0100
0000
1000
0000
,
0020
0030
0000
0000
;

//---------------dance-single - ----------------
#NOTEDATA:;
#CHARTNAME:;
#STEPSTYPE:dance-single;
#DESCRIPTION:;
#CHARTSTYLE:;
#DIFFICULTY:Easy;
#METER:8;
#RADARVALUES:0.390054,0.552482,0.344300,0.168147,0.036031,341.000000,298.000000,43.000000,21.000000,0.000000,0.000000,0.000000,0.000000,0.000000,0.390054,0.552482,0.344300,0.168147,0.036031,341.000000,298.000000,43.000000,21.000000,0.000000,0.000000,0.000000,0.000000,0.000000;
#CREDIT:;
#NOTES:
0000
0000
0000
0000
,
0000
0000
0000
0000
,
1000
0100
1000
0001
,
1000
0100
1000
0020
,
0130
0001
0100
0010
,
0100
0001
1000
0020
,
1030
1000
0001
0001
,
1000
0100
0010
0002
,
0103
0001
2000
3000
,
0001
0100
1000
0100
,
0001
0100
0001
1000
,
0001
0100
0001
0020
,
0130
1000
0100
0010
,
0100
1000
0001
0020
,
0031
0001
1000
1000
,
0010
0100
0100
0010
,
1000
1000
1000
1000
,
0001
0001
2002
3003
,
0001
0000
0000
0001
0000
0000
0100
0000
,
0010
0000
0000
0010
0000
0000
0100
0000
,
0001
0000
0000
0001
0000
0000
0010
0000
,
0100
0000
0000
0010
0000
0000
0100
0000
,
1000
0000
0000
1000
0000
0000
0010
0000
,
0100
0000
0000
0100
0000
0000
0010
0000
,
1000
0000
0000
1000
0000
0000
0100
0000
,
0010
0100
0100
0010
,
0001
0100
1000
0100
,
0001
0100
1000
0100
,
0001
0010
1000
0010
,
0001
0010
1000
0010
,
0001
0010
0100
1000
,
0010
0100
0001
0010
,
0100
0100
0010
0110
,
2002
0000
0000
3003
,
0101
0101
0001
1000
,
1100
1100
1000
0001
,
0101
0101
0001
1000
,
0010
0100
0100
0010
,
1010
1010
1000
0001
,
0011
0011
0001
1000
,
1010
1010
1000
0001
,
0010
0100
1000
0001
,
0101
0101
0100
0010
,
1010
1010
0010
0100
,
0101
0101
0001
1000
,
0100
0020
0030
0100
,
0000
0000
1100
0000
0000
1100
0000
0000
0100
0000
0000
0000
0010
0000
0000
0000
,
0011
0011
0010
0100
,
1100
0001
0101
1000
,
0100
0000
0000
0100
0000
0000
0100
0000
1000
0000
0000
0000
0001
0000
0000
0000
,
0020
0000
0000
0000
,
0000
0000
0000
0000
,
0030
0000
0000
0000
,
0000
0000
0000
0000
,
0002
0000
0000
0000
,
2003
0000
0000
0000
,
3001
0000
0000
0001
0000
0000
0000
0000
1000
0000
0000
1000
0000
0000
0000
0000
,
0001
0000
0000
0100
0000
0000
0010
0000
0000
1000
0000
0000
0001
0000
0000
0000
,
1000
0100
0010
0010
,
0100
0010
0001
0001
,
0010
0001
1000
1000
,
0010
1000
0001
0010
,
0001
0100
0010
0010
,
0100
0010
1000
1000
,
0010
0100
0001
0100
,
0010
1000
0100
0010
,
0001
0001
1100
0001
,
1000
1000
0101
1000
,
0001
0001
1010
0001
,
1000
0010
0001
0010
,
1000
1010
0001
0011
,
1000
1100
0001
0101
,
1001
0110
1001
0110
,
0001
0000
1000
0000
0010
0100
0010
0000
,
2020
0000
0000
3030
,
0022
0000
0000
0033
,
0220
0000
0000
0000
,
0330
0000
0000
0000
,
0001
0001
0001
0000
0100
0000
0010
0000
,
1000
1000
0010
0100
,
0001
0001
0010
0100
,
1000
0000
0000
0100
0000
0000
1000
0000
0000
0001
0000
0000
0010
0000
0001
0000
,
1000
1000
1000
0000
0100
0000
0010
0000
,
0001
0001
0010
0100
,
1000
1100
0001
0101
,
0100
0000
0000
0010
0000
0000
0010
0000
1000
0000
0000
0000
0001
0000
0000
0000
,
0020
0030
0000
0000
;

//---------------dance-single - ----------------
#NOTEDATA:;
#CHARTNAME:;
#STEPSTYPE:dance-single;
#DESCRIPTION:;
#CHARTSTYLE:;
#DIFFICULTY:Beginner;
#METER:4;
#RADARVALUES:0.218476,0.275440,0.152133,0.000000,0.000000,191.000000,172.000000,19.000000,0.000000,0.000000,0.000000,0.000000,0.000000,0.000000,0.218476,0.275440,0.152133,0.000000,0.000000,191.000000,172.000000,19.000000,0.000000,0.000000,0.000000,0.000000,0.000000,0.000000;
#CREDIT:;
#NOTES:
0000
0000
0000
0000
,
0000
0000
0000
0000
,
1000
0000
1000
0000
,
0100
0000
0010
0000
,
0001
0000
0001
0000
,
0100
0000
0010
0000
,
1000
0000
1000
0000
,
0100
0000
0010
0000
,
0001
0000
0001
0000
,
1001
0000
0110
0000
,
1000
1000
1000
0000
,
0100
0000
0010
0000
,
0001
0001
0001
0000
,
0100
0000
0010
0000
,
1000
0000
0001
0000
,
1000
0000
0001
0000
,
0100
0100
0100
0100
,
0100
0000
0000
0000
,
1001
0000
0000
0000
,
1100
0000
0000
0000
,
1001
0000
0000
0000
,
0101
0000
0000
0000
,
1001
0000
0000
0000
,
1010
0000
0000
0000
,
1001
0000
0000
0000
,
0011
0000
0000
0000
,
1000
0000
0100
0000
,
1000
0000
0001
0000
,
0001
0000
0100
0000
,
0001
0000
1000
0000
,
0010
0000
0010
0000
,
0010
0000
0010
0000
,
0010
0100
0100
0010
,
1000
0000
0000
0000
,
1000
0100
1000
0000
,
0001
0010
0001
0000
,
1000
0100
1000
0000
,
0001
0000
0001
0000
,
0001
0100
0001
0000
,
1000
0010
1000
0000
,
0001
0100
0001
0000
,
0010
0000
0100
0000
,
1000
0100
0010
0000
,
0001
0010
0100
0000
,
1000
0100
0010
0000
,
0001
0000
1000
0000
,
0001
0100
0010
0000
,
1000
0010
0100
0000
,
0001
0100
0010
1000
,
0001
0000
0000
0000
,
1001
0000
0000
0000
,
0000
0000
0000
0000
,
0000
0000
0000
0000
,
0000
0000
0000
0000
,
1001
0000
0000
0000
,
0110
0000
0000
0000
,
1001
0000
0000
0000
,
0001
1000
1001
0000
,
1000
0000
0100
0000
,
0010
0000
0100
0000
,
1000
0000
0001
0000
,
0010
0000
0010
0000
,
0001
0000
0100
0000
,
0010
0000
0100
0000
,
0001
0000
1000
0000
,
0010
0000
0010
0000
,
1000
0000
0100
0000
,
0001
0000
0100
0000
,
1000
0000
1000
0000
,
0010
0000
1000
0000
,
0001
0000
0100
0000
,
1000
0000
0100
0000
,
0010
0010
0010
0010
,
0010
0000
0000
0000
,
1001
0000
0000
0000
,
0110
0000
0000
0000
,
1001
0000
0000
0000
,
0000
0000
0000
0000
,
0001
0001
0001
0000
,
1000
1000
1000
0000
,
0001
0001
0001
0000
,
0100
0010
0100
0010
,
1000
1000
1000
0000
,
0001
0001
0001
0000
,
1000
1000
1000
0000
,
0100
0000
0100
0000
,
0110
0000
0000
0000
;

//---------------dance-single - ----------------
#NOTEDATA:;
#CHARTNAME:;
#STEPSTYPE:dance-single;
#DESCRIPTION:;
#CHARTSTYLE:;
#DIFFICULTY:Challenge;
#METER:18;
#RADARVALUES:0.943680,1.001373,0.608531,0.208182,0.824719,825.000000,749.000000,76.000000,26.000000,0.000000,0.000000,0.000000,0.000000,0.000000,0.943680,1.001373,0.608531,0.208182,0.824719,825.000000,749.000000,76.000000,26.000000,0.000000,0.000000,0.000000,0.000000,0.000000;
#CREDIT:;
#NOTES:
// measure 0
0000
0000
0000
0000
,  // measure 1
0000
0000
0000
0000
,  // measure 2
1000
0100
0010
0100
1000
1000
1000
0001
,  // measure 3
0100
0000
0010
0100
0000
0100
0001
0000
1000
0000
0100
0000
0020
0000
0000
0000
,  // measure 4
0130
0000
1000
0000
0001
0000
0100
0001
0100
0000
0010
0000
1000
0000
0001
0000
,  // measure 5
0010
0100
0100
0100
1000
0001
0200
0000
,  // measure 6
0301
1000
0010
0100
1000
0100
0001
0010
,  // measure 7
0100
0000
0100
1000
0100
1000
0100
0000
0020
0000
0000
0000
0230
0000
0000
0000
,  // measure 8
1300
0000
0001
0000
1000
0000
0100
0000
0011
0000
0000
0000
1100
0000
0000
1000
,  // measure 9
0001
0000
0010
0100
0000
0000
0100
1000
0001
0000
0100
0010
0000
0000
0100
0001
,  // measure 10
1000
0000
0010
0000
1000
0000
0100
1000
0100
0000
1000
0000
0001
0000
1000
0010
,  // measure 11
1000
0001
0100
0010
1010
0000
0101
0100
,  // measure 12
0001
0000
0010
0000
0001
0000
0100
0001
0100
0000
0001
0000
1000
0000
0001
0010
,  // measure 13
0001
0010
0100
0010
0011
0100
1001
0000
,  // measure 14
1000
0000
1000
0010
0100
0000
0001
0000
0001
0000
0100
0010
1000
0000
0001
0000
,  // measure 15
1000
0000
1000
0000
0100
0000
0010
0000
0001
0010
0001
0010
0100
0000
1000
0000
,  // measure 16
0001
0100
0010
0100
1000
0100
0010
0100
,  // measure 17
0001
0001
1000
0001
0010
0110
1001
0000
,  // measure 18
1000
0100
0000
1000
0100
0000
0010
0100
0000
0010
0100
0000
1000
0000
0001
0000
,  // measure 19
0100
0001
0000
0100
0001
0000
0100
0010
0000
0100
0010
0000
1000
0000
0010
0000
,  // measure 20
0100
0001
0000
1000
0001
0000
0100
0001
0000
1000
0001
0000
0010
0000
0100
0000
,  // measure 21
1000
0100
0000
1000
0001
0000
0001
0100
0000
0100
0010
0000
2000
0000
3001
0000
,  // measure 22
0010
0001
0000
0010
0001
0000
0010
0100
0000
0010
0100
0000
1000
0000
0001
0000
,  // measure 23
1000
0010
0000
1000
0010
0000
0100
0010
0000
0100
0010
0000
1000
0000
0010
0000
,  // measure 24
0100
0001
0000
1000
0010
0000
0100
0001
0000
1000
0010
0000
1000
0000
0001
0000
,  // measure 25
0010
0100
1100
0001
0101
0100
0120
0000
,  // measure 26
1030
0000
0001
0000
0100
0000
0010
1000
0010
0000
0100
0000
0001
0000
0010
0000
,  // measure 27
0001
0000
1000
0000
0100
0000
0010
0001
0010
0000
0100
0000
1000
0000
1000
0000
,  // measure 28
0001
0000
0100
0000
0010
0000
0100
0001
1000
0000
0010
0000
0100
0000
0001
0000
,  // measure 29
1000
0000
0100
0000
0010
0000
0100
1000
0001
0000
0010
0000
0100
0000
0010
0000
,  // measure 30
0001
0000
0001
0000
0100
0000
0100
0000
0010
0000
0010
0000
1000
0000
1000
0001
,  // measure 31
0010
0000
0010
0000
0100
0000
0100
0000
1000
0000
1000
0000
0001
0000
0001
0100
,  // measure 32
0010
0000
0100
0000
0001
0000
0010
0000
0100
0000
1000
0000
0100
0010
0100
0010
,  // measure 33
0001
0000
0001
0010
0100
0000
1100
0000
1001
0000
1000
0001
0200
0000
0300
0000
,  // measure 34
0001
0000
1000
0010
0100
0000
0100
0010
1000
0000
0001
0100
0000
0100
0001
0000
,  // measure 35
1000
0000
0001
0010
0100
0000
0100
0010
0001
0000
1000
0001
0000
0001
0010
0000
,  // measure 36
0001
0000
0100
0010
1000
0000
0010
0100
0001
0000
1000
0010
0000
0010
1000
0000
,  // measure 37
0100
1000
0000
0100
1000
0000
0001
0010
0000
0001
0010
0000
0110
0000
0100
0000
,  // measure 38
1000
0000
0001
0010
0100
0000
0100
0010
0001
0000
1000
0100
0000
0100
1000
0000
,  // measure 39
0001
0000
1000
0010
0100
0000
0100
0010
1000
0000
0001
1000
0000
1000
0010
0000
,  // measure 40
1000
0000
0100
0010
0001
0000
0100
0010
1000
0000
0001
0010
0000
0010
0100
0000
,  // measure 41
2000
0000
3001
0000
0001
0010
0100
2000
,  // measure 42
3000
0000
1001
0000
1001
0000
0001
0000
0101
0000
0000
0101
0000
0000
0100
0010
,  // measure 43
1000
0000
1000
0000
1001
0000
0001
0000
0011
0000
0000
0011
0000
0000
0010
0000
,  // measure 44
0110
0000
0100
0010
0100
0000
1000
0000
1100
0000
0000
1100
0000
0000
0100
0010
,  // measure 45
0002
0203
2300
3002
0000
2003
3200
0301
,  // measure 46
1000
0001
0010
0000
0000
1100
0000
0000
0011
0000
0000
1001
0000
0000
1000
0000
,  // measure 47
0001
0000
0100
0001
1000
0000
0100
1000
0001
0000
0000
0011
0000
0000
1010
0000
,  // measure 48
1000
0010
0000
0010
0100
0000
0100
0001
0000
0001
0010
0000
0010
0001
1000
0100
,  // measure 49
1000
0000
0000
0110
0000
0000
0010
0001
1000
0000
0001
0000
0100
0000
0100
0010
,  // measure 50
2000
0000
0000
0000
,  // measure 51
3002
0000
0000
0000
,  // measure 52
1003
0000
0000
0010
0000
0000
0001
0000
0001
0000
0000
0010
0000
0000
1000
0000
,  // measure 53
1000
0000
0000
0100
0000
0000
0001
0000
0001
0000
0100
0000
1000
0000
0100
0000
,  // measure 54
0010
0001
0010
0001
0010
0100
0010
0000
0100
1000
0100
1000
0100
0010
0100
0000
,  // measure 55
1000
0010
1000
0010
0100
0010
0100
0000
0001
0100
0001
0100
0010
0100
0010
0000
,  // measure 56
1000
0000
0001
0010
0000
0010
0100
0000
1000
0000
0010
0100
0000
0100
0001
1000
,  // measure 57
0001
0000
0000
1010
0000
0000
0011
0000
0000
0110
0000
0000
0010
0001
1000
0001
,  // measure 58
1000
0000
0010
0000
0101
0000
1000
0000
0010
0000
0100
0001
0000
0001
1000
0000
,  // measure 59
0001
0000
0010
0000
1100
0000
0001
0000
0010
0100
0000
1000
0000
1000
0001
0000
,  // measure 60
1000
0000
0010
0000
0110
0000
0100
0000
1001
0000
1000
0001
0000
0001
1000
0100
,  // measure 61
0010
0000
0100
1000
0000
1000
0001
0000
0100
0001
0000
1000
0000
1000
0010
0000
,  // measure 62
0100
0000
0010
0000
0101
0000
1000
0000
0010
0000
1000
0001
0000
0001
0010
0000
,  // measure 63
0100
0000
0010
0000
1100
0000
0001
0000
0010
0001
0000
1000
0000
0000
0010
0000
,  // measure 64
1010
0000
1000
0000
1001
0000
0001
0000
0011
0000
0000
0011
0000
0000
0001
1000
,  // measure 65
0100
0000
0001
0000
0100
0000
1000
0000
0001
1000
0001
1000
0010
0100
0010
1000
,  // measure 66
0001
0000
0001
0010
0100
0000
0100
0010
0001
0000
1000
0000
0010
0000
0100
0000
,  // measure 67
0100
0000
0010
1000
0001
0000
0001
1000
0020
0000
0000
0000
0130
0000
0001
0000
,  // measure 68
0010
0000
0010
0100
1000
0000
1000
0100
0010
0000
0001
0000
1000
0000
0010
0000
,  // measure 69
0110
0100
1001
0002
0003
1000
1100
0110
,  // measure 70
0100
0000
1000
0001
0010
0000
0001
1000
0100
0000
1000
0001
0010
0000
0001
1000
,  // measure 71
0010
0000
1000
0000
0001
0000
0100
0000
0001
1000
0001
1000
0010
0000
0100
0000
,  // measure 72
0101
0000
0001
0000
1001
0000
1000
0000
1100
0000
0100
0000
0110
0000
0010
0001
,  // measure 73
1000
0000
1000
0000
0001
0000
0001
0000
0100
0000
0010
0100
0000
0010
1000
0000
,  // measure 74
0002
0000
0000
0100
0000
0000
1000
0000
0023
0000
0000
0001
0000
0000
0100
0000
,  // measure 75
0032
0000
0000
0100
0000
0000
1000
0000
2003
0000
0000
0100
0000
0000
0010
0000
,  // measure 76
0002
0000
0000
3003
,  // measure 77
1000
0001
1000
0001
1000
0000
1000
0100
0010
0000
0011
0000
1010
0000
0010
0100
,  // measure 78
0001
0000
0101
0000
1010
0000
0101
0000
1001
0000
1000
0100
0000
0100
0010
0000
,  // measure 79
0100
0010
0100
0010
0001
0000
1100
0000
0011
0000
0001
1000
0000
0010
0100
0000
,  // measure 80
0101
0000
1001
0000
1100
0000
1001
0000
0001
0010
0100
0010
0000
0100
1000
0000
,  // measure 81
0001
0100
0000
0001
1000
0000
0100
1000
0000
0100
0010
0000
0020
0000
0031
0000
,  // measure 82
1000
0010
1010
0000
0000
0101
0000
0000
0011
0000
0000
1100
0000
0000
0100
0010
,  // measure 83
0011
0000
1001
0000
1010
0000
1001
0000
0001
0000
1000
0010
0000
0010
0100
0001
,  // measure 84
1000
0001
0000
0010
0000
0100
0000
0110
0000
0011
0000
1100
0000
1000
0001
1000
,  // measure 85
0010
0000
0000
1010
0000
0000
1001
0000
0001
0000
0100
0000
0010
1000
0001
0010
,  // measure 86
0200
0300
0000
0000
;
