#TITLE:Playing with ruby;
#SUBTITLE:;
#ARTIST:NIWASHI;
#TITLETRANSLIT:;
#SUBTITLETRANSLIT:;
#ARTISTTRANSLIT:;
#GENRE:;
#CREDIT:;
#MUSIC:ruby.mp3;
#BANNER:;
#BACKGROUND:;
#CDTITLE:;
#SAMPLESTART:0.000;
#SAMPLELENGTH:0.000;
#SELECTABLE:YES;
#OFFSET:-0.053;
#BPMS:0.000=180.000;
#STOPS:;
#BGCHANGES:;
#FGCHANGES:;

//--------------- dance-single - BLANK. ----------------
#NOTES:
     dance-single:
     BLANK.:
     Easy:
     11:
     0,0,0,0,0:
0000
0000
0000
0000
,
0000
0000
0000
0000
,
0000
0000
0000
0000
,
0000
0000
0000
0000
,
0000
0000
0000
0000
,
1001
0000
0000
0000
,
0110
0000
0000
0000
,
1001
0000
0000
0000
0000
0000
0000
0000
0000
0000
0000
0000
0000
0000
0000
0002
,
0000
0000
1000
1003
,
0110
0000
0002
0003
1000
0100
0010
0000
,
0110
0000
2000
3000
0001
0100
0010
0000
,
0110
0000
0000
0000
0002
0000
0003
0000
1000
0000
0100
0000
0010
0000
0000
1001
,
0000
0000
0000
0001
0000
0000
0000
0010
0000
0000
0000
0000
0100
0000
0000
0000
,
1001
0000
2000
3000
0010
0100
0001
0000
,
1001
0000
0002
0003
0010
0100
1000
0000
,
0000
0220
0000
0000
0000
0000
0000
0000
0000
0000
0000
0000
,
0330
0001
0000
0001
0000
1000
0000
0001
0000
1000
0000
0000
,
1001
0000
1000
0001
0010
0000
0100
0000
,
1000
0000
0100
0010
0100
0000
1000
0001
,
0010
0000
0010
0001
1000
0000
0010
0000
,
0100
0000
0001
0010
0001
0000
1000
0000
,
1001
0000
0001
0100
0010
0000
0100
0000
,
0001
0000
0001
1000
0010
0000
0010
0100
,
0010
1000
0001
0000
1001
0000
0110
0000
,
1000
0000
0010
0000
0100
0000
0000
0001
0000
0000
1002
0000
0000
0000
0000
0000
,
0103
0000
0001
0010
0100
0000
0011
0000
,
0001
0000
1000
0010
0100
0000
0100
0001
,
0010
0000
0100
1000
0010
0000
0100
0000
,
0001
1000
0001
0000
0010
0100
0010
0100
,
1000
0000
0010
0100
0001
0000
1001
0000
,
0001
0000
0010
0100
1000
0000
0100
1000
,
0001
0100
0001
0100
0010
1000
0010
0000
,
1000
0000
0001
0000
0010
0000
0000
0100
0000
0000
1000
0000
0100
0000
0010
0000
,
0001
1000
0001
0001
,
0010
0100
1000
1000
,
0001
0000
0000
1000
0000
0000
0001
0000
1000
0000
0000
0000
0010
0000
0100
0000
,
0001
0010
0100
1000
0001
0000
0110
0000
,
1001
0001
0100
0100
,
1000
0100
0001
0010
,
2000
0000
0000
3100
0010
0000
0000
0001
,
0100
0000
0011
1100
,
1001
0000
0001
0000
0100
0100
0100
0000
,
0010
0000
1000
0000
0001
0001
0001
0000
,
0010
0000
0000
0000
0100
0000
0000
0000
1010
0000
0000
1000
0000
0000
0002
0000
,
0000
0000
0000
0000
1003
0100
0000
0100
,
0010
0000
0000
0000
0001
0000
0000
0000
1000
0000
0000
0010
0000
0000
0100
0000
,
0001
0000
1000
0001
1000
0000
0001
1000
,
0002
0000
0000
0000
0103
0000
0000
0000
0001
0000
0000
0010
0000
0000
0100
0000
,
1000
0000
0000
0001
0000
0000
1000
0000
0001
0000
0000
0000
0000
0000
0000
0000
,
0110
0000
1000
0001
0100
0000
0110
0000
,
1000
0000
0001
0010
0100
0000
1000
0001
,
0010
0000
0001
0010
0100
0000
1000
0000
,
0001
1000
0010
0100
0010
0000
0110
0000
,
1001
0000
0001
0010
0100
0000
1100
0000
,
0100
0000
0001
0100
1000
0100
0010
0000
,
0001
0010
0100
1000
0010
0000
0110
0000
,
1000
0000
0001
0000
0010
0000
0000
0100
0000
0000
1000
0000
0010
0000
0100
0000
,
0001
0010
0100
0000
0011
0000
1000
0000
,
0010
0100
0001
0000
1100
0000
1000
0000
,
0001
0010
0001
0010
0100
1000
0100
1000
,
0010
0100
1001
0001
,
1000
0000
0010
0100
0010
0000
0101
0000
,
1000
0000
0001
0010
0001
0000
1010
0000
,
0001
0010
0100
1000
0020
0000
0130
0000
,
0001
0000
0000
0000
1000
0000
0000
0001
0000
0000
2000
0000
0000
0000
0000
0000
,
0010
0000
0010
0000
0000
0001
0001
3001
,
0000
0002
0010
0000
0010
0000
1000
1000
,
1003
0000
0000
1001
0000
0000
0110
0000
,
0000
1001
0000
0000
0110
0000
0000
0000
,
2000
0000
0000
0000
,
3000
0000
0000
0000
,
0001
0100
0010
1000
,
0100
0010
0100
0000
0010
0100
0010
0000
,
0001
1000
0001
0000
1000
0001
1000
0000
,
0000
0010
0100
0000
0010
0000
1010
0000
,
0202
0000
0303
0000
,
0001
1000
0001
0000
1000
0001
1000
0000
,
0000
0010
0100
0000
0001
0000
0010
0000
,
0100
1000
0100
0000
0010
0001
0000
0000
,
1010
0000
0101
0000
1000
0100
0001
0000
,
0011
0000
1100
0000
0001
0100
1000
0000
,
0001
0010
0001
0010
0100
1000
0100
1000
,
0010
0100
0010
0100
0001
1000
0001
0000
,
2000
3200
0302
0023
,
1030
0001
1000
0001
0100
0010
0100
0000
,
0001
1000
0001
1000
0010
0100
0010
0000
,
1000
0100
0010
0001
1000
0000
0000
0000
,
0010
0000
0010
0000
0100
0000
0000
0000
0001
0000
0000
0010
0000
0000
0100
0000
,
0000
0000
0100
0000
0010
0000
0000
0000
1000
0000
0000
0100
0000
0000
0010
0000
,
0000
0000
0100
0000
0010
0000
0000
0000
0001
0000
0000
0100
0000
0000
0010
0000
,
0000
0000
1000
0000
0000
0001
0000
0000
0010
0000
0000
0100
0000
0000
1000
0000
,
0020
0000
0000
0000
0200
0000
0000
0330
,
0001
1000
0001
0010
0100
0010
0001
0000
,
1000
0010
0100
0000
0001
0010
0100
0000
,
1000
0001
0100
0010
1000
0001
0010
0000
,
0001
0000
0001
0000
1000
0000
0000
0000
0010
0000
0000
0100
0000
0000
0001
0000
,
0000
0000
1000
0000
0001
0000
0000
0000
0010
0000
0000
0100
0000
0000
1000
0000
,
0000
0000
0001
0000
1000
0000
0000
0000
0010
0000
0000
0100
0000
0000
0001
0000
,
0000
0000
1000
0000
0000
0100
0000
0000
0010
0000
0000
0001
0000
0000
0010
0000
,
0200
0000
2300
0000
,
3010
0100
0010
0000
1000
0001
1000
0000
,
0001
0010
0100
0000
1000
0010
0100
0000
,
0011
1100
1010
0101
,
2002
0000
0000
3003
,
0100
0010
0100
0010
,
1000
0100
0010
0001
1000
0010
0100
0001
,
1000
0000
0001
0000
0100
0000
0000
0110
0000
0000
0000
0000
0000
0000
0000
0000
;

//--------------- dance-single - BLANK. ----------------
#NOTES:
     dance-single:
     BLANK.:
     Medium:
     14:
     0,0,0,0,0:
0000
0000
0000
0000
,
0000
0000
0000
0000
,
0000
0000
0000
0000
,
0000
0000
0000
0000
,
0000
0000
0000
0000
,
1100
0000
0000
0100
0000
0000
0000
0000
0010
0000
0010
0000
0001
0000
0000
0000
,
0101
0000
0000
0100
0000
0000
0000
0000
0010
0000
0000
1000
0000
0001
0000
0000
,
1100
0000
0000
0100
0000
0000
0000
0000
0010
0000
0010
0000
0001
0000
0000
1001
,
0000
1000
0010
0100
0011
0000
0011
0000
,
0001
0000
0010
0001
0000
0000
0000
0000
0100
0000
0010
0000
0001
0000
0010
0000
,
1000
0000
0100
1000
0000
0000
0000
0000
0010
0000
0100
0000
1000
0000
0100
0000
,
0001
0000
1000
0001
0000
0000
0000
0000
0100
0000
0010
0000
0001
1000
0000
0220
,
0000
0000
0000
0000
0000
0000
0330
0000
1000
0000
0000
0001
1000
0000
0100
0000
,
0110
0000
0000
0001
0010
0000
0000
0000
0100
0000
0100
0000
0010
0000
0001
0000
,
0110
0000
0000
1000
0010
0000
0000
0000
0100
0000
0100
0000
0010
0000
1000
0000
,
0000
0002
0000
0000
0023
0000
0000
0130
0000
1000
0001
1000
,
0000
0000
0010
0000
0100
0000
0010
0000
0000
0000
1000
0000
0000
0000
0001
0000
0010
0000
0001
0000
0000
0100
0000
0000
,
0100
0010
1000
0000
1001
0000
1000
0100
,
0010
0010
0001
1000
1001
0000
1000
0010
,
0001
0000
0001
0010
1000
0000
1000
0100
,
0010
0000
0001
0000
0010
0000
0001
0000
2000
0000
0000
0000
3000
0000
0010
0100
,
0010
1000
0001
0000
1010
0000
1000
0010
,
0100
0001
0010
0100
0010
0000
0001
1000
,
0100
0000
0001
0000
0100
0000
1000
0000
0010
0100
0000
0000
1001
0000
0000
0000
,
0010
0100
0010
0000
0100
0000
0000
1001
0000
0000
0001
0000
1000
0000
0001
0000
,
0100
1000
0100
0100
0020
0000
1030
0100
,
0010
0000
0100
0000
1000
0010
0000
0010
1000
0000
0000
0000
0001
0000
0010
0000
,
2000
3000
0001
0100
2000
3000
0010
0001
,
1000
0100
0010
0100
0001
0001
1000
1000
,
0100
0001
0100
0100
0020
0000
0031
0100
,
0010
0000
0100
0000
0001
0010
0000
0010
0001
0000
0000
0000
1000
0000
0010
0000
,
0001
0000
1000
0000
0100
0000
0010
0000
1000
0001
0000
0000
0110
0000
0000
0000
,
0001
1000
0001
0000
1001
0000
0000
0110
0000
0000
1000
0000
0001
0000
0001
0000
,
1000
0000
0000
0010
0000
0000
1000
0000
0001
0000
0000
0001
0000
0000
0010
0000
,
0100
0000
0000
1000
0000
0000
0100
0000
0010
0000
0000
0001
0000
0000
0010
0000
,
0100
0000
0000
1000
0000
0000
0001
0000
0100
0000
0000
0000
0010
0000
0001
0000
,
1000
0100
0010
0100
0001
0010
0100
0010
,
1000
0000
0000
0001
0000
0000
0100
0000
0010
0000
0000
0001
0000
0000
1000
0000
,
0001
0000
0000
0001
0000
0000
0100
0000
0000
0100
0000
0000
1000
0000
0100
0000
,
0002
0000
0000
0013
2000
0000
0000
3001
,
0100
0000
0000
0000
0000
0000
1000
0100
0010
0001
0000
0000
,
1001
0000
0000
0000
1000
0000
0000
0100
0000
0100
0000
0010
0001
0000
1000
0000
,
0001
0000
0001
0000
1000
0000
0000
0010
0000
0010
0000
0100
0001
0000
1000
0000
,
0001
0000
0010
0000
0100
0000
1000
0000
0010
0000
0000
0100
0000
0000
2002
0000
,
0000
0000
3003
0000
1000
0001
0100
0010
,
0200
0000
0000
0000
1000
0000
0000
0000
0301
0000
0000
0010
0000
0000
0001
0000
,
0100
0000
0000
0000
0001
0000
0010
0001
0010
0000
0000
0000
0100
0000
1000
0100
,
2000
0000
0000
0000
0010
0000
0000
0000
3001
0000
0000
0100
0000
0000
0010
0000
,
1100
0000
0000
0010
0000
0000
0100
0000
1001
0000
0000
0000
0000
0000
0000
0000
,
0001
0010
0100
0010
0002
0000
0103
0010
,
0001
0000
0010
0000
0100
0001
0000
0001
1000
0000
0000
0000
0001
0000
0010
0000
,
1000
0000
0001
0100
1000
0000
1000
0100
,
0010
0000
0001
0000
0100
0000
0010
0000
1000
0100
1000
0000
0001
0010
0001
0000
,
1000
0100
0010
0100
2000
0000
3010
0100
,
1000
0000
0100
0000
0010
1000
0000
1000
0010
0000
0000
0000
0100
0000
0001
0000
,
0010
0001
0010
0000
0001
0000
1000
0000
0010
0100
0000
0000
0110
0000
0000
0000
,
0001
1000
0001
0000
0010
0000
0100
1000
0000
0000
0001
0000
0100
0010
0000
0010
,
1000
0000
0100
0000
0010
0000
0001
1000
0001
0000
0000
0001
0100
0000
0010
0000
,
0001
0000
0010
0000
0010
1000
0000
0100
0010
0000
0000
0000
0001
0000
0010
0000
,
0100
0001
0100
1000
0010
0001
0010
1000
,
0100
0000
0100
0000
0011
0000
0011
0000
1001
0000
0000
0000
0001
1000
0001
0000
,
0100
0010
0001
1000
0200
0300
0010
1000
,
0001
0000
0010
0000
0100
0010
0000
0001
2000
0000
0000
0000
3010
0100
0010
0000
,
1000
0000
0100
0000
0010
0000
0001
0000
0100
0001
0000
0000
1010
0000
0000
0000
,
1000
0000
0100
1000
0100
0000
0010
0001
0000
0000
1000
0000
0000
0010
0000
0000
,
1000
0000
0000
0100
0001
0000
0000
0100
1000
0000
0000
0100
0010
0000
0001
0100
,
0000
0000
0001
0000
0000
0100
1000
0000
0000
0100
0001
0000
0000
0100
0010
0000
,
1000
0100
0000
0010
0000
0000
0001
0000
0000
1000
0000
0000
0010
0000
0000
0100
,
0000
0000
0000
0000
0000
0000
0001
0000
0000
0000
0000
0000
0000
0000
0000
1000
0000
0000
0000
0000
0000
0000
0000
0000
0000
0000
0000
0000
0010
0000
0000
0000
0000
0000
0000
0000
0100
0000
0000
0000
0000
0000
0000
0000
0001
0000
0000
0000
,
1000
0000
0000
0000
,
0000
0000
0000
0000
,
0220
0000
0000
0000
0000
0000
0330
1000
,
0001
0010
1000
0010
0001
0010
1000
0010
,
0001
0000
1000
0001
1000
0000
0010
0000
0100
0000
0100
0000
0001
0010
0000
0000
,
0000
0000
0100
0000
1000
0000
0010
0100
0010
0000
0000
0000
0100
0000
0001
1000
,
0002
0000
0000
0000
0000
0003
0000
0010
,
0100
0000
0001
0000
0100
0000
1000
0000
0100
0000
0010
0000
0001
1000
0000
0000
,
0000
0000
0010
0000
0100
0000
0010
0000
1000
0001
1000
0000
0100
0000
0010
0000
,
0001
0000
0010
0000
0100
0000
1000
0000
0100
0020
0000
0000
0000
0000
0031
0000
,
1000
0000
0010
0000
0001
0000
0010
0000
1000
0000
0100
0010
0000
0100
0010
0000
,
0001
0000
0100
0000
1000
0000
0100
0000
0001
0000
0010
0100
0000
0010
0100
0000
,
1000
1000
0010
0010
0100
0100
0001
0001
,
1000
0000
0100
0000
0010
0000
0001
0000
1000
0000
0001
0000
0010
0100
0000
0000
,
0100
0001
0100
1000
0010
0001
0010
1000
,
0100
0010
1000
0001
0100
0010
0001
1000
,
0010
0001
1000
0100
0001
1000
0010
0100
,
0010
0000
0001
0000
0010
0000
1000
0000
0100
1000
0000
0000
0001
0000
0001
0000
,
1000
0000
0100
0000
0010
0000
0000
0000
0011
0000
0000
0100
0000
0000
1000
0000
,
0000
0000
0001
0000
0100
0000
0000
0000
1010
0000
0000
0100
0000
0000
0001
0000
,
0000
0000
1000
0000
0100
0000
0000
0000
0011
0000
0000
0100
0000
0000
1000
0000
,
0000
0000
0001
0000
0000
0100
0000
0000
1000
0000
0000
0010
0000
0000
0001
0000
,
2000
0000
0000
0000
3000
0000
0000
1200
0000
0000
0000
0000
0310
0000
0000
0000
,
0001
1000
0010
0100
1000
0001
0010
0100
,
0010
1000
0100
0010
0001
1000
0001
0010
,
0100
1000
0100
0010
0000
0220
0000
0330
,
0001
0000
0100
0000
1000
0000
0000
0000
1100
0000
0000
0001
0000
0000
0010
0000
,
0000
0000
1000
0000
0100
0000
0000
0000
0101
0000
0000
1000
0000
0000
0010
0000
,
0000
0000
0001
0000
0100
0000
0000
0000
1100
0000
0000
0001
0000
0000
0010
0000
,
0000
0000
1000
0000
0000
0100
0000
0000
0001
0000
0000
0010
0000
0000
1000
0000
,
0001
0000
0001
0100
0010
0000
0010
1000
,
0100
0010
0100
0010
0100
0000
0010
0100
0010
0100
0010
0000
0001
0000
1000
0000
,
0010
0001
1000
0100
0001
1000
0010
0001
,
2000
3200
0302
0023
,
0230
0001
1000
1000
,
0320
0032
0203
0320
,
1030
0100
0010
0001
1000
0010
0100
0001
,
1000
0001
1000
0001
0100
0010
0000
0110
0000
0000
0000
0000
0000
0000
0000
0000
;

//--------------- dance-single - BLANK. ----------------
#NOTES:
     dance-single:
     BLANK.:
     Hard:
     17:
     0,0,0,0,0:
0000
0000
0000
0000
,
0000
0000
0000
0000
,
0000
0000
0000
0000
,
0000
0000
0000
0000
0000
0000
0000
0000
0000
0000
0000
0000
0000
0000
0000
2002
,
0000
0000
0000
3003
,
0011
0000
0000
0000
,
1010
0000
0000
0000
,
0101
0000
0000
0000
0000
0000
0000
0000
0000
0000
0000
0000
0000
0000
0000
1002
,
0000
0013
0100
0010
0011
0000
1100
0000
,
1000
0000
0100
0020
0000
0000
0031
0000
0100
0000
0100
0000
0001
1000
0000
1000
,
0001
0000
0001
0200
0000
0000
0310
0000
1000
0000
0001
0100
0000
0100
0000
0010
,
1000
0000
0010
0200
0000
0000
0301
0000
1000
0000
0001
0100
0000
0001
0000
0011
,
0000
0010
0100
1000
0000
0100
0010
0001
0000
0010
0100
1000
0010
0100
0010
1000
,
0001
0000
0100
0002
0000
0000
1003
0000
0010
0000
0100
0000
0001
0100
0000
0010
,
1000
0000
0100
2000
0000
0000
3010
0000
1000
0000
0100
0010
0000
0001
0000
1000
,
0000
0001
1000
0001
0100
0010
0100
0001
1000
0010
0100
0001
,
0000
0000
0000
0000
1000
0000
0000
0000
0100
0000
0000
0000
1000
0000
0000
0000
0000
0000
0000
0000
1000
0000
0000
0000
0000
0000
0000
0000
0001
0000
0000
0000
0010
0000
0000
0000
0001
0000
0000
0000
0000
0000
1000
0000
0000
0001
0000
0000
,
1000
0100
0001
0100
0020
0030
0001
0001
,
1000
0000
0001
0100
0010
0100
0000
0001
1000
0000
0000
0000
0001
0000
0010
0100
,
1000
0000
0000
0000
1000
0000
0010
0100
0001
0000
0000
0000
1000
0000
0001
0000
,
0011
0000
0010
0000
0100
0000
1000
0000
1002
0000
0000
0000
0103
0000
0010
1000
,
0001
0010
1000
0010
0002
0000
1003
0010
,
1000
0000
0001
0010
0001
0100
0000
0010
1000
0000
0000
0000
0100
0010
0100
0010
,
0100
0000
1000
0000
0001
0000
0100
0000
0010
0001
0000
1000
0100
0000
0000
0000
,
0001
0010
0100
1000
0001
0000
0001
0100
0000
0000
0010
0001
0010
1000
0100
0010
,
0001
0000
1000
0000
0001
0000
0100
0001
0020
0000
0030
0000
0001
0000
1000
0000
,
0010
0000
1000
0100
1000
0010
0000
1000
0200
0000
0300
0000
0001
0000
0100
1000
,
0100
0000
0000
0000
1000
0000
0010
0001
0010
0000
0000
0000
1000
0000
0001
0000
,
0101
0000
0001
0000
0010
0000
0100
0000
2001
0000
0000
0000
3010
0100
0010
0100
,
0010
0000
1000
0000
0001
0000
0100
0001
0100
0000
0000
0000
0100
0000
0001
0000
,
1000
0000
0100
1000
0100
0010
0000
0001
1000
0000
0000
0000
0100
0010
0001
1000
,
0010
0000
0100
0000
0001
0000
1000
0000
0100
0010
0000
0000
1001
0000
0000
0000
,
0001
0010
0001
0010
0001
0000
1000
0010
0000
0000
0100
1000
0100
0001
0000
1001
,
0000
0000
0000
0001
0010
0000
0100
0000
1000
0010
0000
1000
0010
0000
0100
0000
,
0001
0010
0000
0001
0010
0000
0001
0000
0100
0001
0000
0100
0001
0000
1000
0000
,
0110
0000
0000
1001
0000
0000
0110
0000
1001
0000
0000
0000
1000
0100
0010
0001
,
2000
0000
0000
3200
0000
0000
0302
0000
0000
0203
0000
0000
2300
0000
0000
3020
0000
0000
0031
0000
1000
0000
0100
0000
,
0001
0000
0000
1000
0010
0000
1000
0000
0100
0010
0000
0100
0010
0000
0001
0000
,
0011
0000
0000
1010
0000
0000
0101
0000
0000
1100
0000
0000
0001
0000
0010
0000
,
2000
0000
0000
0000
0000
0000
3001
0100
0020
0000
0000
0000
0000
0000
0031
0100
,
0010
0000
0000
0000
0000
0000
1000
0010
1000
0001
0100
0001
,
1000
0000
0010
0000
0100
0000
0010
1000
0000
1000
0000
0100
0000
0000
0100
1000
,
0001
0000
0010
0000
0100
0000
0010
0001
0000
0001
0000
0100
0000
0000
0010
0000
,
1000
0000
0001
0000
0100
0000
0010
0000
0110
0000
0000
1001
0000
0000
2002
0000
,
0000
0000
0000
3003
1000
0001
0100
0010
,
0002
0000
0000
0000
0023
0000
0000
0000
1030
0000
0000
0100
1000
0000
0010
0000
,
0002
0000
0000
0000
1003
0000
0100
0010
1000
0000
0000
0000
0001
0000
0010
0100
,
0002
0000
0000
0000
2003
0000
0000
0000
3010
0000
0000
0100
0010
0000
0001
0000
,
0101
0000
0000
1100
0000
0000
0011
0000
1001
0000
0000
0000
1000
0001
1000
0000
,
0001
0000
0100
0000
0010
0000
0001
0010
0100
0000
0010
0000
1000
0000
0100
0000
,
0010
0000
0001
0100
0001
1000
0000
0100
1000
0100
0000
0000
1000
0000
0001
0010
,
0100
0000
0000
0000
1000
0000
0001
0100
0010
0000
0000
0000
1000
0000
0001
0000
,
0011
0000
0100
0000
0010
0000
0100
0000
2001
0000
0000
0000
3010
0100
0010
0100
,
0001
0000
0010
0000
0100
0000
0001
0100
0010
0000
0010
0000
0001
0000
1000
0000
,
0001
0000
0100
0001
0100
0010
0000
1000
0001
1000
0000
0000
0100
0010
0001
1000
,
0010
0100
0010
0000
1000
0000
0100
0000
0001
0100
0000
1000
0100
0000
0000
0000
,
0010
0001
0010
0001
1000
0000
0010
0001
0000
0000
1000
0100
0010
1000
0000
0001
,
1000
0000
0100
0000
0010
0000
1000
0010
0100
0000
0010
0001
0100
0000
0001
0000
,
1000
0000
0001
0100
0010
0001
0000
0010
1000
0010
0100
0000
0001
0010
0100
1000
,
0001
0000
0010
0000
0001
0000
0010
0000
0100
0000
0010
0000
0000
0000
0001
0000
1000
0000
0000
0010
0000
0000
1000
0000
0001
0000
0000
0100
0000
0000
0001
0000
,
0010
0010
0110
0110
1001
0000
2000
0000
,
3001
0000
0100
0000
0010
0000
0001
1000
0100
0000
0100
0010
1000
0000
0001
0000
,
0010
0000
0100
0010
0001
0010
0000
0010
0100
1000
0100
0000
0010
0001
1000
0001
,
0100
0010
0100
0010
1000
0100
1000
0100
0010
0001
0000
1000
0100
0000
0000
0000
,
0010
0100
1000
0100
0010
0000
0001
0100
0000
0000
0010
1000
0010
1000
0010
1000
,
0001
0100
0001
0100
0001
0010
0001
0010
0001
1000
0001
1000
0001
0010
0100
1000
,
0000
0000
0010
1000
0010
1000
0001
1000
0001
1000
0100
1000
0100
1000
0100
0010
,
0001
0010
0000
0000
1100
0000
0000
0101
0000
0000
1010
0000
0000
0011
0000
0000
,
0110
0000
0000
0000
0000
0000
0000
0000
0000
1100
0000
0000
0000
0000
0000
0000
0000
0000
0101
0000
0000
0000
0000
0000
0000
0000
0000
0100
0000
0000
0000
0000
0010
0000
0000
0000
0001
0000
0000
0000
0010
0000
0000
0000
1000
0000
0000
0000
,
0100
0000
0000
0000
,
0000
0000
0000
0000
,
1002
0003
0020
0030
0200
0300
2000
3001
,
0010
1000
0010
0001
0100
1000
0100
0001
,
0010
0001
0010
0000
0001
1000
0001
0000
1000
0000
0100
0000
0010
0001
0000
0000
,
0000
0000
1000
0000
0010
0100
0010
0100
0001
0000
0000
0000
0010
0100
0010
0100
,
2000
3000
0020
0030
0200
0300
0002
0003
,
1000
0000
0001
0100
0001
0000
0010
0100
0010
0000
0100
0000
1000
0001
0000
0000
,
0000
0000
1000
0000
0001
0100
0010
0100
0010
0000
1000
0001
1000
0000
0010
0000
,
0100
0000
0001
1000
0010
0000
0100
0001
1000
0200
0000
0000
0300
0000
0010
0000
,
0011
0000
0001
0000
1100
0000
1000
0000
0010
0000
0100
0010
0000
0100
0010
0000
,
1010
0000
1000
0000
0101
0000
0001
0000
1000
0000
0100
0010
0000
0100
0010
0000
,
0001
0000
1000
0001
1000
0000
0010
0100
0001
0000
1000
0100
0010
0000
0001
0010
,
0100
0000
1000
0100
0010
0000
0001
1000
0001
0100
0010
0100
0001
0000
0000
0000
,
0020
0032
0203
2300
3002
0023
2030
3200
,
0310
0000
0001
0100
0010
1000
0010
0100
0001
0000
1000
0100
0010
0001
0010
0100
,
2000
0000
3001
0200
0000
0301
0010
0001
1000
0000
0001
0100
0001
1000
0100
1000
,
0001
1000
0100
0010
0001
1000
0100
0010
0001
1000
0000
0000
0000
0000
0000
0000
,
0101
0000
0101
0000
1100
0000
0000
0000
1010
0000
0000
0011
0000
0000
0101
0000
,
0000
0000
1100
0000
0101
0000
0000
0000
0011
0000
0000
1010
0000
0000
1100
0000
,
0000
0000
1010
0000
0011
0000
0000
0000
0101
0000
0000
1100
0000
0000
1010
0000
,
0000
0000
0011
0000
0000
0110
0000
0000
1010
0000
0000
0101
0000
0000
0110
0000
,
2200
0000
3300
0000
0000
0000
0001
1000
0001
0010
0100
1000
0010
1000
0001
0100
,
0002
0000
0203
0000
0310
1000
0001
0100
0010
0000
1000
0100
1000
0000
0001
0100
,
0001
1000
0001
1000
0010
0100
0010
0100
0001
1000
0001
1000
0100
0010
0100
0010
,
0001
0010
0100
1000
0100
0010
0001
0000
0000
0000
2000
0000
0000
0000
0000
0000
,
3010
0000
0110
0000
1001
0000
0000
0000
1010
0000
0000
0110
0000
0000
0101
0000
,
0000
0000
0110
0000
1001
0000
0000
0000
0011
0000
0000
0110
0000
0000
1100
0000
,
0000
0000
0110
0000
1001
0000
0000
0000
1100
0000
0000
0110
0000
0000
0011
0000
,
0000
0000
1001
0000
0000
1010
0000
0000
0011
0000
0000
1001
0000
0000
1100
0000
,
0101
0000
0001
1000
0010
0000
0100
0001
,
1000
0100
1000
0100
1000
0000
0001
1000
0001
1000
0001
0000
0100
0000
0010
0000
,
1000
0100
0010
0001
1000
0100
0010
0001
1000
0010
0100
0001
1000
0010
0100
0001
,
2000
3020
0230
0302
,
1003
1000
0010
0010
1000
1000
0001
0001
,
0020
1030
0020
0031
0200
1300
0200
0301
,
0010
0000
0001
1000
0001
0000
0100
0010
0100
0000
0001
0010
0100
0000
1000
0100
,
0010
0000
0001
0000
0010
0000
0001
0000
0010
0000
0001
0000
1000
0000
0000
0010
0000
0000
0100
0000
0000
0001
0000
0000
0000
0000
0000
0000
0000
0000
0000
0000
0000
0000
0000
0000
0000
0000
0000
0000
0000
0000
0000
0000
0000
0000
0000
0000
;

//--------------- dance-single - BLANK. ----------------
#NOTES:
     dance-single:
     BLANK.:
     Challenge:
     18:
     0,0,0,0,0:
0000
0000
0000
0000
,
0000
0000
0000
0000
,
0000
0000
0000
0000
,
0000
0000
0000
0000
0000
0000
0000
0000
0000
0000
0000
0000
0000
0000
0000
2002
,
0000
0000
0000
3003
,
0011
0000
0000
0000
,
1010
0000
0000
0000
,
0101
0000
0000
0000
0000
0000
0000
0000
0000
0000
0000
0000
0000
0000
0000
2001
,
0000
3010
0100
0010
1001
0100
1001
0000
,
0001
0000
0001
0020
0000
0000
0130
0000
0001
0000
0001
0000
0100
0010
0000
0001
,
1000
0000
1000
0020
0000
0000
0130
0000
1000
0000
1000
0100
0000
0001
0000
1000
,
0001
0000
0001
0020
0000
0000
1030
0000
0010
0000
0010
0000
0001
0200
0000
1000
,
0300
0001
0010
1000
0000
1000
0100
0010
0001
0010
0100
1000
0001
0100
0010
1000
,
0001
0000
0001
0200
0000
0300
1000
0000
0001
0000
0010
0000
1000
0100
0000
0010
,
0001
0000
0001
0020
0000
0030
1000
0000
0001
0000
0100
0010
0000
0001
0000
1000
,
0000
0010
0001
0010
1000
0100
1000
0010
0100
0001
0010
0001
,
0000
0000
0000
0000
0100
0000
0000
0000
1000
0000
0000
0000
0001
0000
0000
0000
0000
0000
0000
0000
0010
0000
0000
0000
0000
0000
0000
0000
0100
0000
0000
0000
0001
0000
0000
0000
1000
0000
0000
0000
0000
0000
0100
0000
0000
0010
0000
0000
,
0001
0100
0010
0100
1002
0000
0103
0100
,
0010
0000
1000
0100
0010
0001
0000
0100
1000
0000
0000
0000
0001
0000
0010
1000
,
0200
0000
0300
0000
0001
0000
0100
1000
0020
0000
0030
0000
0001
0000
0010
0000
,
1010
0000
1000
0000
1100
0000
0100
0000
0220
0000
0330
0000
0001
0000
0001
1000
,
0001
0010
0100
0010
2001
0000
3010
0010
,
0100
0000
0001
1000
0100
0010
0000
0001
1000
0000
0000
0000
0001
0010
0001
1000
,
0001
0010
0100
1000
0010
1000
0001
1000
0100
0010
0000
0001
0200
0000
0300
0000
,
1000
0001
0010
1000
0100
0010
0100
1000
0000
0000
1000
0100
0010
0001
1000
0010
,
1000
0000
0001
0000
1100
0000
1000
0100
0020
0000
0030
0001
1000
0000
0010
0000
,
0101
0000
0001
0100
0010
0100
0000
0001
2000
0001
3000
0000
0011
0000
0100
1000
,
0020
0000
0030
0000
1100
0000
0010
0001
0200
0000
0300
0000
0011
0000
1000
0000
,
1100
0000
0010
0000
0101
0000
1000
0100
0010
0001
0010
0001
0100
0010
1000
0001
,
1000
0000
0100
0000
0110
0000
0001
1000
0002
0000
0003
0010
0100
0000
1000
0000
,
0001
0000
0100
0001
1000
0010
0000
1000
0200
1000
0300
0000
1000
0100
0010
0001
,
1000
0010
1000
0010
0100
0001
0010
0100
1000
0010
0000
0100
0001
0000
0000
0000
,
1000
0001
0100
0010
0001
1000
0100
0010
0000
0010
0100
0001
1000
0100
0010
0001
,
1000
0000
0000
0002
0100
0003
0020
0000
1030
0100
0000
1000
0100
0000
0010
0000
,
0001
1000
0000
0001
1000
0000
0010
0000
0100
0001
0000
1000
0100
0000
0010
0000
,
0001
0100
0000
0001
0010
0000
0100
0000
1001
0000
0000
0000
1000
0100
0010
0001
,
0010
0000
0000
0001
0000
0000
0010
0000
0000
0001
0000
0000
0010
0000
0000
0100
0000
0000
0010
0000
0000
0100
0000
0000
1000
0000
0000
0001
0000
0000
1000
0000
0000
0001
0000
0000
1000
0000
0000
0000
0100
0000
0000
0000
0010
0000
0000
0000
,
0001
0000
0000
1000
0001
0000
0010
0000
0001
0100
0000
0001
0100
0000
1000
0000
,
0001
0010
0000
0010
1000
0000
1000
0100
0000
0100
0001
0000
1000
0000
0010
0000
,
0001
0000
0000
0000
0000
0000
0001
0010
1000
0000
0000
0000
0000
0000
1000
0010
,
0001
0000
0000
0000
0000
0000
1000
0010
0100
0001
0010
0100
,
0010
0000
0010
0000
0001
0000
1000
0001
0000
0001
0000
0001
0010
0000
0100
0001
,
0100
0000
0010
0000
0001
0000
0100
1000
0000
1000
0000
0100
0001
0000
0010
0000
,
0001
0000
0000
0000
0000
0000
1000
0000
0000
0000
0000
0000
0010
0000
0000
0000
0000
0000
0100
0000
0000
0001
0000
0000
1000
0000
0000
0000
0000
0000
0000
0000
0000
1001
0000
0000
0000
0000
0000
0000
0000
0000
0001
0000
0010
0000
0001
0000
,
0010
0001
0010
0001
0010
0001
0010
0001
0010
0001
0010
0001
0010
0000
0000
0001
0000
0000
1000
0000
0000
0010
0000
0000
,
0201
0000
0000
0000
1300
0000
0000
0000
0001
0000
0000
0010
0000
0000
0100
0000
,
0002
0000
0000
0000
0013
0000
1000
0010
0002
0000
0000
0000
0103
0000
1000
0100
,
0020
0000
0000
0000
1030
0000
0000
0000
0001
0000
0000
0010
0000
0000
0100
0000
,
1001
0000
0000
0110
0000
0000
0110
0000
2002
0000
0000
0000
3003
0000
0000
0000
,
1001
0000
1000
0000
0100
0000
0001
0100
0010
0000
0010
0000
0001
0000
0010
0000
,
0100
0000
1000
0100
0010
0100
0000
0100
0010
0001
0010
0000
0001
0000
0100
0010
,
2000
0000
0100
0000
3001
0000
0010
0100
2000
0000
0010
0000
3001
0000
0100
0000
,
0011
0000
0010
0000
1100
0000
0001
0000
0010
0100
0010
0100
1000
0001
0100
0000
,
1001
0000
0001
0000
0100
0000
1000
0100
0010
0000
0010
0000
1000
0000
0001
0000
,
1000
0000
0100
0001
0100
0010
0000
0001
0010
0001
0100
0000
0001
0010
0100
1000
,
0001
0010
0100
0010
0001
1000
0100
1000
0001
0100
0000
0010
1000
0000
0000
0000
,
0001
0010
0001
0010
1000
0001
0100
0010
0000
0000
0010
0001
0010
0100
0010
0001
,
1000
0000
0001
0000
0110
0000
1000
0100
0010
0000
0010
0000
0001
0000
1000
0000
,
0110
0000
0001
0100
0010
0100
0000
0001
1000
0001
0010
0000
0100
1000
0100
0010
,
0001
0000
1000
0000
0001
0000
0100
0000
0010
0000
1000
0000
0001
0000
0100
0000
0001
0000
0000
0100
0000
0000
0010
0000
1000
0000
0000
0100
0000
0000
0010
0000
,
0001
0000
0000
0011
0000
0000
1100
0000
0000
0011
0000
0000
1001
0000
0000
0000
0000
0000
0001
0010
0100
1000
0000
0000
,
0010
0000
0100
0000
0001
0000
1000
0100
0001
0000
0000
0100
0010
0000
0001
0000
,
1000
0000
1000
0001
0100
1000
0000
1000
0100
0010
0000
0010
1000
0100
0010
0001
,
0100
0001
1000
0100
1000
0010
0100
0001
1000
0100
0000
0010
0001
0000
0000
0000
,
0100
0001
1000
0010
0001
0010
0100
0001
0000
0001
0100
0010
1000
0001
0010
0100
,
1000
0010
1000
0010
0100
0001
0100
0001
1000
0010
1000
0001
0100
0001
1000
0010
,
0000
0000
1000
0100
1000
0100
0010
0001
0010
0001
1000
0100
1000
0001
0010
0001
,
1000
0000
0000
1000
0010
0000
0010
0001
0000
0001
0010
0000
0010
1000
0000
1000
,
0100
0000
0000
0000
0000
0000
0100
0000
0000
0001
0000
0000
0000
0000
0000
0001
0000
0000
0100
0000
0000
0000
0000
0000
0100
0000
0000
1000
0000
0000
0000
0000
0100
0000
0000
0000
0010
0000
0000
0000
0001
0000
0000
0000
1000
0000
0000
0000
,
0010
0000
0000
0000
0001
0010
0000
0001
0000
0000
0010
0100
0000
0010
0000
0000
1000
0010
0000
1000
0000
0000
0100
1000
,
0000
0000
0100
0000
0000
0000
0010
0000
0000
0001
0000
0000
1000
0000
0000
0000
0010
0000
0000
0000
0100
0000
0000
0000
0001
0000
0000
0000
0010
0000
0000
0000
0001
0000
0000
0000
0100
0000
0000
0000
0001
0000
0000
0000
1000
0000
0000
0000
,
0020
0000
0001
0000
0100
0000
1030
0001
,
1000
0100
0010
0000
0001
0010
0100
0000
1000
0100
0010
0000
0001
0010
0100
0000
,
0010
0001
0010
0001
0100
0001
0100
0001
1000
0000
0010
0000
0100
0001
0000
0000
,
0000
0000
1000
0001
0100
0001
0010
0001
1000
0000
0000
0000
0001
0010
1000
0010
,
0200
1000
0001
0010
,
1300
0000
0001
0010
0100
1000
0010
0100
0001
0010
0001
1000
0010
1000
0000
0000
,
0000
0000
0000
0000
0000
0000
0001
0000
0000
1000
0000
0000
0001
0000
0000
0010
0000
0000
0100
0000
0000
0010
0000
0000
0001
0000
0100
0000
0001
0000
0100
0000
0000
0010
0000
0000
1000
0000
0000
0001
0000
0000
0100
0000
0000
0001
0000
0000
,
1000
0010
0100
0010
0001
0010
0100
0001
2000
0002
0000
3003
0000
0000
0001
0010
,
0100
0000
0101
0000
0010
0000
1100
0000
1010
0000
0010
0100
0000
0001
1000
0010
,
0100
0000
1100
0000
0010
0000
0101
0000
0011
0000
0010
0100
0000
1000
0001
1000
,
0010
0100
0001
1000
0001
1000
0100
0010
0001
0100
0001
0010
0100
1000
0010
1000
,
0001
0100
0010
0100
0001
0010
0100
0010
0001
0010
0100
1000
0010
0010
0000
0000
,
1000
0001
0010
0000
0001
1000
0010
0000
1000
0001
0100
0000
0001
1000
0100
0000
,
1000
0000
0000
0001
0000
0000
0100
0000
0000
0010
0000
0000
1000
0000
0000
0100
0000
0000
0010
0000
0000
0001
0000
0000
0100
0000
0000
0001
0000
0000
1000
0000
0000
0010
0000
0000
0100
0000
0001
0000
0100
0000
0001
0000
0000
0010
0000
0000
,
0002
0000
0103
0020
0000
1030
0001
0010
0001
0010
0100
1000
0010
0100
0001
0010
,
0001
1000
0001
0100
0001
0010
0100
1000
0100
0000
0000
0000
0100
0010
0100
0010
,
0001
0000
0011
0000
1001
0000
0000
0000
0110
0000
0000
0001
0010
0000
0100
0000
,
1000
0000
1010
0000
1001
0000
0000
0000
0110
0000
0000
1000
0010
0000
0100
0000
,
0001
0000
0101
0000
1001
0000
0000
0000
0110
0000
0000
0001
0100
0000
0010
0000
,
1000
0000
0011
0000
0000
1100
0000
0000
1010
0000
0000
0011
0000
0000
1100
0000
,
0202
0000
0000
0303
0000
0000
0001
0100
0001
0010
0100
0010
1000
0010
0100
1000
,
0001
0000
0010
0000
0001
0000
0010
0000
0001
0000
0010
0000
0100
0000
0000
1000
0000
0000
0001
0000
0000
0100
0000
0000
0010
0000
0000
1000
0000
0000
0001
0000
0000
1000
0000
0000
0100
0000
0000
0010
0000
0000
0100
0000
0000
1000
0000
0000
,
0010
0100
0001
0010
0001
0100
0010
0001
0010
0100
0010
1000
0100
1000
0001
1000
,
0010
0000
0000
0100
0000
0000
0001
0000
0000
1000
0000
0000
0100
0000
0000
0010
0000
0000
0001
0000
0000
1000
0000
0000
0000
0000
0000
0000
0000
0000
0010
0000
0100
0000
0020
0000
0200
0000
0000
0000
0030
0000
0300
0000
0000
0000
0000
0000
,
0011
0000
0011
0000
1001
0000
0000
0000
0101
0000
0000
1000
0010
0000
1000
0000
,
0001
0000
1010
0000
1001
0000
0000
0000
1010
0000
0000
0001
0010
0000
0001
0000
,
0100
0000
0101
0000
1001
0000
0000
0000
0101
0000
0000
1000
0100
0000
1000
0000
,
0001
0000
0110
0000
0000
1010
0000
0000
0011
0000
0000
0110
0000
0000
1100
0000
,
0202
0303
1000
0001
0010
0000
0010
0100
,
1000
0100
1000
0100
1000
0000
1000
0010
1000
0010
1000
0000
0001
0000
1000
0000
,
0001
0100
0010
1000
0100
0010
0100
0010
0001
1000
0010
1000
0100
0010
0001
0100
,
0002
0023
0230
2300
,
3001
0100
0001
0100
0010
1000
0010
1000
,
0002
1000
0203
0010
2300
0001
3020
0100
,
0031
1000
0001
1000
0010
0100
0010
0100
0001
0010
0100
1000
0010
0100
0001
1000
,
0100
0000
0010
0000
0001
0000
1000
0000
0010
0000
0100
0000
0001
0000
1000
0000
0010
0000
0100
0000
0000
0001
0000
0000
0000
0000
0000
0000
0000
0000
0000
0000
0000
0000
0000
0000
0000
0000
0000
0000
0000
0000
0000
0000
0000
0000
0000
0000
;
