#TITLE:Pink Dream;
#SUBTITLE:;
#ARTIST:PINK PONG;
#TITLETRANSLIT:;
#SUBTITLETRANSLIT:;
#ARTISTTRANSLIT:;
#GENRE:TRANCE;
#CREDIT:;
#BANNER:pinkdream.png;
#BACKGROUND:pinkdream-bg.png;
#LYRICSPATH:;
#CDTITLE:cdtitle.png;
#MUSIC:pinkdream.ogg;
#OFFSET:-0.441587;
#SAMPLESTART:63.049999;
#SAMPLELENGTH:12.000000;
#SELECTABLE:YES;
#BPMS:0.000000=138.000000
;
#STOPS:
;
#BGCHANGES:;
#KEYSOUNDS:;
#ATTACKS:;

//---------------dance-single - ----------------
#NOTES:
     dance-single:
     :
     Hard:
     13:
     0.598205,0.694809,0.101207,0.063254,0.518685,331.000000,323.000000,8.000000,5.000000,0.000000,0.000000,0.598205,0.694809,0.101207,0.063254,0.518685,331.000000,323.000000,8.000000,5.000000,0.000000,0.000000:
0000
0000
0000
0000
,
0000
0000
0000
0000
,
1000
0010
1000
0000
0001
0100
0010
0100
,
0001
1000
0001
0000
1000
0100
0010
0001
,
0010
0100
0010
0000
0100
1000
0100
0010
,
0100
1000
0001
0000
0100
0010
1000
0001
,
1000
0100
0001
0000
0100
0010
0100
1000
,
0001
0100
1000
0000
0100
0010
0100
0001
,
1000
0100
0010
0000
0001
0010
1000
0010
,
0001
0010
0100
0000
1000
0001
0100
0010
,
1000
0000
0010
0000
1000
0000
0000
0101
0000
0000
0001
0000
1000
0000
0001
0000
,
0010
0000
0001
0000
0010
0000
0000
1100
0000
0000
1000
0000
0001
0000
0100
0000
,
1000
0000
0100
0000
0001
0000
0000
0110
0000
0000
0010
0000
1000
0000
0001
0000
,
0010
0000
1000
0000
0010
0000
0000
0110
0000
0000
0100
0000
1000
0000
0001
0000
,
1000
0000
0010
0000
0100
0000
0000
0101
0000
0000
0100
0000
0001
0000
1000
0000
,
0001
0000
0010
0000
0100
0000
0000
1100
0000
0000
0100
0000
1000
0000
0001
0000
,
0010
0000
0100
0000
0010
0000
0000
1100
0000
0000
1000
0000
0001
0000
1000
0000
,
0010
0000
0100
0000
0010
0000
0000
0101
0000
0000
0001
0000
1000
0000
0001
0000
,
0010
0000
0100
0000
0010
0000
0001
0010
0000
0100
1000
0000
0001
0000
1000
0000
,
0001
0000
0100
0000
0010
0000
1000
0001
0000
0010
0100
0000
1000
0000
0100
0000
,
0010
0000
0001
0000
0010
0000
0100
1000
0000
0001
0100
0000
1000
0000
0100
0000
,
0010
0000
1000
0000
0010
0000
0100
0001
0000
1000
0100
0000
0001
0000
0100
0000
,
1000
0000
0100
0000
0010
0000
0001
0010
0000
0001
1000
0000
0001
0000
1000
0000
,
0001
0000
0100
0000
0010
0000
1000
0010
0000
1000
0001
0000
1000
0000
0100
0000
,
0010
0000
0001
0000
0010
0000
0100
0010
0000
0100
1000
0000
0001
0000
1000
0000
,
0001
0000
0100
0000
0010
0000
0100
0010
0000
0100
0001
0000
1000
0000
0001
0000
,
2000
0000
0000
0001
0000
0000
0000
0000
0000
0000
0000
3010
0000
0000
0000
0000
,
0200
0000
0000
1000
0000
0000
0000
0000
0000
0000
0000
0301
0000
0000
0000
0000
,
0002
0000
0000
1000
0000
0000
0000
0000
0000
0000
0000
0013
0000
0000
0000
0000
,
0200
0000
0000
0001
0000
0000
0000
0000
0000
0000
0000
1300
0000
0000
0000
0000
,
1000
0000
0000
0010
0000
0000
1000
0000
0001
0000
0000
0100
0000
0000
0001
0000
,
0010
0000
0000
0001
0000
0000
0010
0000
0100
0000
0000
1000
0000
0000
0100
0000
,
0010
0000
0000
0001
0000
0000
1000
0000
0010
0000
0000
0100
0000
0000
0001
0000
,
1000
0001
0010
0000
0100
1000
0001
0000
,
0100
1000
0100
0001
0100
0010
1000
0001
,
0000
0000
0000
0000
0020
0000
0000
0030
,
0001
0010
0000
0001
1000
0001
1000
0000
0100
0010
0000
0100
1000
0100
1000
0000
,
0001
0100
0000
0010
0100
0010
0100
0000
0010
1000
0000
0001
1000
0001
1000
0000
,
0001
0010
0000
0100
1000
0100
0010
0000
0100
1000
0000
0001
0100
0010
1000
0000
,
1000
0010
0000
0100
0001
0100
0010
0000
0100
0001
0000
1000
0100
0010
0001
0000
,
0001
0010
0000
0100
0001
0100
1000
0000
0100
0010
0000
0001
1000
0001
1000
0000
,
1000
0010
0000
0100
1000
0100
0001
0000
0100
0010
0000
1000
0001
1000
0001
0000
,
1000
0100
0000
0010
0001
0010
0001
0000
0001
0100
0000
0010
1000
0010
1000
0000
,
0001
0000
0010
0000
1000
0000
0010
0000
0001
0000
1000
0000
0010
0100
0010
0100
;

//---------------dance-double - ----------------
#NOTES:
     dance-double:
     :
     Hard:
     14:
     0.598205,0.722601,0.101207,0.063254,0.518685,331.000000,323.000000,8.000000,5.000000,0.000000,0.000000,0.598205,0.722601,0.101207,0.063254,0.518685,331.000000,323.000000,8.000000,5.000000,0.000000,0.000000:
// measure 0
00000000
00000000
00000000
00000000
,  // measure 1
00000000
00000000
00000000
00000000
,  // measure 2
10000000
00100000
10000000
00000000
00001000
01000000
00100000
01000000
,  // measure 3
00001000
00010000
00001000
00000000
00010000
00000100
00000010
00000001
,  // measure 4
00000010
00000100
00000010
00000000
00000100
00010000
00001000
00010000
,  // measure 5
00000010
00001000
00000010
00000000
00000100
00001000
00010000
01000000
,  // measure 6
10000000
00010000
00100000
00000000
01000000
10000000
01000000
00010000
,  // measure 7
01000000
00100000
00001000
00000000
00010000
00000010
00000100
00000001
,  // measure 8
00001000
00000001
00000010
00000000
00000100
00001000
00000100
00000001
,  // measure 9
00000100
00010000
00001000
00000000
01000000
00100000
10000000
00010000
,  // measure 10
10000000
00000000
00100000
00000000
10000000
00000000
00000000
01001000
00000000
00000000
00001000
00000000
00010000
00000000
00001000
00000000
,  // measure 11
00010000
00000000
00000100
00000000
00000010
00000000
00000000
00000011
00000000
00000000
00001000
00000000
00000001
00000000
00001000
00000000
,  // measure 12
00000001
00000000
00000010
00000000
00000001
00000000
00000000
00010100
00000000
00000000
00010000
00000000
00001000
00000000
00010000
00000000
,  // measure 13
00001000
00000000
01000000
00000000
00100000
00000000
00000000
10100000
00000000
00000000
00010000
00000000
10000000
00000000
00010000
00000000
,  // measure 14
10000000
00000000
00100000
00000000
00010000
00000000
00000000
01100000
00000000
00000000
01000000
00000000
00001000
00000000
00010000
00000000
,  // measure 15
00001000
00000000
00000100
00000000
00000001
00000000
00000000
00001001
00000000
00000000
00001000
00000000
00000001
00000000
00001000
00000000
,  // measure 16
00000001
00000000
00000010
00000000
00001000
00000000
00000000
00000110
00000000
00000000
00000100
00000000
00010000
00000000
00001000
00000000
,  // measure 17
00010000
00000000
01000000
00000000
10000000
00000000
00000000
10010000
00000000
00000000
00010000
00000000
10000000
00000000
00010000
00000000
,  // measure 18
10000000
00000000
00100000
00000000
01000000
00000000
00001000
01000000
00000000
00001000
01000000
00000000
00100000
00000000
01000000
00000000
,  // measure 19
00001000
00000000
00010000
00000000
00001000
00000000
00010000
00000100
00000000
00010000
00000100
00000000
00000010
00000000
00000100
00000000
,  // measure 20
00000010
00000000
00000001
00000000
00001000
00000000
00000010
00000100
00000000
00000010
00001000
00000000
00000010
00000000
00010000
00000000
,  // measure 21
00001000
00000000
00010000
00000000
01000000
00000000
10000000
01000000
00000000
00100000
01000000
00000000
10000000
00000000
00010000
00000000
,  // measure 22
10000000
00000000
00100000
00000000
01000000
00000000
00010000
01000000
00000000
00100000
01000000
00000000
00001000
00000000
01000000
00000000
,  // measure 23
00001000
00000000
00010000
00000000
00000100
00000000
00001000
00000100
00000000
00000010
00000100
00000000
00001000
00000000
00000100
00000000
,  // measure 24
00000010
00000000
00000001
00000000
00001000
00000000
00000010
00000100
00000000
00000010
00001000
00000000
00000010
00000000
00010000
00000000
,  // measure 25
00001000
00000000
00010000
00000000
01000000
00000000
10000000
01000000
00000000
00100000
01000000
00000000
10000000
00000000
00010000
00000000
,  // measure 26
20000000
00000000
00000000
00010000
00000000
00000000
00000000
00000000
00000000
00000000
00000000
30100000
00000000
00000000
00000000
00000000
,  // measure 27
02000000
00000000
00000000
10000000
00000000
00000000
00000000
00000000
00000000
03001000
00000000
00000000
00000000
00000000
00000000
00000000
,  // measure 28
00002000
00000000
00000000
00000000
00000000
00010000
00000000
00000000
00000000
00000000
00000000
00003100
00000000
00000000
00000000
00000000
,  // measure 29
00000002
00000000
00000000
00000100
00000000
00000000
00000000
00000000
00000000
00000000
00000000
00001003
00000000
00000000
00000000
00000000
,  // measure 30
00000001
00000000
00000000
00000010
00000000
00000000
00000001
00000000
00001000
00000000
00000000
00000100
00000000
00000000
00001000
00000000
,  // measure 31
00000010
00000000
00000000
00010000
00000000
00000000
00000010
00000000
01000000
00000000
00000000
00001000
00000000
00000000
01000000
00000000
,  // measure 32
00100000
00000000
00000000
10000000
00000000
00000000
01000000
00000000
00100000
00000000
00000000
00010000
00000000
00000000
01000000
00000000
,  // measure 33
00001000
00010000
00001000
00000000
00000100
00000001
00000100
00000000
,  // measure 34
00000001
00000010
00001000
00010000
01000000
10000000
00100000
01000000
,  // measure 35
00000000
00000000
00000000
00000000
00200000
00000000
00000000
00300000
,  // measure 36
10000000
00100000
00000000
10000000
00010000
10000000
00010000
00000000
01000000
00010000
00000000
01000000
00100000
01000000
00100000
00000000
,  // measure 37
01000000
00001000
00000000
00010000
00001000
00010000
00001000
00000000
00010000
00000100
00000000
00000010
00000100
00000010
00000100
00000000
,  // measure 38
00000010
00000001
00000000
00000010
00000100
00001000
00000100
00000000
00010000
00001000
00000000
00100000
01000000
10000000
01000000
00000000
,  // measure 39
10000000
00100000
00000000
01000000
00010000
01000000
00100000
00000000
01000000
00001000
00000000
00010000
00001000
00010000
00000100
00000000
,  // measure 40
00000010
00000001
00000000
00001000
00000010
00000001
00000010
00010000
00001000
00000000
00000000
01000000
10000000
01000000
00010000
00000000
,  // measure 41
10000000
01000000
00000000
00100000
00010000
00100000
10000000
00000000
00100000
00001000
00000000
00010000
00000100
00000001
00000100
00000000
,  // measure 42
00000010
00000001
00000000
00000100
00000010
00010000
00000010
00000000
00010000
00001000
00000000
00000100
00000010
00000001
00000010
00000000
,  // measure 43
00000001
00000000
00000010
00000000
00001000
00000000
00010000
00000000
01000000
00000000
10000000
00000000
00010000
10000000
00010000
10000000
;

//---------------dance-single - ----------------
#NOTES:
     dance-single:
     :
     Medium:
     9:
     0.379526,0.416292,0.113858,0.063254,0.107532,210.000000,201.000000,9.000000,5.000000,0.000000,0.000000,0.379526,0.416292,0.113858,0.063254,0.107532,210.000000,201.000000,9.000000,5.000000,0.000000,0.000000:
0000
0000
0000
0000
,
0000
0000
0000
0000
,
1000
0010
1000
0001
,
1000
0000
0100
0000
0010
0000
0001
1000
,
0001
0010
0001
1000
,
0001
0000
0100
0000
0010
1000
0100
0010
,
0001
0010
0100
0010
,
1000
0000
0010
0000
0100
0000
1000
0001
,
1000
0010
0100
0010
,
0001
0000
0010
0000
1000
1000
1000
0000
,
0001
0000
1000
0000
0010
1000
0010
0000
,
0100
0001
0100
0000
0001
1000
0100
0000
,
0010
0000
0100
0000
1000
0100
1000
0000
,
0001
0010
0001
0000
0010
0100
1000
0000
,
0001
0000
0100
0000
0010
0100
0010
0000
,
1000
0010
0001
0000
0010
1000
0001
0000
,
1000
0000
0100
0000
0010
0100
0010
0000
,
0001
0010
1000
0000
0010
0001
0100
0000
,
0001
0100
0001
0000
1000
0010
1000
0000
,
0010
0100
0010
0000
1000
0001
1000
0000
,
0001
0010
0100
0000
1000
0100
0001
0000
,
0100
1000
0010
0000
0100
0001
1000
0000
,
1001
0000
1100
0000
0100
0010
0100
0000
,
1000
0100
0010
0000
0001
1000
0001
0000
,
1001
0000
0101
0000
0100
0010
0100
0000
,
0001
0100
0010
0000
1000
0001
1000
0000
,
2000
0000
3010
0000
,
2000
0000
3001
0000
,
0002
0000
0013
0000
,
0002
0000
1003
0000
,
1001
0000
0000
0000
0000
0000
0000
1000
0000
0000
1000
0000
0000
0000
0000
0000
,
0101
0000
0000
0000
0000
0000
0000
0001
0000
0000
0001
0000
0000
0000
0000
0000
,
1100
0000
0000
0000
0000
0000
0000
0100
0000
0000
0100
0000
0000
0000
0000
0000
,
0011
0000
1010
0000
,
1000
0000
0001
0000
1000
0100
0010
0001
,
0000
0000
0020
0000
,
0130
0000
0000
1000
0000
0000
0100
0000
1000
0000
0000
0001
0000
0000
1000
0000
,
0001
0000
0100
0000
0000
0001
0000
0000
0100
0000
0000
0010
0000
0000
0100
0000
,
0010
0000
0000
1000
0000
0000
0010
0000
1000
0000
0000
0001
0000
0000
1000
0000
,
0001
0000
0000
0010
0000
0000
0001
0000
0010
0000
0000
0100
0000
0000
0010
0000
,
0100
0000
0000
1000
0000
0000
0001
0000
1000
0000
0000
0010
0000
0000
0100
0000
,
0001
0000
0000
1000
0000
0000
0001
0000
0010
0000
0000
0100
0000
0000
1000
0000
,
0001
0000
0000
0100
0000
0000
0001
0000
1000
0000
0000
0100
0000
0000
1000
0000
,
0001
0000
1000
0000
0001
0010
0100
1000
;

//---------------dance-single - ----------------
#NOTES:
     dance-single:
     :
     Easy:
     5:
     0.251210,0.305281,0.025302,0.063254,0.000000,139.000000,137.000000,2.000000,5.000000,0.000000,0.000000,0.251210,0.305281,0.025302,0.063254,0.000000,139.000000,137.000000,2.000000,5.000000,0.000000,0.000000:
0000
0000
0000
0000
,
0000
0000
0000
0000
,
0000
1000
1000
1000
,
0000
0001
0001
0001
,
0000
1000
0010
1000
,
0000
0001
0100
0001
,
0000
0010
0001
0100
,
0000
0010
1000
0001
,
0000
1000
0100
0001
,
0000
0001
0100
1000
,
0000
1000
0001
0000
,
0010
0000
0001
0000
,
1000
0000
0001
0000
,
0100
0000
0001
0010
,
0100
1000
0001
0000
,
1000
0000
0010
0000
,
1000
0000
0001
0000
,
1000
0000
0100
0010
,
0001
1000
0010
0100
,
0010
0000
0001
0000
0010
0010
0010
0000
,
1000
0001
0010
0100
,
0010
0000
1000
0000
0010
0010
0010
0000
,
0001
1000
0100
0010
,
0100
0000
0001
0000
0100
0100
0100
0000
,
1000
0001
0100
0010
,
0100
0000
1000
0000
0100
0100
0100
0000
,
0002
0000
0003
0000
,
2000
0000
3000
0000
,
0200
0000
0300
0000
,
0020
0000
0030
0000
,
0001
0000
0001
0000
,
1000
0000
1000
0000
,
0010
0000
0100
0000
,
0101
0000
1100
0000
,
0001
1000
0001
1000
,
0000
0000
0020
0000
,
1030
0000
0010
0000
0100
0001
0100
0000
,
0001
0000
0010
0000
0100
1000
0100
0000
,
1000
0000
0100
0000
0010
0001
0010
0000
,
0001
0000
0100
0000
0010
1000
0010
0000
,
0100
0000
0001
0000
1000
0100
0001
0000
,
0100
0000
1000
0000
0001
0100
1000
0000
,
0100
0000
0001
0000
1000
0100
0010
0000
,
0001
0000
0001
0000
1000
0001
1000
0001
;

//---------------dance-double - ----------------
#NOTES:
     dance-double:
     :
     Medium:
     9:
     0.379526,0.416292,0.113858,0.063254,0.107532,210.000000,201.000000,9.000000,5.000000,0.000000,0.000000,0.379526,0.416292,0.113858,0.063254,0.107532,210.000000,201.000000,9.000000,5.000000,0.000000,0.000000:
00000000
00000000
00000000
00000000
,
00000000
00000000
00000000
00000000
,
10000000
00010000
00100000
00010000
,
10000000
00000000
01000000
00000000
00010000
00000000
01000000
00100000
,
01000000
00100000
00001000
00100000
,
01000000
00000000
10000000
00000000
00100000
00010000
00001000
00000100
,
00000001
00001000
00000010
00001000
,
00000001
00000000
00000100
00000000
00001000
00000000
00000100
00000010
,
00000100
00000010
00010000
00000010
,
00000100
00000000
00000001
00000000
00001000
00001000
00001000
00000000
,
00000001
00000000
00001000
00000000
00000100
00000010
00000100
00000000
,
00000010
00000001
00000010
00000000
00000100
00010000
00000100
00000000
,
00010000
00000000
00001000
00000000
01000000
00001000
01000000
00000000
,
00100000
01000000
00100000
00000000
10000000
00010000
10000000
00000000
,
10000000
00000000
00010000
00000000
01000000
00100000
01000000
00000000
,
00100000
10000000
00100000
00000000
01000000
00001000
01000000
00000000
,
00001000
00000000
00010000
00000000
00000100
00010000
00000100
00000000
,
00000010
00000100
00000010
00000000
00000001
00001000
00000001
00000000
,
00000001
00000010
00000001
00000000
00001000
00000100
00001000
00000000
,
00000010
00010000
00000010
00000000
00001000
01000000
00001000
00000000
,
01000000
00100000
10000000
00000000
01000000
00100000
00001000
00000000
,
00010000
00000010
00000100
00000000
00000001
00001000
00000001
00000000
,
00001001
00000000
00000011
00000000
00000100
00010000
00000100
00000000
,
00010000
00001000
00010000
00000000
00001000
01000000
00100000
00000000
,
10010000
00000000
11000000
00000000
00100000
00001000
00100000
00000000
,
00001000
00010000
00001000
00000000
00010000
00000100
00000010
00000000
,
00000002
00000000
00000013
00000000
,
00000200
00000000
00010300
00000000
,
00002000
00000000
00013000
00000000
,
00200000
00000000
10300000
00000000
,
10010000
00000000
00000000
00000000
00000000
00000000
00000000
10000000
00000000
00000000
00100000
00000000
00000000
00000000
00000000
00000000
,
01001000
00000000
00000000
00000000
00000000
00000000
00000000
00001000
00000000
00000000
00010000
00000000
00000000
00000000
00000000
00000000
,
00010100
00000000
00000000
00000000
00000000
00000000
00000000
00000100
00000000
00000000
00000010
00000000
00000000
00000000
00000000
00000000
,
00000011
00000000
00001010
00000000
,
00000001
00000000
00001000
00000000
00000010
00001000
00010000
01000000
,
00000000
00000000
00200000
00000000
,
10300000
00000000
00000000
00100000
00000000
00000000
10000000
00000000
00010000
00000000
00000000
01000000
00000000
00000000
00010000
00000000
,
00100000
00000000
00000000
00001000
00000000
00000000
00100000
00000000
00001000
00000000
00000000
00010000
00000000
00000000
00001000
00000000
,
00010000
00000000
00000000
00000100
00000000
00000000
00010000
00000000
00000100
00000000
00000000
00000010
00000000
00000000
00000100
00000000
,
00000010
00000000
00000000
00000001
00000000
00000000
00000010
00000000
00000001
00000000
00000000
00001000
00000000
00000000
00000001
00000000
,
00000100
00000000
00000000
00000010
00000000
00000000
00010000
00000000
00001000
00000000
00000000
00010000
00000000
00000000
01000000
00000000
,
10000000
00000000
00000000
00100000
00000000
00000000
01000000
00000000
00001000
00000000
00000000
00010000
00000000
00000000
00001000
00000000
,
00000100
00000000
00000000
00000001
00000000
00000000
00000010
00000000
00000100
00000000
00000000
00001000
00000000
00000000
00000010
00000000
,
00000100
00000000
00000001
00000000
00000010
00001000
00010000
01000000
;

//---------------dance-double - ----------------
#NOTES:
     dance-double:
     :
     Easy:
     5:
     0.251210,0.305281,0.025302,0.063254,0.000000,139.000000,137.000000,2.000000,5.000000,0.000000,0.000000,0.251210,0.305281,0.025302,0.063254,0.000000,139.000000,137.000000,2.000000,5.000000,0.000000,0.000000:
00000000
00000000
00000000
00000000
,
00000000
00000000
00000000
00000000
,
00000000
00010000
00010000
00010000
,
00000000
10000000
10000000
10000000
,
00000000
00100000
10000000
00100000
,
00000000
01000000
00001000
01000000
,
00000000
00100000
10000000
01000000
,
00000000
00010000
00001000
00000100
,
00000000
00000001
00001000
00000100
,
00000000
00000010
00001000
00010000
,
00000000
01000000
10000000
00000000
,
01000000
00000000
00010000
00000000
,
01000000
00000000
10000000
00000000
,
01000000
00000000
00100000
00001000
,
00010000
00001000
00000100
00000000
,
00000001
00000000
00000100
00000000
,
00001000
00000000
00000100
00000000
,
00000001
00000000
00000010
00000100
,
00010000
00001000
01000000
00100000
,
01000000
00000000
00010000
00000000
01000000
01000000
01000000
00000000
,
00001000
00010000
00000100
00000010
,
00000100
00000000
00001000
00000000
00000100
00000100
00000100
00000000
,
00000010
00000001
00001000
00000100
,
00010000
00000000
00000100
00000000
00001000
00001000
00001000
00000000
,
00000001
00000100
00000010
00010000
,
00001000
00000000
00010000
00000000
01000000
01000000
01000000
00000000
,
20000000
00000000
30000000
00000000
,
00020000
00000000
00030000
00000000
,
02000000
00000000
03000000
00000000
,
00200000
00000000
00300000
00000000
,
01000000
00000000
00001000
00000000
,
00010000
00000000
00001000
00000000
,
00010000
00000000
00000100
00000000
,
00000011
00000000
00001010
00000000
,
00000001
00001000
00000001
00001000
,
00000000
00000000
00000020
00000000
,
00001030
00000000
00000001
00000000
00000010
00000001
00000010
00000000
,
00000100
00000000
00010000
00000000
00001000
00010000
00001000
00000000
,
01000000
00000000
00100000
00000000
10000000
00100000
10000000
00000000
,
00010000
00000000
10000000
00000000
00010000
00100000
00010000
00000000
,
00100000
00000000
01000000
00000000
10000000
01000000
00010000
00000000
,
00001000
00000000
00010000
00000000
00001000
00000100
00000001
00000000
,
00001000
00000000
00000001
00000000
00000010
00000100
00010000
00000000
,
00001000
00000000
00001000
00000000
00010000
00001000
00010000
00001000
;

//---------------dance-single - ----------------
#NOTES:
     dance-single:
     :
     Beginner:
     2:
     0.173498,0.221390,0.025302,0.050603,0.000000,96.000000,94.000000,2.000000,4.000000,0.000000,0.000000,0.173498,0.221390,0.025302,0.050603,0.000000,96.000000,94.000000,2.000000,4.000000,0.000000,0.000000:
0000
0000
0000
0000
,
0000
0000
0000
0000
,
0000
1000
0000
1000
,
0000
0001
0000
0001
,
0000
1000
0000
0010
,
0000
1000
0000
0001
,
0000
0001
0000
0010
,
0000
0001
0000
1000
,
0000
0010
0000
0100
,
0000
0010
0000
1001
,
0000
1000
1000
1000
,
0000
0001
0001
0001
,
0000
0100
0100
0100
,
0000
0010
0010
0010
,
0000
0100
0100
0100
,
0000
0001
0001
0001
,
0000
1000
1000
1000
,
0000
0100
0100
0100
,
0000
0000
0010
0000
,
0001
0000
0010
0000
,
0100
0000
0010
0000
,
1000
0000
0010
0000
,
0000
0001
0001
0001
,
0000
1000
1000
1000
,
0000
0010
0010
0010
,
0000
0100
0100
0100
,
0200
0000
0300
0000
,
0020
0000
0030
0000
,
2000
0000
3000
0000
,
0002
0000
0003
0000
,
1000
0000
1000
0000
,
0001
0000
0001
0000
,
1000
0000
0010
0000
,
0001
0000
0100
0000
,
1000
1000
1000
1000
,
0000
0000
1001
0000
,
0001
0000
0010
0000
,
0100
0000
0010
0000
,
0001
0000
1000
0000
,
0001
0000
0100
0000
,
0010
0000
1000
0000
,
0010
0000
0100
0000
,
0001
0000
1000
0000
,
0010
0010
0010
0010
;
