#VERSION:0.83;
#TITLE:Pantheon;
#SUBTITLE:;
#ARTIST:Blastoyz, Dimibo, Jason Ross, Kill The Noise, Seven Lions, Trivecta & Wooli;
#TITLETRANSLIT:;
#SUBTITLETRANSLIT:;
#ARTISTTRANSLIT:;
#GENRE:Psytrance vs Brostep vs Melodic Dubstep vs Trance;
#CREDIT:darkanine;
#MUSIC:Pantheon.ogg;
#BANNER:Pantheon.png;
#BACKGROUND:Pantheon-bg.png;
#CDTITLE:;
#SAMPLESTART:41.609;
#SAMPLELENGTH:22.400;
#SELECTABLE:YES;
#OFFSET:0.000;
#BPMS:0.000=75.000
,20.000=150.000
,82.000=75.000
,82.250=150.000
,82.750=75.000
,83.000=150.000
,83.500=75.000
,83.750=150.000
,84.250=75.000
,84.500=150.000
,109.500=1200.000
,110.000=150.000
,110.500=1200.000
,111.000=150.000
,180.000=75.000
,180.500=150.000
,181.500=75.000
,182.000=150.000
,183.000=75.000
,194.000=150.000
,195.000=75.000
,200.000=150.000
,205.500=75.000
,210.000=150.000
,215.500=75.000
,220.000=37.500
,220.500=75.000
,235.000=37.500
,236.000=150.000
,264.000=75.000
,271.000=85.000
,271.500=100.000
,272.000=120.000
,272.500=150.000
,273.000=180.000
,273.500=220.000
,274.000=250.000
,274.500=290.000
,275.000=340.000
,275.500=400.000
,277.000=500.000
,279.000=600.000
,282.000=900.000
,285.000=1200.000
,292.000=1800.000
,297.000=2400.000
;
#STOPS:54.500=0.400
,61.500=0.400
,87.000=0.400
,109.500=0.175
,110.500=0.175
,194.000=0.133
,194.333=0.133
,194.667=0.133
,200.000=0.200
,209.500=0.400
,210.000=0.200
;
#SPEEDS:0.000=1.000=0.000=0;
#SCROLLS:0.000=1.000;
#TICKCOUNTS:0.000=4;
#TIMESIGNATURES:0.000=4=4;
#LABELS:0.000=Song Start;
#COMBOS:0.000=1;
#DISPLAYBPM:75.000:150.000;
#ORIGIN:;
#PREVIEWVID:;
#JACKET:Pantheon-jacket.png;
#CDIMAGE:;
#DISCIMAGE:;
#BGCHANGES:0.000=Pantheon.avi=1.000=0=0=0=StretchNoLoop====,
99999.000=-nosongbg-=1.000=0=0=0=StretchNoLoop====
;
#FGCHANGES:;

//--------------- dance-single - ----------------
#NOTEDATA:;
#STEPSTYPE:dance-single;
#DESCRIPTION:;
#DIFFICULTY:Beginner;
#METER:5;
#RADARVALUES:0.17313,0.253982,0.034626,0.090028,0,175,170,5,13,0,0,0,0,0,0.17313,0.253982,0.034626,0.090028,0,175,170,5,13,0,0,0,0,0;
#DISPLAYBPM:75.000:150.000;
#CHARTNAME:;
#CHARTSTYLE:;
#CREDIT:darkanine;
#NOTES:
0000
0000
0000
0000
,
0000
0000
0000
0000
,
0000
0000
0000
0000
,
1000
1000
0100
0010
,
0001
0001
0100
0000
,
1000
1000
1000
0000
,
0010
0010
0010
0000
,
0100
0100
0100
0000
,
1000
1000
1000
0000
,
0001
0001
0001
0000
,
0010
0010
0010
0000
,
0100
0100
0100
0000
,
0001
0001
1000
0000
,
0001
0001
0001
1000
,
0000
0001
0000
0100
,
0100
0100
0010
0000
,
0100
0000
0110
0000
,
1001
0000
0110
0000
,
1001
0000
0010
0010
,
1000
0001
0020
0000
,
0000
0000
0130
0000
,
0000
0010
0100
0000
,
1000
1000
0100
1000
,
0100
0001
0001
0000
,
1000
1000
0010
0100
,
0010
0010
0010
0000
,
0001
0001
0010
0001
,
0100
2000
0000
0000
,
3000
0001
0010
0010
,
0100
0000
0000
0000
,
0001
0100
0000
1000
,
0000
0100
0000
0001
,
0000
0010
0000
1000
,
0000
0010
0001
0000
,
0001
0001
1000
1000
,
0010
0010
0010
0000
,
0100
0100
0100
0000
,
0001
0001
1000
0000
,
1001
0000
0000
0000
,
1000
1000
0100
0000
,
0001
0001
0010
0000
,
0001
0001
0100
0000
,
1000
0000
0100
0000
,
0001
0000
0010
0000
,
1000
0010
0001
0100
,
1000
0000
0000
1000
,
0001
1000
0001
0100
,
0100
0001
0001
0100
,
0010
0100
0020
0130
,
1000
0100
0001
1000
,
0000
0020
0000
0000
0000
0000
0000
0130
,
0000
0100
0000
0001
0000
0010
0000
0100
,
0000
1000
0000
0020
0030
2000
0000
0000
,
0000
0000
0000
3100
0000
1000
0000
0001
,
0000
0100
0000
0020
0000
0030
0000
0002
,
0000
0003
2000
0000
0000
0000
0000
0000
3100
0000
0000
0000
0001
0000
0000
0000
,
0010
1000
0010
0020
,
0030
2000
0000
0000
3001
0000
0002
0000
,
0003
2000
0000
0000
3100
0000
0000
0000
,
1000
0000
1000
0000
,
0001
0000
0100
0000
,
0010
0010
0010
0000
,
0100
0100
0100
0000
,
0001
0001
0001
0000
,
1000
1000
1000
0000
,
0100
0100
1000
0010
,
0200
0000
0000
0000
,
0000
0000
0000
0000
,
0000
0000
0000
0000
,
0000
0000
0000
0000
,
0000
0000
0000
0000
,
0000
0000
0000
0000
,
0000
0000
0000
0000
,
0000
0000
0000
0000
,
0000
0000
0000
0000
,
0000
0000
0000
0000
,
0000
0000
0000
0000
,
0000
0000
0000
0000
,
0000
0000
0000
0000
,
0000
0000
0000
0000
,
0000
0000
0000
0000
,
0000
0000
0000
0000
,
0000
0000
0300
0000
;

//--------------- dance-single - ----------------
#NOTEDATA:;
#STEPSTYPE:dance-single;
#DESCRIPTION:;
#DIFFICULTY:Easy;
#METER:9;
#RADARVALUES:0.335378,0.648816,0.221607,0.353186,1.045706,339,307,32,51,396,0,0,0,0,0.335378,0.648816,0.221607,0.353186,1.045706,339,307,32,51,396,0,0,0,0;
#DISPLAYBPM:75.000:150.000;
#CHARTNAME:;
#CHARTSTYLE:;
#CREDIT:darkanine;
#NOTES:
0000
0000
0000
0000
,
0000
0000
0000
0000
,
0000
0000
0000
0000
,
1000
1000
0010
0010
0100
0100
0001
0001
,
1000
1000
0001
0001
0100
0100
0100
0000
,
0001
0010
1000
0010
,
0100
0100
1000
1000
,
0001
0100
1000
0100
,
0010
0000
0010
0000
1000
0001
1000
0000
,
0001
0100
1000
0010
,
0001
0001
1000
1000
,
0010
0010
0100
0100
,
0001
0010
1100
0000
,
1000
0020
1000
0000
0130
0000
0001
0020
,
0001
0000
0130
0000
0100
0000
1000
0020
,
0100
0000
1030
0000
0001
0020
0100
0000
,
0031
0100
2200
3300
,
2020
3030
0022
0033
,
0202
0303
1000
1000
,
0001
0001
0010
0100
,
1000
0001
1000
0100
0000
0000
0000
0000
,
0000
0000
1010
1000
0001
0100
0000
0000
,
1100
0000
0001
0100
0020
0000
1030
0000
,
0200
0000
0301
0000
1000
0010
0001
0000
,
0110
0000
1000
0000
0002
0000
0013
1000
,
0020
0000
0130
0000
1000
0001
1000
0000
,
0110
0000
1000
0010
0001
0010
0100
0000
,
0002
0000
0000
0000
0003
0000
0200
0300
0000
0000
0200
0300
0000
0000
0200
0300
,
0010
0000
0110
0000
0001
0000
1000
0100
,
0020
1000
0031
0000
,
0001
0010
0100
0000
1000
0001
1000
0000
,
1000
0010
0100
0000
0001
1000
0001
0000
,
0001
0010
1000
0000
0010
0100
0010
0000
,
1000
0010
0001
0000
2000
0000
3100
0000
,
0010
0010
0100
0100
,
0002
0103
2000
3100
,
0002
0013
2000
3010
,
0100
0000
0001
1000
0100
0010
0100
0000
,
1001
0000
0000
0000
,
1000
0000
0000
0100
0000
0000
0010
0000
0010
0000
0000
0000
,
0001
0000
0000
0100
0000
0000
1000
0000
1000
0000
0000
0000
,
0001
0000
0000
0010
0000
0000
0100
0000
0100
0000
0000
0000
,
0001
0010
1000
0010
,
0001
0100
1000
0100
,
0001
0000
0001
1000
0000
1000
0001
0000
0001
1000
0000
1000
,
0100
0000
0000
0000
0000
0000
1010
0001
,
1100
0001
0110
1000
0002
0103
0011
0100
,
0100
0100
1001
0100
0100
0100
0011
1000
,
0101
0000
0000
1000
0000
0000
0110
0000
0000
0001
0000
0000
0200
0000
0000
0000
0300
0000
1001
0000
0000
1000
0000
0000
,
0010
0000
0000
0001
0000
0000
0010
0000
0000
0000
0010
0000
0100
0000
0000
0000
0100
0000
0001
0000
0000
0000
0000
0000
,
0101
2000
0000
3020
0000
0032
0000
0023
,
0000
0000
0000
2030
0000
0000
0000
3000
0000
0011
0000
0000
1000
0000
0000
1000
0000
0000
1000
0000
0000
0110
0000
0000
,
0001
0001
0001
2100
3010
0002
0000
0023
,
0000
0000
0000
2030
0000
0000
0000
0000
0000
3200
0000
0000
0000
0000
0000
0302
0000
0000
0000
0003
0000
1100
0000
0000
,
0010
0101
1000
0220
0000
0330
0000
2200
,
3300
0001
0202
0000
0000
0000
0300
0000
2000
0000
0003
0000
3001
0000
0100
0000
,
1000
0001
0010
1000
0100
0000
2002
3003
,
0100
0220
0000
0300
2000
0030
0002
3000
,
0203
0020
0000
0300
0130
0000
0000
0000
,
0001
0001
1000
1000
,
0100
0010
0100
0010
,
0001
0100
0001
0000
1000
0100
1000
0000
,
0001
0000
0100
0000
0010
1000
0010
0000
,
1000
0000
0100
0000
0010
0001
0010
0000
,
0001
0100
0010
0000
1000
0100
0010
0000
,
0001
1000
0100
1000
0001
0000
0100
0000
,
0110
0000
0000
0000
0000
0000
0000
0000
0000
0000
0000
0000
0000
0000
0000
0000
0000
0000
0000
0000
0000
0000
0000
0000
0000
0000
0000
0000
0000
0000
0000
0000
0000
0000
0000
0000
0000
0000
0000
0000
0000
0000
0000
0000
0000
0000
0000
0000
M000
0000
0000
0000
0000
0000
M000
0000
0000
0000
0000
0000
M000
0000
0000
0000
0000
0000
M000
0000
0000
0000
0000
0000
M000
0000
0000
0000
0000
0000
0000
0000
M000
0000
0000
0000
0000
0000
0000
0000
0000
0000
M000
0000
0000
0000
0000
0000
0000
0000
0000
0000
M000
0000
0000
0000
0000
0000
0000
0000
0000
0000
0000
0000
0000
0000
M000
0000
0000
0000
0000
0000
0000
0000
0000
0000
0000
0000
0000
0000
M000
0000
0000
0000
0000
0000
0000
0000
0000
0000
0000
0000
0000
0000
0000
0000
M000
0000
0000
0000
0000
0000
0000
0000
0000
0000
0000
0000
0000
0000
0000
M000
0000
0000
0000
0000
0000
0000
0000
0000
0000
0000
0000
0000
0000
0000
0000
0000
0000
M000
0000
0000
0000
0000
0000
0000
0000
0000
0000
0000
0000
0000
0000
0000
,
0000
M000
0000
0000
0000
M000
0000
0000
0000
0000
M000
0000
0000
0000
0000
0000
M000
0000
0000
0000
0000
0000
M000
0000
0000
0000
M000
0000
0000
0000
M000
0000
,
0000
M000
0000
M000
0000
M000
0000
0M00
0000
M000
0000
0M00
0000
M000
0000
0M00
,
0000
M000
0000
0M00
0000
M000
0000
0M00
00M0
M000
0000
0M00
00M0
M000
0000
0M00
,
00M0
M000
0000
0M00
00M0
M000
0000
0M00
00M0
M000
000M
0M00
00M0
M000
000M
0M00
,
00M0
M000
000M
0M00
00M0
M000
000M
0M00
00M0
M000
000M
0M00
00M0
M000
000M
0M00
,
00M0
0000
M000
0000
000M
0000
0M00
0000
00M0
0000
M000
0000
000M
0000
0M00
0000
00M0
M000
000M
0M00
00M0
M000
000M
0M00
00M0
M000
000M
0M00
00M0
M000
000M
0M00
,
00M0
M000
000M
0M00
00M0
M000
000M
0M00
00M0
M000
000M
0M00
00M0
M000
000M
0M00
00M0
M000
000M
0M00
00M0
M000
000M
0M00
00M0
M000
000M
0M00
00M0
M000
000M
0M00
,
00M0
M000
000M
0M00
00M0
M000
000M
0M00
00M0
M000
000M
0M00
00M0
M000
000M
0M00
00M0
M000
000M
0M00
00M0
M000
000M
0M00
00M0
M000
000M
0M00
00M0
M000
000M
0M00
,
00M0
M000
000M
0M00
00M0
M000
000M
0M00
00M0
M000
000M
0M00
00M0
M000
000M
0M00
00M0
M000
000M
0M00
00M0
M000
000M
0M00
00M0
M000
000M
0M00
00M0
M000
000M
0M00
,
00M0
M000
000M
0M00
00M0
M000
000M
0M00
00M0
M000
000M
0M00
00M0
M000
000M
0M00
00M0
M000
000M
0M00
00M0
M000
000M
0M00
00M0
M000
000M
0M00
00M0
M000
000M
0M00
,
00M0
M000
000M
0M00
00M0
M000
000M
0M00
00M0
M000
000M
0M00
00M0
M000
000M
0M00
00M0
M000
000M
0M00
00M0
M000
000M
0M00
00M0
M000
000M
0M00
00M0
M000
000M
0M00
,
00M0
M000
000M
0M00
00M0
M000
000M
0M00
00M0
M000
000M
0M00
00M0
M000
000M
0M00
00M0
M000
000M
0M00
00M0
M000
000M
0M00
00M0
M000
000M
0M00
00M0
M000
000M
0M00
,
00M0
M000
000M
0M00
00M0
M000
000M
0M00
00M0
M000
000M
0M00
00M0
M000
000M
0M00
00M0
M000
000M
0M00
00M0
M000
000M
0M00
00M0
M000
000M
0M00
00M0
M000
000M
0M00
,
00M0
M000
000M
0M00
00M0
M000
000M
0M00
00M0
M000
000M
0M00
00M0
M000
000M
0M00
00M0
M000
000M
0M00
00M0
M000
000M
0M00
00M0
M000
000M
0M00
00M0
M000
000M
0M00
,
00M0
M000
000M
0M00
00M0
M000
000M
0M00
00M0
M000
000M
0M00
00M0
M000
000M
0M00
00M0
M000
000M
0M00
00M0
M000
000M
0M00
00M0
M000
000M
0M00
00M0
M000
000M
0M00
,
00M0
M000
000M
0M00
00M0
M000
000M
0M00
00M0
M000
000M
0M00
00M0
M000
000M
0M00
00M0
M000
000M
0M00
0000
0000
0000
0000
0000
0000
0000
0000
0000
0000
0000
0000
;

//--------------- dance-single - ----------------
#NOTEDATA:;
#STEPSTYPE:dance-single;
#DESCRIPTION:;
#DIFFICULTY:Medium;
#METER:13;
#RADARVALUES:0.504551,0.846282,0.145429,0.207756,1.395429,510,489,21,30,396,0,0,0,0,0.504551,0.846282,0.145429,0.207756,1.395429,510,489,21,30,396,0,0,0,0;
#DISPLAYBPM:75.000:150.000;
#CHARTNAME:;
#CHARTSTYLE:;
#CREDIT:darkanine;
#NOTES:
0000
0000
0000
0000
,
0000
0000
0000
0000
,
0000
0000
0000
0000
,
1000
1000
1000
1000
0001
0001
0100
0100
,
0010
0010
0010
0010
1000
1000
0100
0000
,
1000
0010
1000
0000
0001
0100
0001
0000
,
1000
0100
0010
0000
0010
0100
1000
0000
,
0001
0100
0010
0000
0010
0100
0001
0000
,
1000
0100
0001
0000
0001
0100
1000
0000
,
0001
0100
0100
0000
0001
0010
0010
0000
,
0100
1000
1000
0000
0010
0100
0100
0000
,
0001
0010
0001
0100
0010
1000
0001
0000
,
0100
1000
0100
0001
0020
0000
0130
0000
,
1000
0010
0100
0010
1000
1000
0001
0010
,
0100
0010
0001
0001
0100
0010
1000
0001
,
0010
0001
0100
0100
0001
1000
0100
1000
,
0001
0001
0010
0000
2002
0000
3003
1000
,
2020
0000
3030
0010
0220
0000
0330
0100
,
0202
0000
0303
0001
1000
0100
0001
0100
,
1000
1000
0010
0010
0100
0001
0010
0100
,
1000
0000
1000
0000
0001
0100
0001
0000
0000
0000
0000
0000
0000
0000
0000
0000
,
0000
0000
1001
0100
0010
0100
0000
0000
,
1000
0001
0010
0100
0010
0001
0001
1000
,
0020
0000
0000
0000
0031
0000
0010
0000
0100
0000
0000
0010
1000
0000
0001
0000
,
0010
0000
0100
1000
0100
0000
1000
0000
0200
0000
0000
0000
0301
0000
1000
0000
,
0010
0000
0000
0010
0001
0000
1000
0000
0010
0000
0100
0000
0110
0000
0000
0000
,
0001
0100
0010
1000
0100
0010
0010
0001
,
0200
0000
0000
0000
1300
0000
0200
0300
0000
0000
0200
0300
0000
0000
0200
0300
,
0001
0000
1000
0010
0100
0000
0001
0000
0020
0000
0000
0000
1030
0000
0001
0000
,
0100
1000
0100
1000
0001
0100
0101
0000
,
1000
0010
0001
1000
0100
0010
0100
1000
,
0001
0010
1000
0001
0010
0100
1000
0001
,
0100
0001
0010
1000
0001
0100
1000
0100
,
0001
1000
0010
0001
1000
0000
1001
0000
,
0001
0100
0010
1000
0100
1000
0010
0100
,
0001
0010
0100
0010
0001
0100
0010
0100
,
0001
0010
1000
0010
0100
1000
0001
1000
,
0010
0000
0110
0100
0002
0010
1003
0000
,
1100
0000
0000
0000
,
0001
0000
0001
0100
0000
0100
0010
0000
1000
0000
0000
0000
,
1000
0000
1000
0100
0000
0100
0010
0000
0100
0000
0000
0000
,
0100
0000
0100
0010
0000
0010
0001
0000
1000
0000
0000
0000
,
1000
0000
0100
1000
0100
1000
0001
0000
0010
0001
0010
0001
,
0100
0000
0001
0100
0001
0100
0010
0000
1000
0010
1000
0010
,
1000
0100
1000
0001
0010
0001
0100
0001
0100
0010
1000
0010
,
0100
0000
0000
0000
0000
0000
0000
0000
0000
0000
0000
0000
0000
0000
0000
0000
0000
0000
0011
0000
0000
0001
0000
1000
,
0010
0000
0000
1000
0000
0001
0100
0000
0000
0001
0000
1000
0200
0000
0000
0310
0000
0000
0001
0000
0000
0010
0000
0010
,
0001
0000
0001
0100
0000
0100
1000
0000
0000
0001
0000
0001
0010
0000
0010
1000
0000
0001
1000
0000
0000
0100
0000
0100
,
1000
0000
0000
0010
0000
0010
1000
0000
0000
0100
0000
0100
0010
0000
0010
0000
0010
0000
0001
0000
0000
0100
0000
1000
,
0100
0000
0001
0010
0000
1000
0010
0000
0010
0000
0001
0000
1000
0000
1000
0000
0010
0000
0200
0000
0000
0310
0000
1000
,
0001
0000
0000
0100
0000
0010
0000
1000
0000
0010
0000
0100
0000
0001
0000
0010
0000
0001
0000
1000
0000
0100
0000
0010
,
0000
0001
0000
0100
0000
0010
0000
0100
0000
0001
0000
0000
0010
0000
0010
0001
0000
0001
0100
0000
0100
1000
0000
0000
,
0001
0000
0001
0010
0000
0010
1000
0000
1000
0002
0000
0000
0103
0000
0000
0010
0000
1000
0000
0100
0000
0010
0000
0001
,
0000
0100
0000
0010
0000
1000
0000
0100
0000
0010
0000
0001
0000
0010
0000
0100
0000
0010
0000
0100
0000
1000
0000
0000
,
1010
0000
0100
0001
0000
1000
0100
0000
0010
0002
0000
0000
0000
0000
0000
0000
0000
0000
0003
0000
0000
2020
0000
0000
,
3030
0100
0022
0000
0000
0000
0030
0000
2000
0000
0003
0000
3100
0010
0001
0010
,
0100
1000
0010
0100
0001
0100
0010
1000
0100
0000
1000
0000
0220
0000
0330
0000
,
0001
2200
0000
0300
0002
3000
0200
0003
,
0320
2000
0000
0030
0002
3000
0103
0000
,
0001
0010
0100
0010
0001
0100
0010
0100
,
0001
0010
1000
0010
0001
0100
1000
0100
,
0001
1000
0010
0001
1000
0100
0001
1000
,
0100
0000
0010
0000
0001
0000
0000
0100
0000
0000
0010
0000
1000
0000
0000
0100
,
0000
0000
0001
0000
0001
0000
0000
0100
0000
0000
1000
0000
1000
0000
0000
0010
,
0000
0000
0100
0001
0100
0000
0000
0010
0000
0000
1000
0100
1000
0000
0000
0001
,
0000
0000
0100
0010
0100
0000
0000
0001
0000
0000
0010
0000
0100
1000
0001
1000
,
0010
0000
0000
0000
0000
0000
0000
0000
0000
0000
0000
0000
0000
0000
0000
0000
0000
0000
0000
0000
0000
0000
0000
0000
0000
0000
0000
0000
0000
0000
0000
0000
0000
0000
0000
0000
0000
0000
0000
0000
0000
0000
0000
0000
0000
0000
0000
0000
000M
0000
0000
0000
0000
0000
000M
0000
0000
0000
0000
0000
000M
0000
0000
0000
0000
0000
000M
0000
0000
0000
0000
0000
000M
0000
0000
0000
0000
0000
0000
0000
000M
0000
0000
0000
0000
0000
0000
0000
0000
0000
000M
0000
0000
0000
0000
0000
0000
0000
0000
0000
000M
0000
0000
0000
0000
0000
0000
0000
0000
0000
0000
0000
0000
0000
000M
0000
0000
0000
0000
0000
0000
0000
0000
0000
0000
0000
0000
0000
000M
0000
0000
0000
0000
0000
0000
0000
0000
0000
0000
0000
0000
0000
0000
0000
000M
0000
0000
0000
0000
0000
0000
0000
0000
0000
0000
0000
0000
0000
0000
000M
0000
0000
0000
0000
0000
0000
0000
0000
0000
0000
0000
0000
0000
0000
0000
0000
0000
000M
0000
0000
0000
0000
0000
0000
0000
0000
0000
0000
0000
0000
0000
0000
,
0000
000M
0000
0000
0000
000M
0000
0000
0000
0000
000M
0000
0000
0000
0000
0000
000M
0000
0000
0000
0000
0000
000M
0000
0000
0000
000M
0000
0000
0000
000M
0000
,
0000
000M
0000
000M
0000
000M
0000
00M0
0000
000M
0000
00M0
0000
000M
0000
00M0
,
0000
000M
0000
00M0
0000
000M
0000
00M0
0M00
000M
0000
00M0
0M00
000M
0000
00M0
,
0M00
000M
0000
00M0
0M00
000M
0000
00M0
0M00
000M
M000
00M0
0M00
000M
M000
00M0
,
0M00
000M
M000
00M0
0M00
000M
M000
00M0
0M00
000M
M000
00M0
0M00
000M
M000
00M0
,
0M00
0000
000M
0000
M000
0000
00M0
0000
0M00
0000
000M
0000
M000
0000
00M0
0000
0M00
000M
M000
00M0
0M00
000M
M000
00M0
0M00
000M
M000
00M0
0M00
000M
M000
00M0
,
0M00
000M
M000
00M0
0M00
000M
M000
00M0
0M00
000M
M000
00M0
0M00
000M
M000
00M0
0M00
000M
M000
00M0
0M00
000M
M000
00M0
0M00
000M
M000
00M0
0M00
000M
M000
00M0
,
0M00
000M
M000
00M0
0M00
000M
M000
00M0
0M00
000M
M000
00M0
0M00
000M
M000
00M0
0M00
000M
M000
00M0
0M00
000M
M000
00M0
0M00
000M
M000
00M0
0M00
000M
M000
00M0
,
0M00
000M
M000
00M0
0M00
000M
M000
00M0
0M00
000M
M000
00M0
0M00
000M
M000
00M0
0M00
000M
M000
00M0
0M00
000M
M000
00M0
0M00
000M
M000
00M0
0M00
000M
M000
00M0
,
0M00
000M
M000
00M0
0M00
000M
M000
00M0
0M00
000M
M000
00M0
0M00
000M
M000
00M0
0M00
000M
M000
00M0
0M00
000M
M000
00M0
0M00
000M
M000
00M0
0M00
000M
M000
00M0
,
0M00
000M
M000
00M0
0M00
000M
M000
00M0
0M00
000M
M000
00M0
0M00
000M
M000
00M0
0M00
000M
M000
00M0
0M00
000M
M000
00M0
0M00
000M
M000
00M0
0M00
000M
M000
00M0
,
0M00
000M
M000
00M0
0M00
000M
M000
00M0
0M00
000M
M000
00M0
0M00
000M
M000
00M0
0M00
000M
M000
00M0
0M00
000M
M000
00M0
0M00
000M
M000
00M0
0M00
000M
M000
00M0
,
0M00
000M
M000
00M0
0M00
000M
M000
00M0
0M00
000M
M000
00M0
0M00
000M
M000
00M0
0M00
000M
M000
00M0
0M00
000M
M000
00M0
0M00
000M
M000
00M0
0M00
000M
M000
00M0
,
0M00
000M
M000
00M0
0M00
000M
M000
00M0
0M00
000M
M000
00M0
0M00
000M
M000
00M0
0M00
000M
M000
00M0
0M00
000M
M000
00M0
0M00
000M
M000
00M0
0M00
000M
M000
00M0
,
0M00
000M
M000
00M0
0M00
000M
M000
00M0
0M00
000M
M000
00M0
0M00
000M
M000
00M0
0M00
000M
M000
00M0
0M00
000M
M000
00M0
0M00
000M
M000
00M0
0M00
000M
M000
00M0
,
0M00
000M
M000
00M0
0M00
000M
M000
00M0
0M00
000M
M000
00M0
0M00
000M
M000
00M0
0M00
000M
M000
00M0
0000
0000
0000
0000
0000
0000
0000
0000
0000
0000
0000
0000
;

//--------------- dance-single - ----------------
#NOTEDATA:;
#STEPSTYPE:dance-single;
#DESCRIPTION:;
#DIFFICULTY:Hard;
#METER:15;
#RADARVALUES:0.573803,1.043748,0.214681,0.290859,1.610111,580,549,31,42,396,0,0,0,0,0.573803,1.043748,0.214681,0.290859,1.610111,580,549,31,42,396,0,0,0,0;
#DISPLAYBPM:75.000:150.000;
#CHARTNAME:;
#CHARTSTYLE:;
#CREDIT:darkanine;
#NOTES:
0000
0000
0000
0000
,
0000
0000
0000
0000
,
0000
0000
0000
0000
,
1000
1000
1000
1000
0010
0010
0100
0100
,
0001
0001
0001
0001
0010
0010
0100
0000
,
1000
0000
0100
0010
0001
0000
0000
1000
0001
0000
0100
0010
1000
0000
0000
0100
,
0010
0000
0001
0010
0100
0000
0000
0100
1000
0000
1000
0010
0100
0000
0000
0100
,
0001
0000
0010
0100
0010
0000
0000
0010
0001
0000
0001
0100
0010
0000
0000
0010
,
1000
0000
0010
1000
0010
0000
0000
0100
0001
0000
0010
0001
1000
0010
0000
0100
,
0001
0000
1000
0010
0100
0000
0000
0100
0001
0000
1000
0100
0010
0000
0000
0010
,
0001
0000
1000
0010
1000
0000
0000
0001
0100
0000
0010
1000
0010
0000
0000
0100
,
0001
0000
0010
0100
0010
0000
0000
0001
1000
0000
0010
0100
0010
0000
0000
0100
,
0001
0001
1000
0001
1100
0000
0000
0000
,
1000
0000
0010
0000
0100
0000
0010
0000
1000
0001
1000
0000
0001
0000
0010
0000
,
0100
0000
0010
0000
0001
1000
0001
0000
0100
0000
0010
0000
1000
0000
0010
0000
,
0001
0000
0010
0000
1000
0001
1000
0000
0001
0000
0010
0000
1000
0000
0010
0000
,
0001
1000
0001
0000
0010
0000
0000
0000
2200
0000
0000
0000
3300
0000
1000
0000
,
2020
0000
3030
0010
0022
0000
0033
0001
,
0202
0000
0303
0100
1000
1000
0001
0001
,
1000
0010
0100
0001
1000
0100
0010
0001
1000
0010
0100
0010
1000
0001
0100
0001
,
1000
1000
1000
0100
0000
0000
0000
0000
,
0000
0000
0011
0001
1000
1100
0000
0000
,
1000
0000
0100
0000
0100
0000
0001
0000
1000
0000
0010
0100
0010
0000
0100
0000
,
0201
0000
0000
0000
1300
0000
0001
0000
0010
0100
0000
1000
0010
0000
0100
0000
,
0101
0000
0100
1000
0100
0000
0010
0000
0200
0000
0000
0301
0010
0000
0100
0000
,
1000
0000
0000
1000
0100
0000
0010
0000
0001
0000
0100
0000
0010
0000
0000
0000
,
0110
0000
0001
0000
1000
0000
0010
0000
0010
0000
0001
0010
0100
0000
0010
0000
,
0021
0000
0000
0000
1030
0000
0200
0300
0010
0000
0200
0300
0010
0000
0200
0300
,
1000
0000
0001
0100
0010
0000
1000
0000
1100
0000
0000
0000
0101
0000
0001
0000
,
0010
0001
0100
0001
2000
0001
3100
0000
,
0001
0010
0010
1000
0001
0100
0100
1000
,
0010
0100
0100
1000
0001
0010
0010
1000
,
0100
1000
0010
0100
0001
0010
1000
0010
,
0100
0010
0001
1000
0002
0000
0103
0000
,
1000
0000
0010
0100
0001
0000
1000
0001
0100
0000
0010
1000
0001
0000
0010
0100
,
1000
0000
0100
0010
0100
0000
1000
0100
0010
0000
0100
0010
0001
0000
1000
0010
,
0100
0000
0010
1000
0001
0000
0100
0001
0100
0000
0001
1000
0100
0000
0010
0100
,
0020
0000
0130
0110
0010
0100
1000
0000
,
1001
0000
0000
0000
,
1000
0000
0100
0010
0000
0001
1000
0000
0001
0000
0000
0000
,
0001
0000
0010
0100
0000
1000
0010
0000
0100
0000
0000
0000
,
0100
0000
0010
0100
0000
0001
1000
0000
0001
0000
0000
0000
,
0001
0000
1000
0100
1000
0010
1000
0000
0010
0100
0001
0010
,
0001
0000
0010
0100
1000
0010
0100
0000
0001
0010
0100
1000
,
0100
0001
0100
0010
1000
0010
0001
1000
0001
0100
0010
0100
,
0001
0000
0000
0000
0000
0000
0000
0000
0000
0000
0000
0000
0000
0000
0000
0000
0000
0000
1100
0000
0000
0010
0000
0010
,
0101
0000
0000
0010
0000
0010
1100
0000
0000
0001
0000
0001
2000
0000
0000
0100
0000
0000
3020
0000
0000
1030
0100
0010
,
0001
0100
0010
1000
0100
0010
2000
0000
0000
3010
0100
1000
0010
0100
0001
0010
0100
1000
0001
0000
0000
0100
0000
0100
,
1010
0000
0000
0100
0000
0100
0011
0000
0000
1000
0000
1000
0001
0000
0110
0000
0011
0000
2000
0000
0000
3001
0100
1000
,
0001
0010
1000
0001
0100
0010
1000
0000
1000
0000
0100
0000
0001
0000
0001
0000
0010
0000
2100
0000
0000
3010
1000
0100
,
0020
0000
0000
0031
0000
0010
0000
0001
0000
0010
0000
0100
0000
0010
0000
0100
0000
1000
0000
0100
0000
0010
0000
0001
,
0000
0100
0000
0010
0000
0000
0000
1000
0000
0202
0000
0303
1000
0000
0100
0010
0000
0001
0100
0000
0010
2200
0000
3300
,
0001
0000
0010
1000
0000
0000
0010
0000
0000
0101
0000
0000
1000
0000
0000
0010
0000
1000
0000
0100
0000
0010
0000
0001
,
0000
0100
0000
0010
0000
1000
0000
0100
0000
0010
0000
0100
0000
1000
0000
0001
0000
0000
0000
0100
0000
0010
0000
0000
,
0100
1100
0001
0020
0000
0030
0000
2200
,
3300
0010
0202
0000
0000
0000
0003
0000
0020
0000
0300
0000
1030
0010
0100
0010
,
1000
0100
0010
0001
0010
0100
0010
0002
1000
0000
0103
0000
0022
0000
0030
0000
,
0103
2020
0000
0030
0002
3000
0200
0300
,
0100
0020
0000
0003
0130
0000
0000
0000
,
1000
0100
0010
0010
1000
0001
0100
0100
,
1000
0010
0100
1000
0100
0001
2000
0000
,
3001
0000
0010
0000
0100
0000
0000
0010
0000
0000
0001
0000
1000
0000
0000
0010
,
0000
0000
0100
0010
1000
0000
0000
0100
0010
0000
0001
1000
0010
0000
0000
0100
,
0001
0100
0010
1000
0010
0000
0000
1000
0100
0010
0001
0010
0001
0000
0000
1000
,
0010
0100
0010
1000
0001
0000
1000
0100
0010
0001
1000
0010
0100
0000
0001
1000
,
0100
0010
0100
1000
0010
0100
0001
1000
0010
0100
0010
1000
0100
0000
0000
0000
,
1001
0000
0000
0000
0000
0000
0000
0000
0000
0000
0000
0000
0000
0000
0000
0000
0000
0000
0000
0000
0000
0000
0000
0000
0000
0000
0000
0000
0000
0000
0000
0000
0000
0000
0000
0000
0000
0000
0000
0000
0000
0000
0000
0000
0000
0000
0000
0000
0M00
0000
0000
0000
0000
0000
0M00
0000
0000
0000
0000
0000
0M00
0000
0000
0000
0000
0000
0M00
0000
0000
0000
0000
0000
0M00
0000
0000
0000
0000
0000
0000
0000
0M00
0000
0000
0000
0000
0000
0000
0000
0000
0000
0M00
0000
0000
0000
0000
0000
0000
0000
0000
0000
0M00
0000
0000
0000
0000
0000
0000
0000
0000
0000
0000
0000
0000
0000
0M00
0000
0000
0000
0000
0000
0000
0000
0000
0000
0000
0000
0000
0000
0M00
0000
0000
0000
0000
0000
0000
0000
0000
0000
0000
0000
0000
0000
0000
0000
0M00
0000
0000
0000
0000
0000
0000
0000
0000
0000
0000
0000
0000
0000
0000
0M00
0000
0000
0000
0000
0000
0000
0000
0000
0000
0000
0000
0000
0000
0000
0000
0000
0000
0M00
0000
0000
0000
0000
0000
0000
0000
0000
0000
0000
0000
0000
0000
0000
,
0000
0M00
0000
0000
0000
0M00
0000
0000
0000
0000
0M00
0000
0000
0000
0000
0000
0M00
0000
0000
0000
0000
0000
0M00
0000
0000
0000
0M00
0000
0000
0000
0M00
0000
,
0000
0M00
0000
0M00
0000
0M00
0000
00M0
0000
0M00
0000
00M0
0000
0M00
0000
00M0
,
0000
0M00
0000
00M0
0000
0M00
0000
00M0
000M
0M00
0000
00M0
000M
0M00
0000
00M0
,
000M
0M00
0000
00M0
000M
0M00
0000
00M0
000M
0M00
M000
00M0
000M
0M00
M000
00M0
,
000M
0M00
M000
00M0
000M
0M00
M000
00M0
000M
0M00
M000
00M0
000M
0M00
M000
00M0
,
000M
0000
0M00
0000
M000
0000
00M0
0000
000M
0000
0M00
0000
M000
0000
00M0
0000
000M
0M00
M000
00M0
000M
0M00
M000
00M0
000M
0M00
M000
00M0
000M
0M00
M000
00M0
,
000M
0M00
M000
00M0
000M
0M00
M000
00M0
000M
0M00
M000
00M0
000M
0M00
M000
00M0
000M
0M00
M000
00M0
000M
0M00
M000
00M0
000M
0M00
M000
00M0
000M
0M00
M000
00M0
,
000M
0M00
M000
00M0
000M
0M00
M000
00M0
000M
0M00
M000
00M0
000M
0M00
M000
00M0
000M
0M00
M000
00M0
000M
0M00
M000
00M0
000M
0M00
M000
00M0
000M
0M00
M000
00M0
,
000M
0M00
M000
00M0
000M
0M00
M000
00M0
000M
0M00
M000
00M0
000M
0M00
M000
00M0
000M
0M00
M000
00M0
000M
0M00
M000
00M0
000M
0M00
M000
00M0
000M
0M00
M000
00M0
,
000M
0M00
M000
00M0
000M
0M00
M000
00M0
000M
0M00
M000
00M0
000M
0M00
M000
00M0
000M
0M00
M000
00M0
000M
0M00
M000
00M0
000M
0M00
M000
00M0
000M
0M00
M000
00M0
,
000M
0M00
M000
00M0
000M
0M00
M000
00M0
000M
0M00
M000
00M0
000M
0M00
M000
00M0
000M
0M00
M000
00M0
000M
0M00
M000
00M0
000M
0M00
M000
00M0
000M
0M00
M000
00M0
,
000M
0M00
M000
00M0
000M
0M00
M000
00M0
000M
0M00
M000
00M0
000M
0M00
M000
00M0
000M
0M00
M000
00M0
000M
0M00
M000
00M0
000M
0M00
M000
00M0
000M
0M00
M000
00M0
,
000M
0M00
M000
00M0
000M
0M00
M000
00M0
000M
0M00
M000
00M0
000M
0M00
M000
00M0
000M
0M00
M000
00M0
000M
0M00
M000
00M0
000M
0M00
M000
00M0
000M
0M00
M000
00M0
,
000M
0M00
M000
00M0
000M
0M00
M000
00M0
000M
0M00
M000
00M0
000M
0M00
M000
00M0
000M
0M00
M000
00M0
000M
0M00
M000
00M0
000M
0M00
M000
00M0
000M
0M00
M000
00M0
,
000M
0M00
M000
00M0
000M
0M00
M000
00M0
000M
0M00
M000
00M0
000M
0M00
M000
00M0
000M
0M00
M000
00M0
000M
0M00
M000
00M0
000M
0M00
M000
00M0
000M
0M00
M000
00M0
,
000M
0M00
M000
00M0
000M
0M00
M000
00M0
000M
0M00
M000
00M0
000M
0M00
M000
00M0
000M
0M00
M000
00M0
0000
0000
0000
0000
0000
0000
0000
0000
0000
0000
0000
0000
;

//--------------- dance-single - ----------------
#NOTEDATA:;
#STEPSTYPE:dance-single;
#DESCRIPTION:;
#DIFFICULTY:Challenge;
#METER:17;
#RADARVALUES:0.641076,1.156585,0.200831,0.17313,1.74169,648,619,29,25,396,0,0,0,0,0.641076,1.156585,0.200831,0.17313,1.74169,648,619,29,25,396,0,0,0,0;
#DISPLAYBPM:75.000:150.000;
#CHARTNAME:;
#CHARTSTYLE:;
#CREDIT:darkanine;
#NOTES:
0000
0000
0000
0000
,
0000
0000
0000
0000
,
0000
0000
0000
0000
,
1000
1000
0010
0010
0100
1000
0100
0001
,
0010
0010
0100
0100
0001
0100
1000
0000
,
1000
0000
0001
0010
0100
0000
0100
1000
0001
0000
0001
0100
0010
0000
0010
1000
,
0001
0000
0010
0100
0010
0000
0001
1000
0001
0000
0100
0010
0100
0000
0001
1000
,
0001
0000
1000
0010
0100
0000
0100
0001
1000
0000
1000
0100
0010
0000
0010
0001
,
1000
0000
0010
0100
0010
0000
1000
0100
1000
0000
0010
0100
0001
0010
0000
0100
,
1000
0000
1000
0100
0010
0000
0010
0100
1000
0000
1000
0010
0100
0000
0100
0010
,
1000
0000
0010
0100
0010
0000
1000
0100
1000
0000
0001
0010
0001
0000
0100
0010
,
0100
0000
0001
0010
1000
0000
1000
0010
0100
0000
0100
1000
0010
0000
0010
0100
,
0001
0000
0001
0000
1000
0000
0001
0000
0010
0001
0000
1000
0100
1000
0000
0000
,
0001
0000
0100
0000
1000
0000
0100
0000
0010
0100
0010
0000
1000
0000
0100
0000
,
0001
0000
0100
0000
0010
0100
0010
0000
1000
0000
0010
0000
0001
0000
0100
0000
,
1000
0000
0100
0000
0010
1000
0010
0000
1000
0000
0100
0000
0001
0000
0100
0000
,
0010
0001
0010
0000
0100
0000
0000
0000
1100
0000
0100
0000
0000
0000
0001
0000
,
0101
0001
0000
0010
0011
0010
0000
1000
,
1010
1000
0000
1000
0100
0100
0010
0010
,
0001
1000
0001
0100
0010
0100
0001
1000
0100
0010
0001
1000
0010
0100
0001
1000
,
0001
0010
0001
0100
0010
1000
0100
0000
0000
0000
0000
0000
0000
0000
0000
0000
,
0000
0000
0000
0000
0000
0000
1001
0000
0000
0001
0010
0001
1000
0000
0000
0100
0000
0000
0000
0000
0000
0000
0000
0000
,
1000
0000
0010
0000
0010
0000
0100
0000
1000
0000
0001
0010
0100
0010
0001
0000
,
0020
0000
0000
0000
1030
0000
0001
0000
1000
0100
0000
0100
0001
0000
1000
0000
,
0110
0000
0100
0010
1000
0000
0010
0000
0002
0000
0000
0000
0103
0000
0010
0000
,
1000
0000
0000
1000
0100
0000
0010
0000
0001
0000
0001
0000
1000
0000
0000
0000
,
0010
0000
0100
0000
0100
0000
1000
0000
0001
0000
0010
1000
0010
0001
0010
0000
,
0200
0000
0000
0000
0301
0000
0200
0300
1000
0000
0200
0300
0001
0000
2000
3000
,
0100
0000
0010
0100
1000
0000
0010
0000
0200
0000
0001
0000
0310
0000
2000
0000
,
0100
3001
1001
0100
0010
0100
0110
0000
,
0001
0100
0100
1000
0100
0100
0010
0001
,
0001
0010
1000
1000
0100
0010
0002
0100
,
1003
0100
0010
0001
0100
0010
0001
0020
,
1000
0130
0001
1000
0200
0000
1300
0000
,
0001
0000
0100
0001
1000
0000
0010
0100
0010
0000
0001
0010
1000
0000
0001
1000
,
0001
0000
0100
0010
0100
0000
0001
1000
0001
0000
0010
0100
0010
0000
0100
1000
,
0001
0000
0100
0010
1000
0001
0010
0100
1000
0000
0001
0100
0010
1000
0100
0010
,
0001
0000
0100
0001
1000
0100
0010
1000
0010
0001
1000
0010
0100
0000
0000
0000
,
0101
0000
0000
0000
,
1000
0000
1000
0100
0000
0100
0010
0000
0110
0000
0000
0000
,
0001
0000
0001
0100
0000
0100
1000
0000
1001
0000
0000
0000
,
0001
0000
0001
0010
0000
0010
1000
0000
1001
0000
0000
0000
,
1000
0100
0010
0001
0010
0100
1000
0010
0100
0001
0100
0010
,
1000
0100
0001
0100
1000
0010
1000
0100
0001
0100
0010
0001
,
0010
0100
1000
0010
0100
1000
0001
0010
0100
0001
0010
0100
,
0000
0000
0000
0000
0000
0000
0000
0000
0000
0000
0000
0000
0000
0000
0000
0000
0000
0000
0101
0000
0000
0010
0000
0010
,
1100
0000
0000
0000
0000
0000
0001
0000
0000
0000
0001
0000
0110
0000
0000
0000
0000
0000
1000
0000
0000
0000
1000
0000
0001
0000
0000
0000
0010
0100
0010
0000
0001
0000
1000
0000
1010
0000
0000
0000
0000
0000
0001
0000
0100
0000
1000
0000
,
0001
0010
1000
0001
0010
1000
0002
0000
0000
1003
0010
0001
1000
0100
0001
1000
0010
0001
0100
0000
0000
0010
0000
1000
,
1100
0000
0000
0010
0000
0001
0101
0000
0000
0010
0000
1000
0110
0000
1010
0000
0011
0000
1001
0000
0000
0001
0100
1000
,
0001
0010
1000
0100
0001
1000
0010
0000
0010
0000
0010
0000
0100
0000
0100
0000
0100
0000
1001
0000
0000
0001
0100
0010
,
1010
0000
0000
1000
0000
0010
0000
0100
0000
0001
0000
0010
0000
0100
0000
1000
0000
0010
0000
0100
0000
0001
0000
0010
,
0000
1000
0000
0010
0000
0001
0000
0100
0000
0020
0000
0000
1030
0000
0100
0001
0000
0100
1000
0000
0001
0020
0000
0000
,
0031
0000
0100
1000
0000
0100
0001
0000
0100
0010
0000
0000
1000
0000
0000
0001
0000
0010
0000
1000
0000
0001
0000
0100
,
0000
1000
0000
0001
0000
0100
0000
1000
0000
0001
0000
0010
0000
1000
0000
0001
0000
0010
0000
0100
0000
1000
0000
1000
,
0010
0000
0010
0001
0000
0001
0100
0000
0100
2000
0000
0000
0000
0000
0000
0000
0000
0000
3000
0000
0000
2002
0000
0000
,
3003
0100
0022
0000
0000
0000
0030
0000
0200
0000
0003
0000
0310
1000
0010
0100
,
0001
0000
0000
1000
0000
0000
0100
0000
0000
0010
0000
0000
0001
0000
0000
0010
0000
0000
0100
0000
0000
1000
0100
1000
0001
0000
0000
0000
0000
0000
0100
0000
0000
0000
0000
0000
2020
0000
0000
0000
0000
0000
0030
0000
0000
0000
0000
0000
,
3001
0202
0000
0003
2000
0300
0002
3000
,
0023
2000
0000
0030
3001
0000
0000
0000
,
0001
0010
0010
1000
0001
0100
1000
1000
,
0001
0010
1000
0010
0001
0100
1000
0100
,
0010
0001
0001
1000
0100
0010
0010
1000
,
0001
0000
0100
0010
1000
0000
0100
0010
0001
0000
1000
0010
0100
0000
0001
0010
,
0100
1000
0100
0010
0001
0000
1000
0010
0100
0010
1000
0001
0100
0000
0010
1000
,
0001
0010
0001
1000
0010
0100
0010
0001
0010
0100
0001
1000
0100
0010
1000
0010
,
0100
1000
0100
0010
0001
1000
0010
0100
1000
0100
0010
1000
0100
0010
1000
0010
,
0001
0000
0000
0000
0000
0000
0000
0000
0000
0000
0000
0000
0000
0000
0000
0000
0000
0000
0000
0000
0000
0000
0000
0000
0000
0000
0000
0000
0000
0000
0000
0000
0000
0000
0000
0000
0000
0000
0000
0000
0000
0000
0000
0000
0000
0000
0000
0000
00M0
0000
0000
0000
0000
0000
00M0
0000
0000
0000
0000
0000
00M0
0000
0000
0000
0000
0000
00M0
0000
0000
0000
0000
0000
00M0
0000
0000
0000
0000
0000
0000
0000
00M0
0000
0000
0000
0000
0000
0000
0000
0000
0000
00M0
0000
0000
0000
0000
0000
0000
0000
0000
0000
00M0
0000
0000
0000
0000
0000
0000
0000
0000
0000
0000
0000
0000
0000
00M0
0000
0000
0000
0000
0000
0000
0000
0000
0000
0000
0000
0000
0000
00M0
0000
0000
0000
0000
0000
0000
0000
0000
0000
0000
0000
0000
0000
0000
0000
00M0
0000
0000
0000
0000
0000
0000
0000
0000
0000
0000
0000
0000
0000
0000
00M0
0000
0000
0000
0000
0000
0000
0000
0000
0000
0000
0000
0000
0000
0000
0000
0000
0000
00M0
0000
0000
0000
0000
0000
0000
0000
0000
0000
0000
0000
0000
0000
0000
,
0000
00M0
0000
0000
0000
00M0
0000
0000
0000
0000
00M0
0000
0000
0000
0000
0000
00M0
0000
0000
0000
0000
0000
00M0
0000
0000
0000
00M0
0000
0000
0000
00M0
0000
,
0000
00M0
0000
00M0
0000
00M0
0000
0M00
0000
00M0
0000
0M00
0000
00M0
0000
0M00
,
0000
00M0
0000
0M00
0000
00M0
0000
0M00
M000
00M0
0000
0M00
M000
00M0
0000
0M00
,
M000
00M0
0000
0M00
M000
00M0
0000
0M00
M000
00M0
000M
0M00
M000
00M0
000M
0M00
,
M000
00M0
000M
0M00
M000
00M0
000M
0M00
M000
00M0
000M
0M00
M000
00M0
000M
0M00
,
M000
0000
00M0
0000
000M
0000
0M00
0000
M000
0000
00M0
0000
000M
0000
0M00
0000
M000
00M0
000M
0M00
M000
00M0
000M
0M00
M000
00M0
000M
0M00
M000
00M0
000M
0M00
,
M000
00M0
000M
0M00
M000
00M0
000M
0M00
M000
00M0
000M
0M00
M000
00M0
000M
0M00
M000
00M0
000M
0M00
M000
00M0
000M
0M00
M000
00M0
000M
0M00
M000
00M0
000M
0M00
,
M000
00M0
000M
0M00
M000
00M0
000M
0M00
M000
00M0
000M
0M00
M000
00M0
000M
0M00
M000
00M0
000M
0M00
M000
00M0
000M
0M00
M000
00M0
000M
0M00
M000
00M0
000M
0M00
,
M000
00M0
000M
0M00
M000
00M0
000M
0M00
M000
00M0
000M
0M00
M000
00M0
000M
0M00
M000
00M0
000M
0M00
M000
00M0
000M
0M00
M000
00M0
000M
0M00
M000
00M0
000M
0M00
,
M000
00M0
000M
0M00
M000
00M0
000M
0M00
M000
00M0
000M
0M00
M000
00M0
000M
0M00
M000
00M0
000M
0M00
M000
00M0
000M
0M00
M000
00M0
000M
0M00
M000
00M0
000M
0M00
,
M000
00M0
000M
0M00
M000
00M0
000M
0M00
M000
00M0
000M
0M00
M000
00M0
000M
0M00
M000
00M0
000M
0M00
M000
00M0
000M
0M00
M000
00M0
000M
0M00
M000
00M0
000M
0M00
,
M000
00M0
000M
0M00
M000
00M0
000M
0M00
M000
00M0
000M
0M00
M000
00M0
000M
0M00
M000
00M0
000M
0M00
M000
00M0
000M
0M00
M000
00M0
000M
0M00
M000
00M0
000M
0M00
,
M000
00M0
000M
0M00
M000
00M0
000M
0M00
M000
00M0
000M
0M00
M000
00M0
000M
0M00
M000
00M0
000M
0M00
M000
00M0
000M
0M00
M000
00M0
000M
0M00
M000
00M0
000M
0M00
,
M000
00M0
000M
0M00
M000
00M0
000M
0M00
M000
00M0
000M
0M00
M000
00M0
000M
0M00
M000
00M0
000M
0M00
M000
00M0
000M
0M00
M000
00M0
000M
0M00
M000
00M0
000M
0M00
,
M000
00M0
000M
0M00
M000
00M0
000M
0M00
M000
00M0
000M
0M00
M000
00M0
000M
0M00
M000
00M0
000M
0M00
M000
00M0
000M
0M00
M000
00M0
000M
0M00
M000
00M0
000M
0M00
,
M000
00M0
000M
0M00
M000
00M0
000M
0M00
M000
00M0
000M
0M00
M000
00M0
000M
0M00
M000
00M0
000M
0M00
0000
0000
0000
0000
0000
0000
0000
0000
0000
0000
0000
0000
;
