#TITLE:PIRATES BLADE;
#SUBTITLE:;
#ARTIST:BEMANI Sound Team "Tomoaki Hirono";
#TITLETRANSLIT:;
#SUBTITLETRANSLIT:;
#ARTISTTRANSLIT:;
#GENRE:STORMY SEA;
#CREDIT:;
#BANNER:;
#BACKGROUND:;
#LYRICSPATH:;
#CDTITLE:;
#MUSIC:piratesblade.ogg;
#OFFSET:-0.378322;
#SAMPLESTART:57.002998;
#SAMPLELENGTH:13.575000;
#SELECTABLE:YES;
#BPMS:0.000000=160.000000
;
#STOPS:
;
#BGCHANGES:;
#KEYSOUNDS:;
#ATTACKS:;

//---------------dance-single - ----------------
#NOTES:
     dance-single:
     :
     Hard:
     15:
     0.666167,0.778561,0.401574,0.172103,0.397476,569.000000,520.000000,49.000000,21.000000,0.000000,0.000000,0.666167,0.778561,0.401574,0.172103,0.397476,569.000000,520.000000,49.000000,21.000000,0.000000,0.000000:
0000
0000
0000
0000
,
1001
0000
0000
0000
0000
0000
0001
1000
0010
0000
0000
0100
0000
0000
0100
0000
,
0101
1001
1000
0100
,
0010
0001
0100
1000
0100
0000
0101
0000
,
2002
0000
3003
0000
,
1001
0000
0000
0000
0000
0000
1000
0001
0010
0000
0000
0100
0000
0000
0100
0000
,
1100
1001
0001
0100
,
0010
1000
0100
1000
0010
0100
0001
0010
,
0001
0100
0001
0100
0010
1000
0010
1000
0001
0010
0100
1000
0010
0000
0000
0000
,
1010
1001
0000
0000
0000
0000
0000
0000
,
0011
0000
1001
0000
0000
0000
0000
0000
0000
0000
0000
0000
0000
0000
1000
0100
,
0010
0000
0010
0000
0001
0000
1000
0000
0010
0100
0010
0000
1000
0000
0010
0000
,
0001
0000
0010
0000
0100
0000
0001
0000
1000
0001
1000
0000
0000
0000
0001
0100
,
0010
0000
0010
0000
1000
0000
0001
0000
0010
0100
0010
0000
0001
0000
0010
0000
,
1000
0000
0010
0000
0100
0000
1000
0000
0001
1000
0001
0000
0000
0000
1000
0001
,
0010
0000
0010
0000
0100
0000
1000
0000
0001
0100
0001
0000
0100
0000
1000
0000
,
0100
0000
0001
0000
0100
0000
0010
0000
1000
0000
1000
0000
0000
0000
0001
1000
,
0010
0010
0100
0001
1000
0100
0010
0001
,
0011
1001
0000
0000
1010
1001
0000
0000
,
0101
0000
0001
0000
0100
0010
0000
0000
1000
0000
1000
0000
0010
1000
0000
0000
,
0001
0000
0001
0000
0100
0001
0000
0000
1000
0000
1000
0000
0100
1000
0000
0000
,
1100
0000
1000
0000
0100
0010
0000
0000
0001
0000
0001
0000
0010
0001
0000
0000
,
1000
0000
1000
0000
0100
1000
0000
0000
0001
0000
0001
0000
0100
0001
0000
0000
,
0101
0000
0001
0000
0100
0010
0000
0000
1000
0000
1000
0000
0001
1000
0000
0000
,
0001
0000
0001
0000
1000
0001
0000
0000
0100
0000
0100
0000
0010
1000
0000
0000
,
1010
1000
0010
0100
0001
0010
1000
0010
,
0200
0000
0000
1000
0000
0000
1000
0000
2300
0000
0000
0001
0000
0000
0001
0000
,
3002
0000
0013
0000
,
1100
0000
1000
0100
1000
0000
1000
0001
1000
0000
0001
0000
0100
0010
1000
0000
,
0001
0000
0010
0100
0010
0000
0100
0000
1000
0000
0001
0100
0010
0100
0001
0100
,
0010
0000
1000
0010
1000
0000
1000
0001
1000
0000
0001
0000
0010
0100
1000
0000
,
0001
0100
0010
1000
0001
0000
1001
0000
,
0101
0000
0001
0100
0001
0000
0001
1000
0001
0000
1000
0000
0100
0010
0001
0000
,
1000
0000
0010
0100
0010
0000
0100
0000
0001
0000
1000
0000
0100
0000
0010
0000
,
0002
0000
0000
0010
0000
0000
0010
0000
0000
0013
0000
0000
0100
0000
1000
0000
,
0020
0000
0000
0100
0000
0000
0100
0000
0000
0130
0000
0000
0001
0000
1000
0000
,
1001
0000
0000
0101
0000
0000
1001
0000
0000
1000
0000
0000
0100
0000
0020
0000
,
0000
0000
0030
0000
0000
0000
0000
0000
0000
0000
0000
0000
0001
0010
0001
0010
,
1000
0000
0010
0000
0100
1000
0001
0100
0010
0000
1000
0000
0010
0000
0001
0000
,
0010
0000
0100
0000
0001
0000
1000
0100
0010
0000
0000
0000
0001
0000
1000
0000
,
0010
0000
0100
0001
0000
0001
0010
0000
0100
0000
0001
0000
0100
0000
1000
0000
,
0100
0000
0010
0000
0001
0010
0100
1000
0010
0000
0000
0000
1000
0010
1000
0010
,
0001
0000
0010
0000
0100
0001
1000
0100
0010
0000
0001
0000
0010
0000
1000
0000
,
0010
0000
0100
0000
1000
0000
0001
0100
0010
0000
0000
0000
1000
0000
0001
0000
,
0010
0000
0100
1000
0000
1000
0010
0000
0100
0000
1000
0000
0100
0000
0001
0000
,
0100
0000
1010
0000
0001
0011
0000
1000
,
1100
0000
0000
1010
0000
0000
0101
0000
0000
0011
0000
0000
1000
0000
0001
0000
,
1000
0000
0010
0000
1000
0000
0001
0100
0001
0000
1000
0000
1000
0000
0100
0000
,
0001
0000
0100
0000
1000
0000
0100
0010
0001
0000
1000
0000
1000
0000
0001
0000
,
1000
0000
0100
0000
1000
0000
0001
0010
0001
0000
1000
0000
1000
0000
0001
0000
,
0010
0000
0100
1000
0010
0000
0100
0001
0010
0000
0000
0000
0000
0000
0001
1000
,
0001
0000
0010
0000
0001
0000
1000
0100
1000
0000
0001
0000
0001
0000
0100
0000
,
1000
0000
0100
0000
0001
0000
0100
0010
1000
0000
0001
0000
0001
0000
1000
0000
,
0001
0000
0100
0000
0001
0000
1000
0010
1000
0000
0001
0000
0001
0000
0010
0100
,
1000
0000
0010
0100
0001
0000
1000
0100
0010
0001
1000
0010
0100
0000
0000
0000
,
0200
0000
0001
0302
0000
0003
0001
1000
,
0100
0000
0200
0000
0001
0001
0000
0310
,
0020
0000
0001
0032
0000
0003
0001
1000
,
0010
0020
0000
1030
,
0200
0000
1000
2300
0000
3000
1000
0001
,
0100
0000
0200
0000
1000
1000
0000
0310
,
0010
1000
0010
1000
0001
0010
0001
0010
,
0100
0000
0110
0000
,
1001
0000
0000
0000
0000
0000
1000
0001
0010
0000
0000
0100
0000
0000
0100
0000
,
1100
1001
0001
0100
,
0010
1000
0100
0001
0100
0000
1100
0000
,
2002
0000
3003
0000
,
1001
0000
0000
0000
0000
0000
0001
1000
0010
0000
0000
0100
0000
0000
0100
0000
,
0101
1001
1000
0100
,
0010
0001
0100
0001
0010
0100
1000
0100
,
1000
0010
1000
0010
0100
0001
0100
0001
1000
0100
0010
0001
0010
0000
0000
0000
,
0011
0000
1001
0000
0100
1000
0010
0000
,
1010
0000
1001
0000
0100
0001
0010
0000
,
0001
0000
0000
0101
0000
0000
1000
0000
0000
1100
0000
0000
0100
0000
0010
0000
,
0110
0000
2002
0000
,
0000
0000
0000
0000
,
3003
0000
0000
0000
;

//---------------dance-single - ----------------
#NOTES:
     dance-single:
     :
     Medium:
     12:
     0.499918,0.529421,0.311424,0.147517,0.204884,427.000000,389.000000,38.000000,18.000000,0.000000,0.000000,0.499918,0.529421,0.311424,0.147517,0.204884,427.000000,389.000000,38.000000,18.000000,0.000000,0.000000:
0000
0000
0000
0000
,
1001
0000
0000
0000
0000
0000
0000
0000
1000
0000
0000
0001
0000
0000
0010
0000
,
0011
1100
1000
0001
,
0100
1000
0010
0001
0010
0000
0100
0000
,
2200
0000
3300
0000
,
1001
0000
0000
0000
0000
0000
0000
0000
0001
0000
0000
1000
0000
0000
0010
0000
,
1010
0101
0001
1000
,
0100
0001
0100
0001
0100
1000
0100
1000
,
0100
0010
0100
0010
0100
0000
0000
0000
,
0110
0000
0000
0000
,
1001
0000
0000
0000
,
1000
0100
0010
0001
1000
0000
1000
0010
,
0001
0010
0100
0001
0010
0000
0000
0000
,
0001
0100
0010
1000
0001
0000
0001
0010
,
1000
0010
0100
1000
0010
0000
0000
0000
,
1000
0010
0100
0001
1000
0000
1000
0100
,
0001
0100
0010
0001
1000
0001
0000
0000
,
0001
0100
1000
0100
0001
0100
0010
1000
,
0001
0001
0000
0000
1000
1000
0000
0000
,
0101
0000
0000
0000
0001
1000
0000
0000
0100
0000
1000
0000
0100
0000
0000
0000
,
1100
0000
0000
0000
1000
0001
0000
0000
0100
0000
0001
0000
0100
0000
0000
0000
,
0011
0000
0000
0000
0001
1000
0000
0000
0100
0000
1000
0000
0010
0000
0000
0000
,
1010
0000
0000
0000
1000
0001
0000
0000
0100
0000
0001
0000
0010
0000
0000
0000
,
0011
0000
0000
0000
0001
1000
0000
0000
0010
0000
1000
0000
0010
0000
0000
0000
,
1010
0000
0000
0000
1000
0001
0000
0000
0010
0000
0001
0000
0010
0000
0000
0000
,
0001
0010
0100
1000
0010
0001
0010
0100
,
0002
0000
0000
0000
0000
0000
0000
0000
1000
0000
0000
1000
0000
0000
1000
0000
,
2000
0000
3003
0000
,
1010
0000
0000
1000
0010
0000
0000
0001
0010
0000
0000
0000
0100
0000
0100
0000
,
0100
0000
0000
0001
0100
0000
0010
0000
1000
0000
0000
0000
0001
0000
0001
0000
,
0001
0000
0000
0001
0010
0000
0000
1000
0010
0000
0000
0000
0100
0000
0100
0000
,
1000
0100
0010
0001
1000
0000
1001
0000
,
0011
0000
0000
0001
0010
0000
0000
1000
0010
0000
0000
0000
0100
0000
0100
0000
,
0100
0000
0000
1000
0100
0000
0010
0000
0001
0000
0010
0000
0100
0000
1000
0000
,
0001
0000
0000
0010
0000
0000
0001
0000
0000
0010
0000
0000
1100
0000
0000
0000
,
1000
0000
0000
0010
0000
0000
1000
0000
0000
0010
0000
0000
0101
0000
0000
0000
,
0001
0000
0000
1000
0000
0000
0001
0000
0000
1000
0000
0000
0100
0000
0020
0000
,
0000
0030
0000
0000
0000
0000
0000
0000
,
0001
0000
0000
0001
0010
0000
0000
0010
0001
0000
0000
0001
0010
0000
0100
0000
,
1000
0000
0000
1000
0100
0000
0000
0100
1000
0000
0000
0000
0001
0000
0100
0000
,
0010
0000
0000
0010
1000
0000
0000
1000
0010
0000
0000
0010
0100
0000
0001
0000
,
1000
0100
1000
0100
0010
0000
1001
0000
,
1000
0000
0000
1000
0010
0000
0000
0010
1000
0000
0000
1000
0010
0000
0100
0000
,
0001
0000
0000
0001
0100
0000
0000
0100
0001
0000
0000
0000
1000
0000
0100
0000
,
0010
0000
0000
0010
0001
0000
0000
0001
0010
0000
0000
0010
0100
0000
1000
0000
,
0001
0000
0101
0000
0000
1100
0000
0000
,
0001
0000
0000
1000
0000
0000
0001
0000
0000
1000
0000
0000
0100
0000
0010
0000
,
0001
0010
0001
0000
1000
0100
1000
0000
,
1000
0010
1000
0000
0001
0100
0001
0000
,
0001
0010
0100
0000
1000
0010
0100
0000
,
0001
0000
0000
0100
1000
0000
0000
0100
0001
0000
0000
0000
1001
0000
0000
0000
,
1000
0100
1000
0000
0001
0010
0001
0000
,
0001
0100
0001
0000
1000
0010
1000
0000
,
1000
0100
0010
0000
0001
0100
0010
0000
,
1000
0000
0000
0010
0001
0000
0000
0010
1000
0000
0000
0010
0100
0000
0000
0000
,
0200
0000
0000
0302
0000
0003
0001
1000
,
0100
0000
0200
0000
0000
0001
0000
0000
,
0320
0000
0000
0032
0000
0003
0001
1000
,
0010
0020
0000
1030
,
0200
0000
0000
2300
0000
3000
1000
0001
,
0100
0000
0200
0000
0000
1000
0000
0300
,
0010
1000
0010
1000
0001
0010
0001
0010
,
0100
0000
0110
0000
,
1001
0000
0000
0000
0000
0000
0000
0000
1000
0000
0000
0001
0000
0000
0010
0000
,
0011
1100
1000
0001
,
0100
1000
0010
0001
0010
0000
0100
0000
,
2200
0000
3300
0000
,
1001
0000
0000
0000
0000
0000
0000
0000
0001
0000
0000
1000
0000
0000
0010
0000
,
1010
0101
0001
1000
,
0100
0001
0100
0001
0100
1000
0100
1000
,
0100
0010
0100
0010
0100
0000
0000
0000
,
0011
0000
1001
0000
0100
1000
0010
0000
,
1010
0000
1001
0000
0100
0001
0010
0000
,
0001
0000
0000
1000
0000
0000
0001
0000
0000
1000
0000
0000
0010
0000
0100
0000
,
0110
0000
2002
0000
,
0000
0000
0000
0000
,
3003
0000
0000
0000
;

//---------------dance-single - ----------------
#NOTES:
     dance-single:
     :
     Easy:
     7:
     0.336010,0.404852,0.237666,0.139321,0.040977,287.000000,258.000000,29.000000,17.000000,0.000000,0.000000,0.336010,0.404852,0.237666,0.139321,0.040977,287.000000,258.000000,29.000000,17.000000,0.000000,0.000000:
0000
0000
0000
0000
,
1001
0000
0000
0000
0000
0000
0000
0000
1000
0000
0000
0001
0000
0000
1000
0000
,
0001
0110
0000
0000
,
1010
0000
0011
0000
,
0220
0000
0330
0000
,
1001
0000
0000
0000
0000
0000
0000
0000
0001
0000
0000
1000
0000
0000
0001
0000
,
1000
0110
0000
0000
,
0001
0100
1000
0100
,
0001
0100
0010
0000
,
0110
0000
0000
0000
,
1001
0000
0000
0000
,
1000
0010
1000
0001
,
0010
0100
1000
0000
,
1000
0001
1000
0100
,
0001
0100
1000
0000
,
0001
0010
0001
1000
,
0010
0100
0001
0000
,
1000
0001
0010
0100
,
1100
0000
0101
0000
,
1000
0000
0001
0000
0010
0001
0010
0000
,
0100
0000
1000
0000
0001
0100
0001
0000
,
0001
0000
1000
0000
0010
1000
0010
0000
,
0100
0000
0001
0000
1000
0100
1000
0000
,
0100
0000
0010
0000
0001
1000
0001
0000
,
0100
0000
0010
0000
1000
0001
1000
0000
,
0001
0010
0100
1000
,
0002
0000
2003
0000
,
3020
0000
0130
0000
,
0002
0010
0013
0001
,
2000
0100
3100
1001
,
2000
0010
3010
0100
,
1000
0100
0001
1001
,
0002
0100
0103
0001
,
2000
0100
3100
1000
,
0001
0000
0000
0100
0000
0000
1000
0000
,
0000
0010
0000
0000
0001
0000
1000
0000
,
0001
0000
0000
1000
0000
0000
0001
0000
0000
1000
0000
0000
0100
0000
0010
0000
,
0000
0000
0000
0000
,
0001
0010
1000
0010
,
0100
1000
0010
0000
,
1000
1000
0001
0001
,
0010
0100
1000
0000
,
1000
0010
0001
0010
,
0100
0001
0010
0000
,
0001
0001
1000
1000
,
0100
0000
1100
0000
0000
0101
0000
0000
,
0001
0000
0000
1000
0000
0000
0001
0000
0000
1000
0000
0000
0001
0000
0000
0000
,
1000
0000
1000
0000
0001
0010
0001
0000
,
0001
0000
0001
0000
1000
0010
1000
0000
,
1000
0000
1000
0000
0100
0010
0001
0000
,
1000
0010
0001
0010
,
1000
0000
1000
0000
0001
0100
0001
0000
,
0001
0000
0001
0000
1000
0100
1000
0000
,
1000
0000
1000
0000
0010
0100
0001
0000
,
1000
0100
0001
0110
,
0200
0000
0000
0000
,
0300
0100
1000
0010
,
0200
0000
0000
0000
0300
0001
1000
0001
,
1000
0000
0000
0001
,
0200
0000
0000
0000
,
0300
0100
0001
0010
,
0100
1000
0001
1000
0001
1000
0001
1000
,
0001
0000
0110
0000
,
1001
0000
0000
0000
0000
0000
0000
0000
1000
0000
0000
0001
0000
0000
1000
0000
,
0001
0110
0000
0000
,
1010
0000
0011
0000
,
0220
0000
0330
0000
,
1001
0000
0000
0000
0000
0000
0000
0000
0001
0000
0000
1000
0000
0000
0001
0000
,
1000
0110
0000
0000
,
0001
0100
1000
0100
,
0001
0100
0010
0000
,
1001
0011
0100
1000
,
1001
1010
0100
0001
,
1000
0000
0000
0001
0000
0000
1000
0000
0000
0001
0000
0000
0100
0000
0010
0000
,
0100
0000
2002
0000
,
0000
0000
0000
0000
,
3003
0000
0000
0000
;

//---------------dance-single - ----------------
#NOTES:
     dance-single:
     :
     Beginner:
     5:
     0.224788,0.274750,0.147517,0.057368,0.000000,192.000000,174.000000,18.000000,7.000000,0.000000,0.000000,0.224788,0.274750,0.147517,0.057368,0.000000,192.000000,174.000000,18.000000,7.000000,0.000000,0.000000:
// measure 0
0000
0000
0000
0000
,  // measure 1
1001
0000
1000
0000
,  // measure 2
1010
0000
0000
0000
,  // measure 3
1000
0000
0001
0000
,  // measure 4
0101
0000
0000
0000
,  // measure 5
1001
0000
0001
0000
,  // measure 6
0011
0000
0000
0000
,  // measure 7
1000
1000
1000
1000
,  // measure 8
0001
0001
0001
0000
,  // measure 9
1001
0000
0000
0000
,  // measure 10
0110
0000
0000
0000
,  // measure 11
1000
0000
0010
0000
,  // measure 12
1000
0000
0001
0000
,  // measure 13
0001
0000
0010
0000
,  // measure 14
0001
0000
1000
0000
,  // measure 15
0100
0000
0010
0000
,  // measure 16
0100
0000
1000
0000
,  // measure 17
0001
0000
1000
0000
,  // measure 18
1001
0000
0110
0000
,  // measure 19
0001
0001
0001
0000
,  // measure 20
1000
0000
0010
0000
,  // measure 21
1000
1000
1000
0000
,  // measure 22
0001
1000
0001
0000
,  // measure 23
0001
0001
0001
0000
,  // measure 24
0100
0000
0001
0000
,  // measure 25
1000
1000
1000
1000
,  // measure 26
0002
0000
2003
0000
,  // measure 27
3020
0000
0030
0000
,  // measure 28
0100
0100
0100
0000
,  // measure 29
0010
0010
0010
0000
,  // measure 30
1000
1000
1000
0000
,  // measure 31
0001
0000
1001
0000
,  // measure 32
0001
0001
0001
0000
,  // measure 33
0010
0010
0010
0000
,  // measure 34
0001
0000
0100
0000
,  // measure 35
1000
0000
0100
0000
,  // measure 36
0001
0000
0000
0001
0000
0000
0001
0000
,  // measure 37
0000
0000
0000
0000
,  // measure 38
1000
1000
0001
0001
,  // measure 39
0100
0000
0010
0000
,  // measure 40
0100
0100
0100
0100
,  // measure 41
0001
0000
1000
0000
,  // measure 42
0001
0001
1000
1000
,  // measure 43
0100
0000
0010
0000
,  // measure 44
0100
0100
0100
0100
,  // measure 45
0200
0000
0000
0300
,  // measure 46
1000
0000
0000
0001
0000
0000
1000
0000
,  // measure 47
0001
0001
0001
0001
,  // measure 48
1000
1000
1000
1000
,  // measure 49
0010
0010
0010
0010
,  // measure 50
1000
0001
1000
0000
,  // measure 51
0100
0100
0100
0100
,  // measure 52
0010
0010
0010
0010
,  // measure 53
0100
0100
0100
0100
,  // measure 54
1000
0001
1000
0000
,  // measure 55
0002
0000
0000
0000
,  // measure 56
0003
0000
1000
0000
,  // measure 57
2000
0000
3000
0010
,  // measure 58
0010
0000
0000
0000
,  // measure 59
2000
0000
0000
0000
,  // measure 60
3000
0000
0001
0000
,  // measure 61
0100
0100
0100
0100
,  // measure 62
0100
0000
0110
0000
,  // measure 63
1001
0000
1000
0000
,  // measure 64
1010
0000
0000
0000
,  // measure 65
1000
0000
0001
0000
,  // measure 66
0101
0000
0000
0000
,  // measure 67
1001
0000
0001
0000
,  // measure 68
0011
0000
0000
0000
,  // measure 69
1000
1000
1000
1000
,  // measure 70
0001
0001
0001
0000
,  // measure 71
1000
0000
0010
0000
,  // measure 72
1000
0000
0100
0000
,  // measure 73
1000
0000
0000
0001
0000
0000
0000
0000
,  // measure 74
0110
0000
1001
0000
;
