#VERSION:0.83;
#TITLE:PARANOiA Jupiter;
#SUBTITLE:;
#ARTIST:500-200;
#TITLETRANSLIT:;
#SUBTITLETRANSLIT:;
#ARTISTTRANSLIT:;
#GENRE:;
#ORIGIN:;
#TAGS:;
#CREDIT:;
#BANNER:PARANOiA Jupiter-bn.png;
#BACKGROUND:PARANOiA Jupiter-bg.png;
#PREVIEWVID:;
#JACKET:PARANOiA Jupiter-jacket.png;
#CDIMAGE:;
#DISCIMAGE:;
#LYRICSPATH:;
#CDTITLE:;
#MUSIC:PARANOiA Jupiter.ogg;
#OFFSET:0.000000;
#SAMPLESTART:67.199997;
#SAMPLELENGTH:20.000000;
#SELECTABLE:YES;
#DISPLAYBPM:150.000000;
#BPMS:0.000000=150.000000;
#STOPS:;
#DELAYS:;
#WARPS:;
#TIMESIGNATURES:0.000000=4=4;
#TICKCOUNTS:0.000000=4;
#COMBOS:0.000000=1;
#SPEEDS:0.000000=1.000000=0.000000=0;
#SCROLLS:0.000000=1.000000;
#FAKES:;
#LABELS:0.000000=Song Start;
#BGCHANGES:;
#KEYSOUNDS:;
#ATTACKS:
;

//---------------dance-single - ----------------
#NOTEDATA:;
#CHARTNAME:;
#CHARTHASH:2467864207:
#STEPSTYPE:dance-single;
#BANNER:;
#DESCRIPTION:;
#CHARTSTYLE:;
#DIFFICULTY:Easy;
#METER:8;
#METERF:0.000000;
#RADARVALUES:0.361912,0.498472,0.184619,0.307699,0.000000,247.000000,229.000000,18.000000,30.000000,0.000000,0.000000,0.000000,0.000000,0.000000,0.361912,0.498472,0.184619,0.307699,0.000000,247.000000,229.000000,18.000000,30.000000,0.000000,0.000000,0.000000,0.000000,0.000000;
#CREDIT:;
#DISPLAYBPM:150.000000;
#NOTES:
0000
0000
0000
0000
,
0000
0000
0000
0000
,
0000
0000
0000
0000
,
0000
0000
0000
0000
,
0000
0000
0000
0000
,
0000
0000
0000
0000
,
1000
0000
0100
0000
0001
1000
0001
0000
,
0010
0000
0001
0000
1000
0100
1000
0000
,
0010
0000
1000
0000
0001
0100
0001
0000
,
1001
0000
0110
0000
1000
0001
1000
0001
,
0020
0000
0000
0031
0200
0000
0000
0310
,
2000
0000
0000
3002
0000
1003
0100
0000
,
2000
0000
0000
3010
0200
0000
0000
0301
,
0020
0000
0000
0032
0000
1003
0001
0000
,
0200
0000
0000
0310
2000
0000
0000
3100
,
0002
0000
0000
0023
0000
0130
1000
0000
,
0002
0000
0000
1003
0200
0000
0000
1300
,
0020
0000
2030
0000
0000
0001
3001
1000
,
0100
0000
0010
0001
0000
0000
0100
0010
,
0000
0000
1000
0001
0000
1000
0100
0010
,
0000
0000
0001
1000
0000
0000
0100
0010
,
0000
0001
0100
0000
1001
0000
0110
0000
,
1000
0100
0010
0000
0001
0000
0100
0000
,
0010
1000
0001
0000
0100
0000
1000
0000
,
0010
1000
0100
0001
,
1000
0010
1001
0110
,
2000
0000
0000
0001
0002
0000
0003
0100
,
0200
0000
0000
3300
,
0002
0000
0000
0010
0020
0000
0030
0100
,
0200
0000
0000
0303
,
1000
0001
1000
0000
0020
0000
0030
0200
,
0002
0000
0000
0303
,
2000
0000
0000
0100
0200
0000
0300
0001
,
0002
0000
0000
3003
,
0010
1000
0001
0010
,
0001
0100
0010
1000
,
0100
0010
0100
1000
,
0010
0001
0100
1000
,
0001
1000
0001
0010
,
0100
0001
1000
0010
,
1000
0100
1000
0010
,
1000
0100
0010
0001
,
0010
0000
0001
0000
0100
0010
1000
0000
,
0001
0000
0100
0000
1000
0001
0010
0000
,
0100
0000
0001
0000
0010
0001
1000
0000
,
0100
0000
0010
0000
0001
0100
0010
0000
,
1010
0000
1010
0000
1000
0100
0001
0000
,
0011
0000
0011
0000
0100
0010
1000
0000
,
1100
0000
1100
0000
0001
1000
0010
0000
,
0101
0000
0101
0000
0000
1000
0001
1000
,
0100
0000
1000
0001
0010
0000
0001
0100
,
1000
0000
0011
0000
0001
0100
0010
0000
,
0100
0000
0001
0010
0001
0000
1000
0100
,
0010
0000
1100
0000
1000
0001
0100
0000
,
0001
0000
0010
0100
1000
0000
0010
1000
,
0100
0000
1010
0000
0001
1000
0010
0000
,
1000
0000
0001
0010
0100
0000
1000
0010
,
0001
0000
1010
0000
0001
0100
0010
2000
,
0002
0000
0000
0000
,
0000
0000
0000
0000
,
0000
0000
0000
3003
;

//---------------dance-single - ----------------
#NOTEDATA:;
#CHARTNAME:;
#CHARTHASH:112971000:
#STEPSTYPE:dance-single;
#BANNER:;
#DESCRIPTION:;
#CHARTSTYLE:;
#DIFFICULTY:Medium;
#METER:12;
#METERF:0.000000;
#RADARVALUES:0.506970,0.685399,0.123079,0.205132,0.292314,346.000000,334.000000,12.000000,20.000000,0.000000,0.000000,0.000000,0.000000,0.000000,0.506970,0.685399,0.123079,0.205132,0.292314,346.000000,334.000000,12.000000,20.000000,0.000000,0.000000,0.000000,0.000000,0.000000;
#CREDIT:;
#DISPLAYBPM:150.000000;
#NOTES:
0000
0000
0000
0000
,
0000
0000
0000
0000
,
0000
0000
0000
0000
,
0000
0000
0000
0000
,
0000
0000
0000
0000
,
0000
0000
0000
0000
,
1100
0000
0000
0000
1100
0000
0000
0000
0001
1000
0001
1000
0001
0000
0000
0000
,
0101
0000
0000
0000
0101
0000
0000
0000
1000
0100
1000
0100
1000
0000
0000
0000
,
1010
0000
0000
0000
1010
0000
0000
0000
0001
0100
0001
0100
0001
0000
0000
0000
,
1010
0000
0000
0000
1010
0000
0000
0000
1000
0001
1000
0001
1000
0001
1000
0001
,
1000
0010
0000
0100
0001
0010
0000
0001
,
1000
0100
0000
1000
0001
0100
0001
0010
,
0100
1000
0000
1000
0010
0100
0000
0001
,
0010
0000
0001
0100
1000
0100
0001
0000
,
0010
0100
0000
0100
1000
0010
0000
1000
,
0001
0100
0000
0100
0010
1000
0001
0000
,
0010
0001
0000
0001
1000
0010
0000
1000
,
0002
0000
0000
0000
2003
0000
0000
0000
3000
0010
0100
0000
0010
0000
0100
0010
,
0100
0000
0000
0001
0000
0000
0010
0000
0001
0000
0000
1000
0000
0000
0100
0000
,
1000
0000
0000
0010
0000
0000
0100
0000
0001
0000
0000
0010
0000
0000
0001
0000
,
0000
1000
0100
0001
0000
0010
0100
1000
,
0000
0010
1000
0001
1001
0000
1001
0000
,
0100
0000
0000
0010
0000
0000
1000
0000
0100
0000
0000
1000
0000
0000
0001
0000
,
0010
0000
0000
0001
0000
0000
0100
0000
1000
0000
0000
0010
0000
0000
1000
0000
,
0000
0001
1000
0100
0000
1000
0010
0001
,
0000
0100
0010
1000
0110
0000
0110
0000
,
2000
0000
0000
0001
3002
0000
0000
0100
,
0203
0000
0000
0310
2000
0000
3020
0000
,
2030
0000
0000
0100
3200
0000
0000
0010
,
0320
0000
0130
0001
0000
1000
0100
0000
,
0020
0000
0000
0100
0230
0000
0000
1000
,
2300
0000
0000
0001
3002
0000
2003
0000
,
3200
0000
0000
0010
0320
0000
0000
0100
,
0230
0000
1300
0001
0000
1000
0010
0000
,
1000
0100
0000
0000
1000
0000
0000
0000
0001
0100
0000
0000
0001
0000
0000
0000
,
1000
0010
0000
0000
1000
0000
0000
0000
0001
0010
0000
0000
0001
0000
0000
0000
,
1000
0001
0000
0000
1000
0000
0000
0000
0010
0100
0000
0000
0010
0000
0000
0000
,
0100
0001
0000
0000
1000
0000
0000
0000
0010
1000
0000
0000
0100
0000
0000
0000
,
1000
0001
0000
0000
0010
0000
0000
0000
0100
0010
0000
0000
0001
0000
0000
0000
,
1000
0010
0000
0000
0100
0000
0000
0000
0001
1000
0000
0000
0001
0000
0000
0000
,
1000
0100
0000
0000
1000
0000
0000
0000
0001
0100
0000
0000
0001
0000
0000
0000
,
0010
0001
0000
0000
0100
0000
0000
0000
1000
0001
0000
0000
1000
0001
1000
0000
,
0010
0000
0000
1000
0100
0000
0000
0000
0010
0000
0000
0001
0100
0000
0000
0000
,
0001
0000
0000
1000
0001
0000
0100
0000
0010
0000
1000
0000
0100
0000
0000
0000
,
1000
0000
0000
0001
0010
0000
0000
0000
0100
0000
0000
1000
0010
0000
0000
0000
,
1000
0000
0000
0100
1000
0000
0010
0000
0100
0000
0001
0000
0010
0000
0000
0000
,
1000
0000
0000
0001
0100
0000
0000
0000
0010
0000
0000
0100
0001
0000
0000
0000
,
1000
0000
0000
0001
0010
0000
0100
0000
1000
0000
0010
0000
0001
0000
0000
0000
,
0100
0000
0000
0010
0100
0000
0000
0000
0001
0000
0000
1000
0010
0000
0000
0000
,
1000
0000
0000
0100
0010
0000
0000
0000
0001
1000
0001
0000
0100
0010
0100
0000
,
0001
0010
0100
1000
0010
0100
0010
1000
,
0100
0001
0100
0010
0001
0100
0010
1000
,
0001
1000
0100
0010
0001
0100
0001
0010
,
0001
0100
0010
0001
0010
1000
0100
0010
,
0001
1000
0001
0100
1000
0100
0010
0100
,
0001
1000
0100
0001
0100
0010
0100
0001
,
0100
1000
0010
0100
0001
0010
0001
1000
,
0010
0100
0000
0010
0100
0000
0000
0000
0001
1000
0001
1000
0001
1000
0001
2000
,
0002
0000
0000
0000
,
0000
0000
0000
0000
,
0000
0000
0000
3003
;

//---------------dance-single - ----------------
#NOTEDATA:;
#CHARTNAME:;
#CHARTHASH:4079180836:
#STEPSTYPE:dance-single;
#BANNER:;
#DESCRIPTION:;
#CHARTSTYLE:;
#DIFFICULTY:Hard;
#METER:15;
#METERF:0.000000;
#RADARVALUES:0.757525,0.934635,0.143593,0.061540,0.969251,517.000000,503.000000,14.000000,6.000000,0.000000,0.000000,0.000000,0.000000,0.000000,0.757525,0.934635,0.143593,0.061540,0.969251,517.000000,503.000000,14.000000,6.000000,0.000000,0.000000,0.000000,0.000000,0.000000;
#CREDIT:;
#DISPLAYBPM:150.000000;
#NOTES:
0000
0000
0000
0000
,
0000
0000
0000
0000
,
0000
0000
0000
0000
,
0000
0000
0000
0000
,
0000
0000
0000
0000
,
0000
0000
0000
0000
,
1100
0000
0000
0100
1000
0000
0000
0000
0001
0100
0001
0100
0001
0000
0000
0000
,
0011
0000
0000
0010
0001
0000
0000
0000
1000
0010
1000
0010
1000
0000
0000
0000
,
1010
0000
0000
0010
0100
0000
0000
0000
0001
1000
0001
1000
0001
0000
0000
0000
,
1000
0100
0000
0100
0010
0100
0000
0100
1000
0001
1000
0001
0010
0001
0010
0001
,
0100
0010
1000
1010
0001
0100
0010
0110
,
1000
0000
0001
0000
1000
0000
0100
0000
0010
0001
0010
0001
0010
0000
0100
0000
,
1000
0001
0010
1100
0100
0010
0001
0101
,
0010
0100
0001
1000
0010
1000
0100
0001
,
1000
0010
0000
0010
0100
0000
0001
0000
0010
0100
0000
0100
1000
0000
0001
0000
,
0010
0001
0000
0001
0100
0000
0010
0000
1000
0000
0100
0000
1000
0000
0001
0000
,
0100
0010
0000
0010
1000
0000
0001
0000
0010
0001
0000
0001
1000
0000
0010
0000
,
0101
0000
0000
0001
0100
0000
0000
0000
1000
0100
0010
0000
0001
0000
1000
0010
,
1000
0000
0001
0100
0000
0100
0010
0000
0000
0000
0010
1000
0000
1000
0001
0100
,
0000
0000
0001
0010
0000
0010
0100
1000
0000
0000
1000
0001
0000
0001
0100
0000
,
0000
0000
0001
1000
0000
1000
0100
1000
0000
0000
0010
0100
0000
0001
0010
0001
,
0000
0000
0100
0010
0000
1000
0001
1000
0000
0000
0100
0010
0000
0001
0100
0010
,
1000
0000
0001
0100
0000
0001
0010
0000
0100
0000
1000
0010
0000
1000
0001
0000
,
0010
0000
0001
0100
0000
0010
1000
0100
0000
0000
1000
0001
0000
1000
0100
0000
,
0010
0000
0100
0010
0000
0001
0100
0001
1000
0000
0010
1000
0000
0001
1000
0100
,
0010
0000
0001
1000
0000
0001
1000
0000
1100
0000
0000
0000
0011
0000
0000
0000
,
1001
0100
0000
0100
1000
0100
0000
0100
,
0010
0001
0000
0010
2000
0000
3002
0000
,
0013
0001
0000
0001
1000
0001
0000
0001
,
0100
0000
0010
1000
0000
0001
1010
0000
,
0110
0001
0000
0001
1000
0100
0000
0100
,
1000
0010
0000
0010
0200
0000
0320
0000
,
1030
0010
0000
0010
1000
0001
0000
0001
,
0010
0000
0001
0100
0000
1000
0011
0000
,
1000
0100
0000
0000
1000
0100
0000
0000
0010
0001
0000
0000
0010
0001
0000
0000
,
0100
0001
0000
0000
0100
0001
0000
0000
1000
0010
0000
0000
1000
0010
0000
0000
,
1000
0001
0000
0000
1000
0001
0000
0000
0100
0010
0000
0000
0100
0010
0000
0000
,
1000
0100
0000
0000
0010
0001
0000
0000
1000
0010
0000
0000
0100
0001
0000
0000
,
1000
0100
1000
0100
1000
0000
0000
0000
0001
0010
0001
0010
0001
0000
0000
0000
,
0100
0001
0100
0001
0100
0000
0000
0000
0010
1000
0010
1000
0010
0000
0000
0000
,
1000
0001
1000
0001
1000
0000
0000
0000
0010
0100
0010
0100
0010
0000
0000
0000
,
1000
0010
0100
0010
1000
0000
0000
0000
0001
0010
0100
1000
0100
0010
0001
0000
,
1000
0010
0000
0010
1000
0001
0000
0000
0100
0010
0100
0001
0100
0000
0000
0000
,
0010
0100
0000
0100
0001
1000
0000
0000
0010
1000
0010
1000
0001
0000
0000
0000
,
1000
0010
0000
1000
0100
0010
0001
0000
0100
0010
0000
0010
1000
0001
0100
0000
,
0001
1000
0000
1000
0100
0000
0000
0000
0010
0001
0000
0000
1000
0010
0000
0000
,
1000
0001
0000
1000
0100
1000
0010
0000
0100
0001
0100
0000
0010
0001
0010
0000
,
1000
0010
0000
1000
0001
0010
0100
0000
1000
0001
1000
0000
0100
0010
0100
0000
,
1000
0010
0100
0010
1000
0000
0000
0000
0001
0100
0010
0100
0001
0000
0000
0000
,
1000
0001
0010
0001
1000
0000
0000
0000
0100
0010
0100
0010
0100
1000
0001
0000
,
1000
0100
0010
0001
0010
0100
1000
0000
0001
0010
0100
1000
0100
0010
0001
0000
,
0100
0010
1000
0001
1000
0100
0010
0000
0001
0100
0001
0000
1000
0010
1000
0000
,
0100
0010
0100
0010
1000
0001
0010
0000
0001
1000
0001
1000
0100
0010
0100
0000
,
1000
0010
0100
0001
0010
0100
1000
0000
0010
1000
0100
0000
0010
0001
0100
0000
,
0010
1000
0010
0100
0010
0001
0010
0000
0010
0001
0010
0100
0010
1000
0010
0000
,
1000
0100
0010
0001
1000
0001
0100
0000
0010
1000
0100
0000
1000
0001
0010
0000
,
0100
0001
0100
0010
0100
1000
0100
0000
0100
1000
0100
0010
0100
0001
0100
0000
,
1000
0010
0100
0001
0010
0100
1000
0000
0010
0100
0001
1000
0010
1000
0001
0200
,
0002
0000
0000
0000
,
0000
0000
0000
0000
,
0000
0000
0000
0303
;

//---------------dance-single - ----------------
#NOTEDATA:;
#CHARTNAME:;
#CHARTHASH:0:
#STEPSTYPE:dance-single;
#BANNER:;
#DESCRIPTION:;
#CHARTSTYLE:;
#DIFFICULTY:Beginner;
#METER:3;
#METERF:0.000000;
#RADARVALUES:0.167036,0.208209,0.000000,0.000000,0.000000,114.000000,114.000000,0.000000,0.000000,0.000000,0.000000,0.000000,0.000000,0.000000,0.167036,0.208209,0.000000,0.000000,0.000000,114.000000,114.000000,0.000000,0.000000,0.000000,0.000000,0.000000,0.000000,0.000000;
#CREDIT:;
#DISPLAYBPM:150.000000;
#NOTES:
// measure 0
0000
0000
0000
0000
,  // measure 1
0000
0000
0000
0000
,  // measure 2
0000
0000
0000
0000
,  // measure 3
0000
0000
0000
0000
,  // measure 4
0000
0000
0000
0000
,  // measure 5
0000
0000
0000
0000
,  // measure 6
1000
1000
0000
0000
,  // measure 7
0010
0010
0000
0000
,  // measure 8
0100
0100
0000
0000
,  // measure 9
0001
0001
0001
0000
,  // measure 10
0010
0000
0001
0000
,  // measure 11
1000
0000
0000
0000
,  // measure 12
0100
0000
1000
0000
,  // measure 13
0010
0000
0000
0000
,  // measure 14
1000
0000
0100
0000
,  // measure 15
0001
0001
0000
0000
,  // measure 16
0010
0000
0001
0000
,  // measure 17
0100
0100
0000
0000
,  // measure 18
1000
0000
0001
0000
,  // measure 19
0010
0010
0000
0000
,  // measure 20
0001
0000
0100
0000
,  // measure 21
1000
0000
0010
0010
,  // measure 22
0010
0000
1000
0000
,  // measure 23
0100
0100
0000
0000
,  // measure 24
1000
1000
1000
0000
,  // measure 25
0001
0000
0100
0100
,  // measure 26
0100
0000
0010
0000
,  // measure 27
0100
0000
0000
0000
,  // measure 28
0001
0000
1000
0000
,  // measure 29
0001
0000
0000
0000
,  // measure 30
0010
0000
0100
0000
,  // measure 31
0010
0000
0000
0000
,  // measure 32
1000
0000
0001
0000
,  // measure 33
1000
0000
0000
0000
,  // measure 34
0010
0000
0010
0000
,  // measure 35
0100
0000
0100
0000
,  // measure 36
1000
0000
0001
0000
,  // measure 37
1000
0000
0001
0000
,  // measure 38
0010
0000
0010
0000
,  // measure 39
0100
0000
0100
0000
,  // measure 40
1000
0000
0001
0000
,  // measure 41
1000
0000
0001
0000
,  // measure 42
0010
0000
0001
0000
,  // measure 43
0100
0100
0100
0000
,  // measure 44
0001
0000
0010
0000
,  // measure 45
1000
1000
1000
0000
,  // measure 46
0100
0000
1000
0000
,  // measure 47
0001
0001
0001
0000
,  // measure 48
0010
0000
0100
0000
,  // measure 49
1000
1000
1000
0000
,  // measure 50
0010
0010
0010
0000
,  // measure 51
1000
1000
1000
0000
,  // measure 52
0100
0100
0100
0000
,  // measure 53
0001
0001
0001
0000
,  // measure 54
0010
0010
0010
0000
,  // measure 55
0001
0001
0001
0000
,  // measure 56
1000
1000
1000
0000
,  // measure 57
0010
0000
0100
0000
,  // measure 58
0001
0000
0000
0000
;
