#TITLE:Our Constellation;
#SUBTITLE:;
#ARTIST:Daniel Van Eden;
#TITLETRANSLIT:;
#SUBTITLETRANSLIT:;
#ARTISTTRANSLIT:;
#GENRE:;
#CREDIT:;
#BANNER:Our Constellation.png;
#BACKGROUND:Our Constellation-bg.png;
#LYRICSPATH:;
#CDTITLE:;
#MUSIC:Our Constellation.ogg;
#OFFSET:0.000000;
#SAMPLESTART:28.791298;
#SAMPLELENGTH:19.199997;
#SELECTABLE:YES;
#BPMS:0.000000=100.000000
;
#STOPS:
;
#BGCHANGES:;
#KEYSOUNDS:;
#ATTACKS:;

//---------------dance-single - ----------------
#NOTES:
     dance-single:
     :
     Challenge:
     13:
     0.491071,0.555161,0.151515,0.274621,0.497159,363.000000,347.000000,16.000000,29.000000,0.000000,0.000000,0.491071,0.555161,0.151515,0.274621,0.497159,363.000000,347.000000,16.000000,29.000000,0.000000,0.000000:
0000
0000
0000
0000
,
0000
0000
0000
0000
,
0000
0000
0000
0000
,
0000
0000
0000
0000
,
0000
0000
0000
0000
0001
0010
0100
0010
0100
0000
1000
0000
0000
0000
2000
0000
,
0100
0000
0000
3001
0000
0000
0200
0000
0010
0000
0000
0301
0000
0000
0020
0000
,
0001
0000
0000
0130
0000
0000
1000
0100
0010
0000
0100
0000
1000
0000
0001
0000
,
2000
0000
0000
3010
0000
1000
0010
0000
0100
0000
0001
0000
0020
0000
0000
0000
,
0130
0000
0000
0000
1000
0100
0010
0100
0010
0000
0001
0000
0000
0000
1000
0000
,
0010
0000
0000
0100
0000
0000
0001
0000
0000
0000
0100
0000
0010
0000
0100
0000
,
2000
0000
0000
3200
0000
0000
0302
0000
2003
0000
0000
0000
3001
0000
0000
0000
,
0020
0000
0000
0000
0130
1000
0010
0100
,
1001
0000
0000
0000
0001
0100
0010
0100
0010
0000
1000
0000
0010
0000
0100
2000
,
0000
0000
3100
0000
0001
0000
0010
0100
0001
0100
1000
0000
0001
0000
0010
0000
,
0110
0000
0000
0100
1000
0001
0010
0001
0010
0100
1000
0000
0010
0000
0100
0000
,
0110
0000
0000
0100
0001
1000
0010
1000
0100
0010
0001
0000
1000
0000
1000
0001
,
0100
0000
0001
0000
1000
0100
0010
0100
0010
0000
0001
0000
0010
0000
0100
0002
,
0000
0000
0103
0000
1000
0000
0001
0100
1000
0100
0010
1000
0001
0000
1100
0000
,
0101
0000
0000
0100
0001
1000
0010
1000
0010
0100
0001
0000
1000
0000
0001
0000
,
0010
0100
0000
1000
0000
1000
0100
0010
0000
0010
0100
1000
0010
0000
0100
0001
,
2000
0000
0000
0001
0000
0000
0010
0000
3100
0000
0000
0000
0020
0000
0000
0000
,
0032
0000
0103
0010
1000
0100
1000
0100
,
0002
0000
0000
0203
0000
0000
1300
0000
0000
0000
2000
0000
0000
3020
0000
0000
,
0031
0000
0010
0000
1000
0000
0001
0000
0020
0000
0000
0100
0000
0000
0001
0000
,
0230
0000
0000
0010
0000
0000
0001
0000
1300
0000
0010
0000
0100
0000
0001
0000
,
2000
0000
0000
0000
3000
0100
0010
0100
,
1000
0100
0002
0000
0000
0103
0010
0000
0001
0000
0100
0000
1000
0100
0001
0000
,
0001
0100
2000
0000
0000
3100
0010
1000
0001
0010
0100
0000
1000
0010
0100
0010
,
1000
0000
0001
0010
0001
0000
0010
0000
0100
0000
1000
0000
0010
0000
0001
0000
,
0010
0000
1000
0000
0001
0000
0011
0000
0110
0000
0100
1000
0010
0000
0100
0000
,
0001
0010
2000
0000
0000
3010
0100
0000
1000
0000
0010
0000
0001
0010
1000
0000
,
1000
0010
0002
0000
0000
0013
1000
0001
0010
0100
0001
0000
0001
0100
1000
0001
,
0100
0000
0010
1000
0010
0000
0001
0000
1000
0000
0100
0010
0100
0000
0010
0000
,
1010
0000
1000
0000
0100
0000
0110
0000
0110
0000
0011
0000
0011
0000
1000
0001
,
1001
0000
0000
0000
1000
0001
0100
0010
0100
0000
0010
0000
1000
0000
0010
0001
,
0010
0000
1000
0000
0001
0000
1000
0001
0010
0100
1000
0000
0010
0100
0001
0100
,
0020
0000
0000
1030
0100
1000
0001
0010
0100
1000
0010
0000
0100
0000
0101
0000
,
0001
0000
0100
0010
0100
0001
1000
0100
0010
0001
1000
0001
0010
0000
0110
0000
,
1001
0000
0000
0000
0001
1000
0100
0010
0100
0000
0010
0000
0001
0000
0010
1000
,
0010
0000
0001
0000
1000
0000
0010
0100
1000
0100
0001
0000
0010
0001
1000
0010
,
0200
0000
0000
0301
0010
0001
1000
0010
0100
0001
1000
0001
0100
0000
0010
0000
,
1000
0100
0000
0010
0000
0100
0010
0001
0000
0001
1000
0010
0200
0000
0301
0000
;

//---------------dance-single - ----------------
#NOTES:
     dance-single:
     :
     Hard:
     11:
     0.369318,0.376716,0.037879,0.113636,0.194129,273.000000,269.000000,4.000000,12.000000,0.000000,0.000000,0.369318,0.376716,0.037879,0.113636,0.194129,273.000000,269.000000,4.000000,12.000000,0.000000,0.000000:
0000
0000
0000
0000
,
0000
0000
0000
0000
,
0000
0000
0000
0000
,
0000
0000
0000
0000
,
0000
0000
0000
0000
0001
0000
1000
0010
1000
0000
0100
0000
0000
0000
0100
0000
,
0010
0000
0000
0001
0000
0000
0100
0000
0010
0000
0000
1000
0000
0000
0001
0000
,
0010
0000
0000
0100
0000
0000
1000
0000
0001
0000
0010
0000
0001
0000
1000
0000
,
0010
0000
0000
0100
0000
0000
0010
0000
1000
0000
0001
0000
0020
0000
0000
0000
,
0130
0000
0000
0000
1000
0000
0001
0010
0001
0000
0100
0000
0000
0000
0010
0000
,
1000
0000
0000
0001
0000
0000
0100
0000
0000
0000
0010
0000
0100
0000
0010
0000
,
1000
0000
0000
0001
0000
0000
0010
0000
0200
0000
0000
0000
0320
0000
0000
0000
,
0032
0000
0000
0000
1003
0010
0100
0001
,
0011
0000
0000
0000
0010
0000
0100
1000
0100
0000
0010
0000
0001
0000
0000
1000
,
0000
0001
0100
0010
0001
0010
1000
0001
,
0010
0000
0000
0010
0100
0000
1000
0000
0100
0000
0010
0000
0001
0000
1000
0000
,
0010
0000
0000
0010
0100
0000
0010
0000
1000
0000
0001
0000
0010
0000
0100
0000
,
1100
0000
0000
0000
0010
0000
0100
0001
0100
0000
0010
0000
1000
0000
0000
0001
,
0000
1000
0010
0100
1000
0100
0001
0010
,
0100
0000
0000
0100
0010
0000
0001
0000
1000
0000
0010
0000
0100
0000
0001
0000
,
1000
0100
0000
0010
0000
0000
0010
0001
0000
0001
0010
0000
0100
0000
1000
0000
,
0001
0000
0000
1000
0000
0000
0001
0000
0020
0000
0000
0000
0230
0000
0000
0000
,
2300
0000
3010
0100
0010
1000
0010
1000
,
0100
0000
0000
0010
0000
0000
0001
0000
0000
0000
0001
0000
0000
0010
0000
0000
,
0200
0000
0000
0000
0000
0000
0000
0000
1300
0000
0000
0010
0000
0000
1000
0000
,
0001
0000
0000
0100
0000
0000
0001
0000
0010
0000
0000
0000
0200
0000
0000
0000
,
2300
0000
0000
0000
3000
0001
1000
0010
,
0100
0010
0100
0000
0000
0000
0100
0000
0001
0000
0100
0000
0010
0000
1000
0000
,
0001
1000
0001
0000
0000
0000
0010
0000
0100
0000
1000
0000
0100
0000
1000
0000
,
0000
0001
0010
0001
0100
0010
1000
0001
,
0010
0100
1000
0010
0010
1000
0010
0100
,
0010
1000
0010
0000
0000
0000
0010
0000
1000
0000
0001
0000
1000
0000
0010
0000
,
0100
0001
0100
0000
0000
0000
0001
0000
0010
0000
0100
0000
0100
0000
1000
0000
,
0000
0100
1000
0100
0010
0001
1000
0010
,
0100
0000
0001
0000
0100
0000
0010
0000
1000
0000
0001
0000
0010
0000
0010
0100
,
0010
0000
0000
0000
0001
0000
1000
0001
1000
0000
0010
0000
0100
0000
0010
2000
,
0000
0000
3001
0000
0000
0000
0001
0000
0010
0100
1000
0000
0001
0000
0010
0000
,
0110
0000
0000
0000
0100
0000
1000
0000
0001
1000
0001
0000
0100
0000
0010
0000
,
0100
0000
0001
0000
0001
0000
1000
0000
0010
0000
1000
0001
1000
0000
0100
0000
,
0100
0000
0000
0000
1000
0000
0001
1000
0001
0000
0100
0000
0010
0000
0100
0002
,
0000
0000
1003
0000
0000
0000
1000
0000
0010
1000
0001
0000
0100
0000
0001
0000
,
1001
0000
1000
0010
1000
0001
0010
0100
,
1000
0010
0000
1000
0000
0000
0001
0100
0000
0100
0001
0000
0010
0000
0100
0000
;

//---------------dance-single - ----------------
#NOTES:
     dance-single:
     :
     Medium:
     8:
     0.271916,0.277580,0.056818,0.009470,0.071023,201.000000,195.000000,6.000000,1.000000,0.000000,0.000000,0.271916,0.277580,0.056818,0.009470,0.071023,201.000000,195.000000,6.000000,1.000000,0.000000,0.000000:
0000
0000
0000
0000
,
0000
0000
0000
0000
,
0000
0000
0000
0000
,
0000
0000
0000
0000
,
0000
0000
1000
0010
1000
0001
0000
0100
,
0001
0000
0000
0001
0000
0000
0000
0000
1000
0000
0000
1000
0000
0000
0000
0000
,
0100
0000
0000
0100
0000
0000
0000
0000
0010
0000
0001
0000
0010
0000
0100
0000
,
0010
0000
0000
0010
0000
0000
0000
0000
0001
0000
1000
0000
0010
0000
0000
0000
,
0000
0000
0001
0100
0001
1000
0000
0100
,
0010
0000
0000
0010
0000
0000
0001
0000
0000
0000
0001
0000
1000
0000
0000
0000
,
0010
0000
0000
0010
0000
0000
1000
0000
0001
0000
0000
0000
0010
0000
0000
0000
,
0200
0000
0300
0000
,
1001
0000
0000
0000
0001
0000
0010
0000
0100
0000
0010
0000
0001
0000
0000
1000
,
0000
1000
0000
1000
0010
1000
0001
0000
,
0100
0000
0000
0100
0000
0000
0000
0000
1000
0000
0001
0000
0100
0000
0000
0000
,
0010
0000
0000
0010
0000
0000
0000
0000
0100
0000
0001
0000
1000
0000
0000
0000
,
1001
0000
0000
0000
1000
0000
0010
0000
0100
0000
0010
0000
1000
0000
0000
0001
,
0000
0001
0000
0001
0010
0100
1000
0000
,
0001
0000
0000
0010
0000
0000
0000
0000
0001
0000
1000
0000
0001
0000
0000
0000
,
1000
0000
0000
0100
0000
0000
0000
0000
1000
0000
0010
0000
1000
0000
0000
0000
,
0001
0000
0000
0010
0100
0000
0100
0000
,
1000
0000
0000
0000
0001
1000
0001
0000
,
0100
0000
0000
0100
0000
0010
0000
0000
,
1000
0000
0000
0000
0100
0000
0000
0000
0010
0000
0000
0010
0000
0000
0000
0000
,
0001
0000
0000
0001
0000
0000
0000
0000
1000
0000
0000
0000
0001
0000
0000
0000
,
1000
0000
0000
0000
0000
0010
0100
0010
,
1000
1000
0000
1000
0100
1000
0001
0000
,
0001
0001
0000
0010
0001
1000
0001
1000
,
0000
0010
1000
0000
0010
1000
0001
0000
,
0010
0001
1000
0000
0100
1000
0001
0000
,
0100
0001
0000
1000
0001
1000
0100
0000
,
0010
0001
0000
0010
0100
0010
0001
1000
,
0000
0010
1000
0000
0100
0010
0001
0000
,
0100
0010
1000
0000
0001
0010
0100
0000
,
0110
0000
0010
0001
0010
0000
0100
1000
,
1000
0000
0001
0000
1000
0010
1000
0000
,
0101
0000
0001
0000
1000
0010
1000
0000
,
0001
0000
0010
0000
0100
0010
0100
0000
,
1001
0000
1000
0100
1000
0000
0010
0100
,
0100
0000
0001
0000
0010
0001
0010
0000
,
1100
0000
1000
0000
0001
1000
0010
0100
,
0001
0000
0000
0001
0000
0000
1000
0000
0000
0000
1000
0000
0001
0000
0010
0000
;

//---------------dance-single - ----------------
#NOTES:
     dance-single:
     :
     Easy:
     4:
     0.167749,0.197680,0.047348,0.000000,0.000000,124.000000,119.000000,5.000000,0.000000,0.000000,0.000000,0.167749,0.197680,0.047348,0.000000,0.000000,124.000000,119.000000,5.000000,0.000000,0.000000,0.000000:
0000
0000
0000
0000
,
0000
0000
0000
0000
,
0000
0000
0000
0000
,
0000
0000
0000
0000
,
0000
1000
0001
0000
,
0010
0000
0100
0000
,
0100
0000
1000
0000
,
0010
1000
1000
0001
,
0000
0001
1000
0000
,
0100
0000
0010
0010
,
0010
0000
0001
1000
,
0001
0000
0100
0010
,
1001
1000
0010
1000
,
0001
0000
0001
0010
,
0100
0000
0010
0100
,
0010
0000
0100
1000
,
0001
1000
0001
1000
,
0010
0000
1000
0010
,
0100
0000
0001
1000
,
0010
0000
1000
0001
,
1000
0010
1000
0100
,
0010
0000
0100
0100
,
0100
0000
0010
0000
,
0001
1000
0001
0100
,
0010
0100
0010
1000
,
0001
0000
0000
0000
,
0110
0000
0010
0100
,
0100
0000
0010
1000
,
0001
0010
0100
0010
,
0001
1000
0010
0010
,
0110
0000
0100
0100
,
0001
0000
0100
0001
,
1000
0100
0010
0001
,
1000
1000
0001
0001
,
1001
1000
0010
1000
,
0100
0000
0010
0100
,
0010
0000
0001
0010
,
0100
0000
1000
0001
,
1001
1000
0010
0100
,
0010
0000
1000
0001
,
0010
0000
0100
0010
,
0001
0000
1000
0001
;

//---------------dance-single - ----------------
#NOTES:
     dance-single:
     :
     Beginner:
     1:
     0.112284,0.155303,0.085227,0.000000,0.000000,83.000000,74.000000,9.000000,0.000000,0.000000,0.000000,0.112284,0.155303,0.085227,0.000000,0.000000,83.000000,74.000000,9.000000,0.000000,0.000000,0.000000:
// measure 0
0000
0000
0000
0000
,  // measure 1
0000
0000
0000
0000
,  // measure 2
0000
0000
0000
0000
,  // measure 3
0000
0000
0000
0000
,  // measure 4
1000
0000
0000
0000
,  // measure 5
0001
0000
0000
0000
,  // measure 6
0010
0000
0000
0000
,  // measure 7
0001
0000
1000
0000
,  // measure 8
0001
0000
0000
0000
,  // measure 9
0100
0000
0000
0000
,  // measure 10
0010
0000
0010
0000
,  // measure 11
0010
0000
0100
0000
,  // measure 12
1001
0000
1000
0000
,  // measure 13
0001
0000
0010
0010
,  // measure 14
0000
0100
0100
0000
,  // measure 15
0000
0010
0010
0000
,  // measure 16
1001
0000
1000
0000
,  // measure 17
0001
0000
0100
0100
,  // measure 18
0000
0001
0001
0000
,  // measure 19
0000
1000
1000
0000
,  // measure 20
0001
0000
0010
0000
,  // measure 21
0001
0000
0000
0000
,  // measure 22
1000
0000
0100
0000
,  // measure 23
1000
0000
0000
0000
,  // measure 24
0001
0000
1000
0000
,  // measure 25
0001
0000
0000
0000
,  // measure 26
0110
0000
0010
0010
,  // measure 27
0010
0000
0100
0100
,  // measure 28
0000
0001
0000
1000
,  // measure 29
0000
0001
0001
0000
,  // measure 30
1001
0000
1000
0000
,  // measure 31
0100
0000
0010
0010
,  // measure 32
0000
0100
0000
1000
,  // measure 33
1000
0000
0001
0000
,  // measure 34
1001
0000
1000
1000
,  // measure 35
1000
0000
0010
0000
,  // measure 36
0110
0000
0100
0000
,  // measure 37
1000
0000
0001
0000
,  // measure 38
1001
0000
0001
0001
,  // measure 39
0001
0000
0010
0000
,  // measure 40
0110
0000
0100
0000
,  // measure 41
1001
0000
0000
0000
;
