#TITLE:On the Floor;
#SUBTITLE:;
#ARTIST:HOLA!;
#TITLETRANSLIT:;
#SUBTITLETRANSLIT:;
#ARTISTTRANSLIT:;
#GENRE:Tech House;
#CREDIT:;
#MUSIC:On The Floor.ogg;
#BANNER:On The Floor.png;
#BACKGROUND:On The Floor-bg.png;
#CDTITLE:;
#SAMPLESTART:16.682;
#SAMPLELENGTH:15.238;
#SELECTABLE:YES;
#OFFSET:0.461;
#BPMS:0.000=126.000;
#STOPS:;
#BGCHANGES:;
#FGCHANGES:;

//--------------- dance-single - NOWHERE Dance Club ----------------
#NOTES:
     dance-single:
     NOWHERE Dance Club:
     Easy:
     4:
     0,0,0,0,0:
0000
0000
0000
0000
,
0000
0000
0000
0000
,
0000
0000
0000
0000
,
0000
0000
0000
0000
,
0000
0000
0000
0000
,
1000
0000
0001
0000
,
1000
0000
0001
0000
,
0010
0000
0100
0000
,
0010
0000
0100
0000
,
0010
0001
2000
3000
,
0001
1000
0200
0300
,
0010
0001
0020
0030
,
0100
1000
0001
0001
,
0100
0000
0010
0010
,
2000
3000
0010
1000
,
0001
0001
1000
1000
,
0001
0000
1000
0000
0001
1000
0100
0000
,
0020
0030
0002
0003
,
0001
0100
0010
1000
,
2000
3000
0200
0300
,
0020
0030
0001
1000
,
0010
1000
0001
1000
,
0100
0100
1000
0001
,
0010
0000
0100
0000
0010
0100
0010
0000
,
0001
1000
0001
0010
,
0200
0000
0000
0310
,
0000
0000
0001
1000
,
0020
0000
0030
0100
,
0010
0000
1000
0001
,
0010
0100
0000
0010
,
0001
1000
0001
0100
,
0020
0030
1000
0001
,
0010
0000
0220
0330
,
0000
1000
0000
0000
,
0000
0001
0000
0000
,
0000
0010
0000
0000
,
0000
0100
0000
0000
,
0000
1000
0000
0000
,
0000
0001
0100
0100
,
0010
0000
1000
0000
,
0001
0000
1000
0000
0001
1000
0001
0000
,
0010
0000
0100
0000
,
0010
0000
0001
1000
,
0100
0000
1000
0000
,
0001
0000
0010
0100
,
0010
0000
0001
1000
,
0000
0000
0010
0100
,
0000
0000
0001
1000
,
0000
0000
0100
0100
,
0010
0000
0000
0000
,
0010
0000
0000
0000
,
0010
0000
0000
0000
,
0010
0000
0000
0000
,
0100
0100
0010
0010
,
0100
0100
0010
0010
,
0100
0010
0100
0010
,
0100
0000
1000
0001
,
1001
0000
0110
0000
,
1001
0000
0110
0000
,
1000
0100
0010
0001
,
1000
0001
0100
0100
,
0100
0000
0010
0100
,
0010
0000
1000
0010
,
1000
0000
0001
1000
,
0001
0000
0200
0300
,
0010
0000
1000
0000
,
0001
0000
0010
0000
,
0100
0000
1000
0000
,
0001
0000
0010
0000
,
0100
0000
0000
0000
1000
0100
1000
0000
,
0000
0000
0000
0000
0001
0100
0001
0000
,
0000
0000
0000
0000
1000
0100
1000
0000
,
0000
0000
0000
0000
0100
0000
0010
0010
;

//--------------- dance-single - NOWHERE Dance Club ----------------
#NOTES:
     dance-single:
     NOWHERE Dance Club:
     Medium:
     7:
     0,0,0,0,0:
0000
0000
0000
0000
,
0000
0000
0000
0000
,
0000
0000
0000
0000
,
0000
0000
0000
0000
,
0000
0000
0000
0000
,
1000
0000
1000
0000
,
0001
0000
0001
0000
,
1000
0000
1000
0000
,
0010
1000
0010
0100
,
0220
0330
2020
3030
,
0001
0000
1001
0000
1000
0100
0010
0000
,
0001
0010
0100
1000
,
0001
0000
0100
0000
0010
0100
0010
0000
,
1000
0001
0200
0310
,
1000
0100
0020
0130
,
0010
0001
0010
0000
0001
1000
0001
0000
,
1000
0002
1003
1100
,
0002
1003
2000
3001
,
0100
0000
0010
0000
2000
0000
0100
3100
,
0000
0000
0010
0001
0100
0000
0020
0000
,
1030
0000
1000
0000
0200
0310
0020
0031
,
0001
0000
1000
0000
0001
1000
0100
0000
,
1000
0000
0001
0000
1000
0001
0010
0000
,
0001
1000
0001
0000
1000
0001
0100
0000
,
0010
1000
0010
0200
,
0002
0000
0000
0000
0303
0000
1000
0001
,
1000
0010
1000
0020
,
0130
0000
0100
0010
,
1001
0000
0000
0000
1000
1000
0001
0001
,
0100
0000
0000
0000
0010
0000
1000
0010
,
1000
0001
0100
0020
,
1030
0000
0001
0000
2000
0010
3020
0100
,
0230
0300
2002
3003
,
0000
0011
0000
0000
,
0000
1001
0000
0000
,
0000
1010
0000
0000
,
0000
1100
0000
0000
,
0000
1001
0000
1001
,
0002
0103
0200
0310
,
2000
0000
3010
0000
0200
0001
0301
0000
,
1000
0000
0001
0000
1000
0001
0010
0000
,
0100
0100
0010
0010
,
0001
0000
0001
0000
1000
0000
0100
0100
,
0000
1000
0010
0001
,
0010
1000
0200
0310
,
0001
0000
0001
0000
1000
0001
0100
0000
,
0010
1000
0001
1100
,
1000
0000
0010
0000
1000
0001
0100
0000
,
0020
0000
1000
0000
1030
0000
0001
1000
,
0002
0000
0000
0000
0000
0000
0000
1000
,
2003
0000
0000
0000
0000
0000
0000
0010
,
3020
0000
0000
0000
0000
0000
0000
0100
,
0230
0000
0000
0000
0000
0000
0000
0010
,
0310
0010
0010
0010
,
1000
0001
1000
0001
,
0100
0010
1000
0100
,
0020
0031
2001
3002
,
0103
0000
0010
0000
1000
1000
1001
0000
,
0100
0110
0010
0011
,
0001
0100
0001
1000
,
0001
0000
0100
0000
0010
0100
0010
0100
,
0010
1000
0100
0010
,
0001
0000
1000
0000
0010
0010
1010
0000
,
0001
1000
0001
1000
0100
0010
0100
0010
,
0001
0100
0010
0100
0020
0000
1030
0000
,
1000
1001
0001
0011
,
0020
0000
0130
0000
1000
0000
0100
1000
,
0000
1000
0001
1000
,
0010
1000
0200
0310
,
0001
2000
0100
3100
,
0010
0001
0100
0000
0020
0000
1030
0000
,
0100
0010
0100
0010
0001
0001
1001
0000
,
1000
0000
0001
1000
0200
0000
0310
0001
;

//--------------- dance-single - NOWHERE Dance Club ----------------
#NOTES:
     dance-single:
     NOWHERE Dance Club:
     Hard:
     11:
     0,0,0,0,0:
0000
0000
0000
0000
,
0000
0000
0000
0000
,
0000
0000
0000
0000
,
0000
0000
0000
0000
,
0000
0000
0000
0000
,
2000
0000
0000
0000
,
3002
0000
0000
0000
,
0203
0000
0000
0000
,
0310
0010
0010
1001
,
1000
1000
0100
0000
0010
0010
0001
0000
,
0200
0000
0310
0000
0100
0010
0110
0000
,
0001
0010
0100
1000
,
0001
0001
0100
0100
0010
0100
0010
0000
,
1000
0000
0000
0001
0000
0000
0001
0000
1000
0000
0001
0000
0010
0000
0100
0000
,
0010
0000
0000
0001
0000
0000
0001
0000
0020
0000
0000
0000
0130
0000
0000
0000
,
1000
0000
0010
0000
1000
1000
0001
0001
,
0100
0001
1000
0001
0100
0010
0010
0000
,
0100
0000
0001
0001
0010
0000
0100
0000
,
1000
0010
1000
0000
0100
1000
0010
0200
,
0300
0000
0001
0010
0100
1000
0001
0100
,
0001
0000
0010
0001
1001
0000
1010
0000
,
1000
0000
0001
0000
1000
0001
0100
0000
,
0010
0000
0100
0000
0001
1000
0010
0000
,
0100
0000
0010
0000
1000
0001
0100
0000
,
0010
0000
0000
1000
0001
0000
0100
0000
0001
0000
0000
0002
0000
0000
0103
0000
,
0010
1000
0000
0010
0000
0000
0000
0000
1000
0000
0000
0000
0001
1000
0001
1000
,
0001
0000
0010
0000
0001
1000
0010
0000
,
0220
0000
0330
0000
0001
0000
0000
0000
0010
0000
0000
0000
0001
0100
0001
1000
,
0020
0030
1000
0000
0010
0010
0100
0100
,
0001
0000
0000
0000
0010
0000
0000
0000
0100
0000
0000
0000
0010
0001
0100
0010
,
0100
0000
0001
0000
1000
0100
1000
0010
,
0100
0000
0000
0000
0001
0000
0000
0000
1000
0001
1000
0000
1000
0010
1000
0000
,
0200
0000
0310
0000
0002
0100
0103
0000
,
0000
0000
0001
0000
0100
0010
0000
0000
0000
0000
0000
0000
0000
0000
0000
0000
,
0000
0000
1000
0000
0100
0010
0000
0000
0000
0000
0000
0000
0000
0000
0000
0000
,
0000
0000
0001
0000
0100
0010
0000
0000
0000
0000
0000
0000
0000
0000
0000
0000
,
0000
0000
1000
0000
0100
0010
0000
0000
0000
0000
0000
0000
0000
0000
0000
0000
,
0000
0000
0001
0000
0100
0010
0000
0000
0000
0000
0000
0000
1010
0000
0000
0000
,
0000
0000
1000
0000
0100
0010
0000
0000
0002
0000
0000
0000
1003
0000
0000
0000
,
1010
1100
0011
0101
,
0001
0000
0010
0000
0100
0000
1000
0000
0100
0000
1000
0001
0010
0000
0000
0000
,
0011
0000
0001
0100
0010
0000
1010
0000
,
1000
0010
0100
0001
0010
0100
1000
0002
,
0003
0001
0011
1000
,
1010
0010
0110
1001
,
0010
0000
1000
0000
0001
1000
0010
0000
,
1000
1000
0001
0001
1000
0001
0100
0000
,
0001
0000
1000
0000
0001
1000
0010
0000
,
1000
0000
0000
0001
1000
0000
0010
0000
1000
0000
0020
0000
0000
0000
0000
0000
,
2030
0000
0000
0100
0000
0000
0100
0000
0000
0000
3100
0000
0000
0000
2000
0000
,
0000
0000
0000
3002
0000
0000
0100
0000
0000
0000
0103
0000
0000
0000
0002
0000
,
0000
0000
0000
0203
0000
0000
0010
0000
0000
0000
0310
0000
0000
0000
2000
0000
,
0000
0000
0000
3002
0000
0000
0010
0000
0000
0000
0013
0000
0000
0000
1000
0000
,
0001
0000
0000
0100
0000
0000
0001
0000
0000
0000
0011
0000
0000
0000
0001
0000
,
1000
0000
0000
0100
0000
0000
1000
0000
0000
0000
1010
0000
0000
0000
0010
0000
,
1000
0000
0100
0000
1000
0000
0001
0000
1000
0001
1000
0001
0010
0001
0010
0001
,
0020
0000
0001
0031
,
0010
0000
0000
0001
0100
0000
0000
0000
0010
0000
0000
0000
1010
0000
0000
0000
,
1100
0000
0000
0001
1000
0000
0001
0000
0101
0000
0000
0000
0002
0000
1003
0000
,
0100
0000
0000
0010
0001
0000
1000
0000
0001
0000
0100
0000
0010
0000
0100
0000
,
0002
0000
0103
0000
0010
0010
0010
0010
,
0100
0000
1001
0000
0001
0100
0110
0000
,
1010
0000
1001
0000
0001
2000
3010
0000
,
1000
0001
0020
0000
0031
0100
0020
0000
,
1030
1000
0001
0010
1000
0010
0001
0000
,
1001
0100
0011
1000
,
0001
0010
0100
1000
0010
0100
0001
2000
,
3000
0000
1000
0010
1000
0100
0010
0001
,
0100
0001
0010
0100
0020
0000
0031
0000
,
1000
0001
0100
0001
1000
0001
0100
0000
,
0010
1000
0100
0001
0100
1000
0001
0000
,
0001
1000
0100
1000
0001
1000
0100
0000
,
0010
0000
0001
0000
1000
0000
0100
0000
0020
0000
0000
0001
0000
0000
0031
0000
;

//--------------- dance-single - NOWHERE Dance Club ----------------
#NOTES:
     dance-single:
     NOWHERE Dance Club:
     Challenge:
     13:
     0,0,0,0,0:
0000
0000
0000
0000
,
0000
0000
0000
0000
,
0000
0000
0000
0000
,
0000
0000
0000
0000
,
0000
0000
0000
0000
,
0000
0000
0001
0000
0010
0100
0000
0000
0000
0000
0000
0000
0000
0000
0000
0000
,
0000
0000
1000
0000
0010
0100
0000
0000
0000
0000
0000
0000
0000
0000
0000
0000
,
0000
0000
0001
0000
0010
0100
0000
0000
0000
0000
0000
0000
0000
0000
0000
0000
,
0000
0000
1000
0000
0010
0100
0000
0000
0000
0000
0000
0000
0110
0000
0000
0000
,
0002
0000
0000
1003
0000
0000
0100
0000
0010
0000
0001
0000
0100
0000
0010
0000
,
0200
0000
0000
0301
0000
0000
1000
0000
0001
0000
0100
0000
0110
0000
0000
0000
,
0002
0000
0000
0013
0000
0000
0100
0000
1000
0000
0010
0000
1000
0000
0100
0000
,
0010
0000
0000
0001
0000
0000
0001
0000
0100
0000
0000
0100
0000
0000
0010
0000
,
0200
0000
0000
0310
0000
0000
0010
0000
1000
0000
0001
0000
0100
0000
0010
0000
,
0200
0000
0000
0301
0000
0000
0100
0000
0020
0000
1000
0000
1030
0000
0000
0000
,
0001
0000
0011
0000
1000
1000
1010
0000
,
1000
0000
0000
0010
0000
0000
0001
0000
0010
0000
1000
0001
0100
0000
0000
0000
,
0020
0000
1030
0100
0020
0000
0031
0000
,
0010
0001
0100
0010
1000
0001
1000
2020
,
0000
3030
0000
0000
0001
0000
0001
0000
0010
0000
0001
0000
0100
0000
0010
0000
,
1000
1000
0010
1000
0020
0000
1030
0000
,
0100
0000
1000
0000
0001
0000
1000
0000
0100
0000
0010
0001
1000
0000
0000
0000
,
0010
0000
1000
0000
0001
0000
1000
0000
0100
0000
0010
0001
1000
0000
0000
0000
,
0001
0000
1000
0000
0001
0000
0100
0000
0001
0000
0010
0001
1000
0000
0000
0000
,
0001
0100
0010
2000
0001
0000
3001
0000
,
0010
0001
0010
0000
0001
1000
0001
0000
1000
0010
1000
0000
0010
0100
0010
0100
,
0002
0000
1003
0000
1000
0010
0001
0010
,
1000
0000
0000
0001
0010
0000
0001
0000
0100
0000
0010
0000
1000
0100
0010
0100
,
1000
0000
0000
0001
1000
0000
0001
0000
0010
0000
0001
0000
0100
0000
0001
0000
,
0100
0000
0000
0010
1000
0000
0100
0000
0010
0000
0001
0000
0100
0010
1000
0100
,
0010
0000
0000
0001
0100
0000
0010
0000
1000
0000
1000
0000
0001
0000
0001
0000
,
0100
0000
0000
0010
1000
0000
0000
0000
0010
1000
0010
1000
0001
1000
0001
1000
,
0100
0000
0000
0010
0001
0000
0000
0000
0200
0000
0320
0000
2030
0000
3000
0000
,
0000
0000
0001
0000
0010
0100
0000
0000
0000
0000
0000
0000
0000
0000
0000
0000
,
0000
0000
1000
0000
0010
0100
0000
0000
0000
0000
0000
0000
0000
0000
0000
0000
,
0000
0000
0001
0000
0010
0100
0000
0000
0000
0000
0000
0000
0000
0000
0000
0000
,
0000
0000
1000
0000
0001
0010
0000
0000
0000
0000
0000
0000
1001
0000
0000
0000
,
0000
0000
0100
0000
0010
1000
0000
0000
0000
0000
0000
0000
0110
0000
0000
0000
,
0000
0000
0010
0000
1000
0100
0000
0000
0020
0000
0000
0000
0130
0000
0000
0000
,
1000
0100
0010
0000
0100
0010
0002
0000
,
0013
0000
0001
0000
1000
0000
0001
0000
0100
0000
0001
1000
0010
0000
0000
0000
,
2000
0000
3001
0001
0200
0000
0310
0000
,
1000
0100
0010
0001
0010
0001
0100
0010
,
0000
0000
0100
0000
0010
1000
0000
0000
0001
0000
0000
0000
1000
0000
0000
0000
,
0010
0000
1000
0000
0010
1000
0000
0000
0001
0000
0000
0000
0001
0000
0000
0000
,
0010
0010
0100
0100
1000
0001
1001
0000
,
0001
0000
1000
0000
0001
1000
0000
0000
0010
0000
0010
0000
1010
0000
0000
0000
,
0001
0000
0100
0000
0010
1000
0000
0000
0001
0000
0001
0000
0011
0000
0000
0000
,
0010
0000
0000
0001
1000
0000
0010
0000
1000
0000
0020
0000
0000
0000
0000
0000
,
1030
0000
0000
2000
0000
0000
0100
0000
0000
0000
3100
0000
0000
0000
0020
0000
,
0000
0000
0000
0032
0000
0000
0100
0000
0000
0000
0103
0000
0000
0000
0020
0000
,
0000
0000
0000
2030
0000
0000
0100
0000
0000
0000
3100
0000
0000
0000
1000
0000
,
0000
0000
0000
0020
0000
0000
0001
0000
0000
0000
1030
0000
0000
0000
2000
0000
,
3001
0000
0100
0001
0000
0000
2000
0000
0000
0000
3100
0000
0000
0000
0001
0000
,
1000
0000
0001
1000
0000
0000
0002
0000
0000
0000
0013
0000
0000
0000
0001
0000
,
1000
0001
1000
0000
0010
1000
0010
0000
0100
0001
0100
0001
0100
0010
1000
0100
,
0020
0000
0001
0031
,
1100
0000
0011
0000
0101
0010
1010
0000
,
1001
0000
1010
0000
1100
1000
1001
0000
,
1000
0000
0001
0100
0010
0000
1000
0000
0001
0000
1000
0001
0010
0000
0001
0000
,
0100
0000
0010
1000
0100
0000
0010
0000
0001
0000
0001
0000
0010
0000
0010
0000
,
0011
0000
1001
0000
0001
0100
0110
0000
,
0100
0000
1001
0000
0001
0010
0011
0000
,
0001
1000
0001
0000
0100
0001
0100
0000
0010
0000
0010
0000
1000
0000
0001
0000
,
0100
0001
0100
0001
1000
0001
1000
0001
2000
0000
3002
0000
0013
0000
0000
0000
,
1001
0000
0001
0100
0020
0000
1030
0001
,
1000
0000
0100
0001
0100
0000
1000
0000
0001
0000
0010
0000
0001
0000
2002
0000
,
3003
0000
0000
0000
0001
0000
0001
0000
0010
0000
0100
0010
0001
0000
0100
0000
,
0010
0000
0100
0010
0100
0000
0001
0000
1000
0000
0010
0000
0100
0000
0001
0000
,
1000
1000
0100
1000
0001
1000
0100
0000
,
0010
0000
0001
0100
0010
0000
0100
0000
0010
0000
1000
0100
0010
0000
0000
0000
,
0001
0001
0100
0010
1000
0001
0100
0000
,
0010
0000
1000
0000
0001
0000
0100
0000
0020
0000
0000
1030
0000
0000
2000
0000
,
3000
0000
0000
0000
;
