#VERSION:0.83;
#TITLE:OUTERHEΛVEN;
#SUBTITLE:;
#ARTIST:Juggernaut.;
#TITLETRANSLIT:;
#SUBTITLETRANSLIT:;
#ARTISTTRANSLIT:;
#GENRE:Sound Voltexcore;
#ORIGIN:;
#CREDIT:;
#BANNER:OUTERHEAVEN.png;
#BACKGROUND:OUTERHEAVEN-bg.png;
#PREVIEWVID:;
#JACKET:OUTERHEAVEN-jacket.png;
#CDIMAGE:;
#DISCIMAGE:;
#LYRICSPATH:;
#CDTITLE:cdtitle.png;
#MUSIC:OUTERHEAVEN.ogg;
#OFFSET:-0.436870;
#SAMPLESTART:78.151199;
#SAMPLELENGTH:18.285713;
#SELECTABLE:YES;
#DISPLAYBPM:105.000000:210.000000;
#BPMS:0.000=210.000,
33.500=420.000,
34.500=210.000,
40.500=420.000,
41.500=210.000,
47.500=420.000,
48.500=210.000,
89.000=472.500,
95.750=210.000,
96.000=420.000,
96.500=210.000,
96.750=105.000,
97.000=210.000,
98.000=420.000,
98.500=210.000,
98.750=105.000,
99.000=210.000,
100.000=420.000,
100.500=210.000,
100.750=105.000,
101.000=210.000,
102.000=420.000,
104.000=105.000,
104.250=210.000,
104.500=420.000,
105.000=210.000,
112.000=420.000,
112.500=210.000,
112.750=105.000,
113.000=210.000,
114.000=420.000,
114.500=210.000,
114.750=105.000,
115.000=210.000,
116.000=420.000,
116.500=210.000,
116.750=105.000,
117.000=210.000,
118.000=420.000,
120.000=105.000,
120.250=210.000,
120.500=420.000,
121.000=210.000,
128.000=420.000,
128.500=210.000,
128.750=105.000,
129.000=210.000,
130.000=420.000,
130.500=210.000,
130.750=105.000,
131.000=210.000,
132.000=420.000,
132.500=210.000,
132.750=105.000,
133.000=210.000,
134.000=420.000,
136.000=105.000,
136.250=210.000,
136.500=420.000,
137.000=210.000,
144.000=420.000,
144.500=210.000,
144.750=105.000,
145.000=210.000,
146.000=420.000,
146.500=105.000,
146.750=210.000,
148.000=420.000,
148.500=105.000,
148.750=210.000,
150.000=420.000,
150.500=105.000,
150.750=210.000,
174.000=420.000,
188.000=840.000,
192.000=420.000,
204.000=840.000,
208.000=420.000,
220.000=840.000,
224.000=420.000,
240.000=105.000,
269.750=210.000,
332.000=105.000,
334.000=210.000,
366.000=420.000,
367.000=210.000,
399.500=420.000,
400.000=210.000,
400.250=105.000,
400.500=210.000,
407.500=420.000,
408.000=210.000,
408.250=105.000,
408.500=210.000;
#STOPS:34.500=0.429,
41.500=0.429,
48.500=0.429,
95.750=0.214,
102.000=0.071,
102.500=0.071,
103.000=0.071,
103.500=0.071,
118.000=0.071,
118.500=0.071,
119.000=0.071,
119.500=0.071,
134.000=0.071,
134.500=0.071,
135.000=0.071,
135.500=0.071,
174.000=0.107,
174.750=0.107,
175.500=0.071,
188.000=0.071,
189.000=0.036,
189.500=0.071,
190.500=0.036,
191.000=0.071,
204.000=0.036,
204.500=0.071,
205.500=0.036,
206.000=0.071,
207.000=0.036,
207.500=0.036,
220.000=0.071,
221.000=0.036,
221.500=0.071,
222.500=0.036,
223.000=0.071,
269.750=0.643,
366.000=0.143,
426.000=0.857;
#DELAYS:;
#WARPS:;
#TIMESIGNATURES:0.000=4=4;
#TICKCOUNTS:0.000=4;
#COMBOS:0.000=1;
#SPEEDS:0.000=1.000=0.000=0;
#SCROLLS:0.000=1.000,
176.000=0.500,
240.000=1.000,
256.000=1.500,
269.750=1.000;
#FAKES:;
#LABELS:0.000=Song Start;
#BGCHANGES:;
#KEYSOUNDS:;
#ATTACKS:
;

//---------------dance-single - ----------------
#NOTEDATA:;
#CHARTNAME:;
#STEPSTYPE:dance-single;
#DESCRIPTION:;
#CHARTSTYLE:;
#DIFFICULTY:Hard;
#METER:17;
#RADARVALUES:0.912504,1.104692,0.552691,0.639543,0.667177,809.000000,739.000000,70.000000,81.000000,0.000000,0.000000,10.000000,0.000000,0.000000,0.912504,1.104692,0.552691,0.639543,0.667177,809.000000,739.000000,70.000000,81.000000,0.000000,0.000000,10.000000,0.000000,0.000000;
#CREDIT:;
#OFFSET:-0.436870;
#BPMS:0.000000=210.000000
,33.500000=420.000000
,34.500000=210.000000
,40.500000=420.000000
,41.500000=210.000000
,47.500000=420.000000
,48.500000=210.000000
,89.000000=472.500000
,95.750000=210.000000
,96.000000=420.000000
,96.500000=210.000000
,96.750000=105.000000
,97.000000=210.000000
,98.000000=420.000000
,98.500000=210.000000
,98.750000=105.000000
,99.000000=210.000000
,100.000000=420.000000
,100.500000=210.000000
,100.750000=105.000000
,101.000000=210.000000
,102.000000=420.000000
,104.000000=105.000000
,104.250000=210.000000
,104.500000=420.000000
,105.000000=210.000000
,112.000000=420.000000
,112.500000=210.000000
,112.750000=105.000000
,113.000000=210.000000
,114.000000=420.000000
,114.500000=210.000000
,114.750000=105.000000
,115.000000=210.000000
,116.000000=420.000000
,116.500000=210.000000
,116.750000=105.000000
,117.000000=210.000000
,118.000000=420.000000
,120.000000=105.000000
,120.250000=210.000000
,120.500000=420.000000
,121.000000=210.000000
,128.000000=420.000000
,128.500000=210.000000
,128.750000=105.000000
,129.000000=210.000000
,130.000000=420.000000
,130.500000=210.000000
,130.750000=105.000000
,131.000000=210.000000
,132.000000=420.000000
,132.500000=210.000000
,132.750000=105.000000
,133.000000=210.000000
,134.000000=420.000000
,136.000000=105.000000
,136.250000=210.000000
,136.500000=420.000000
,137.000000=210.000000
,144.000000=420.000000
,144.500000=210.000000
,144.750000=105.000000
,145.000000=210.000000
,146.000000=420.000000
,146.500000=105.000000
,146.750000=210.000000
,148.000000=420.000000
,148.500000=105.000000
,148.750000=210.000000
,150.000000=420.000000
,150.500000=105.000000
,150.750000=210.000000
,174.000000=420.000000
,188.000000=840.000000
,192.000000=420.000000
,204.000000=840.000000
,208.000000=420.000000
,220.000000=840.000000
,224.000000=420.000000
,240.000000=105.000000
,269.750000=210.000000
,332.000000=105.000000
,334.000000=210.000000
,366.000000=420.000000
,367.000000=210.000000
,399.500000=420.000000
,400.000000=210.000000
,400.250000=105.000000
,400.500000=210.000000
,407.500000=420.000000
,408.000000=210.000000
,408.250000=105.000000
,408.500000=210.000000
;
#STOPS:34.500000=0.428572
,41.500000=0.428572
,48.500000=0.428572
,95.750000=0.214285
,102.000000=0.071429
,102.500000=0.071429
,103.000000=0.071429
,103.500000=0.071429
,118.000000=0.071429
,118.500000=0.071429
,119.000000=0.071429
,119.500000=0.071429
,134.000000=0.071429
,134.500000=0.071429
,135.000000=0.071429
,135.500000=0.071429
,174.000000=0.107144
,174.750000=0.107144
,175.500000=0.071427
,188.000000=0.071431
,189.000000=0.035714
,189.500000=0.071431
,190.500000=0.035714
,191.000000=0.071431
,204.000000=0.035714
,204.500000=0.071431
,205.500000=0.035714
,206.000000=0.071431
,207.000000=0.035714
,207.500000=0.035717
,220.000000=0.071431
,221.000000=0.035714
,221.500000=0.071431
,222.500000=0.035714
,223.000000=0.071431
,269.750000=0.642857
,366.000000=0.142860
,426.000000=0.857136
;
#DELAYS:;
#WARPS:;
#TIMESIGNATURES:0.000000=4=4
;
#TICKCOUNTS:0.000000=4
;
#COMBOS:0.000000=1
;
#SPEEDS:0.000000=1.000000=0.000000=0
;
#SCROLLS:0.000000=1.000000
,176.000000=0.500000
,240.000000=1.000000
,256.000000=1.500000
,269.750000=1.000000
;
#FAKES:;
#LABELS:0.000000=Song Start
;
#DISPLAYBPM:105.000000:210.000000;
#NOTES:
0000
0000
0000
0000
,
0000
0000
0000
0000
,
0000
0000
0000
0000
,
0000
0000
0000
0000
,
1001
0000
0000
0000
0001
0010
0001
0010
0001
0000
0000
1100
0000
0000
0010
0000
,
0000
0101
0000
0000
1000
0010
1000
0010
1000
0000
0001
0010
0001
0000
0000
0000
,
1001
0000
0000
0000
0000
0000
0000
0000
0000
0000
0000
0000
1000
0000
0000
0001
0000
0000
1000
0000
0000
0001
0000
0000
1000
0000
0000
0000
0000
0000
0000
0000
1010
0000
0000
0000
0000
0000
0000
0000
0101
0000
0000
0000
0000
0000
0000
0000
,
0001
0010
1000
0001
0100
1000
0001
0000
,
0201
0000
0000
0000
0310
0000
1010
0000
0000
0000
0000
0000
1000
0000
0010
0100
,
0000
0010
1000
0000
0010
0000
0100
0001
0000
0001
0010
0000
1200
0000
0000
0000
,
0310
0000
0011
0000
0000
0000
0000
0000
1000
0100
1000
0000
0001
0100
0001
0000
,
1001
0000
0001
0010
1200
0000
0310
0011
,
0000
0000
0000
0000
0001
0000
0010
0100
0000
0010
0001
0000
0010
0000
0100
1000
,
0000
1000
0010
0000
1020
0000
0000
0000
0130
0000
0101
0000
0000
0000
0000
0000
,
0001
0100
0001
0100
0001
0000
1000
0100
0000
0100
0010
0000
0110
0000
0000
0011
,
0000
1001
1002
0003
0100
0210
0300
0010
,
1010
0000
2001
3000
0100
0210
0300
0010
,
0011
0000
1002
0003
0100
2010
3000
0100
,
0011
0000
1000
0010
0100
0001
0010
0100
,
1000
0000
0001
0001
0100
0100
0010
0010
,
1000
0000
0001
1000
0001
0000
1000
0000
0100
0000
0100
0000
0010
0000
0010
0000
,
0001
0000
1000
0001
2000
0000
0000
0000
3001
0100
0010
1000
0001
0000
1000
0100
,
0000
0100
0010
0000
0220
0000
0000
0000
0000
0000
0000
0000
0000
0000
0000
0000
,
0000
0000
0000
0000
0000
0000
0000
0000
0000
0000
0000
0000
0000
0000
0000
0330
,
1001
0000
0000
0000
0001
0000
0010
0000
0110
0000
0000
0000
0001
0010
0001
0010
,
0100
0000
0000
0000
0001
0010
0001
0010
0002
0000
0203
0000
0320
0000
2030
0000
,
3200
0000
0000
0000
0310
0000
0100
0000
1000
0001
1000
0001
1000
0000
0010
0000
,
0200
0001
0301
0020
0100
0130
1000
0001
,
1001
0000
0000
0000
1000
0000
0010
0000
0110
0000
0000
0000
1000
0010
1000
0010
,
0100
0000
0000
0000
1000
0010
1000
0010
2000
0000
3200
0000
0320
0000
0032
0000
,
0203
0000
0000
0000
0310
0000
0100
0000
0001
1000
0001
1000
0001
0000
0010
0000
,
0100
0000
0001
0000
0100
0000
1000
0000
0010
0000
0010
0000
0100
0001
0100
0000
,
1001
0000
0000
0000
1000
0000
0100
0000
0011
0000
0000
0000
0001
0100
0001
0100
,
0010
0000
0000
0000
1000
0100
1000
0100
0020
0000
0032
0000
2003
0000
3020
0000
,
0230
0000
0000
0000
0310
0000
0100
0000
0001
1000
0001
1000
0001
0000
0010
0000
,
0200
1000
1300
0020
0100
0130
0001
1000
,
1001
0000
0000
0000
0001
0000
0100
0000
1001
0000
0000
0001
1000
0000
0100
0000
,
1001
0000
0000
1000
0001
0000
0100
0000
1001
0000
0000
0001
1000
0000
0100
0000
,
0001
0000
0100
0000
1000
0000
0001
0000
0100
0010
0100
0000
0010
1000
0010
0000
,
2020
0000
3030
2002
0000
3003
0022
0033
,
2200
3300
0001
0010
0000
0010
0100
0000
,
0100
1000
0000
0010
0100
0000
0100
0001
,
2002
3003
1000
0010
0000
0010
0100
0000
,
0100
0000
0001
0000
1000
0000
0100
0000
0110
0000
0000
0011
0000
0000
1001
0000
,
4000
0040
0000
0000
0000
0000
0000
0000
,
0000
0000
0000
0000
,
0000
0000
0000
3030
,
0001
0000
1000
0100
0000
0100
0010
0000
,
0004
0040
0000
0000
0000
0000
0000
0000
,
0000
0000
0000
0000
,
0000
0000
0000
0033
,
0001
0100
0000
0100
0010
0000
1000
0000
,
0004
0040
0000
0000
0000
0000
0033
0000
,
4000
0040
0000
0000
0000
0000
3030
0000
,
0004
0400
0000
0000
0000
0000
0303
0000
,
1000
0000
0100
0010
0000
0010
0001
0000
,
1000
0000
0010
0100
0010
0000
0100
0001
,
0100
0000
0001
1000
0001
0000
0010
0001
,
0010
0000
0100
0010
0100
0000
1000
0001
,
0100
0000
0000
0000
,
0120
0000
0000
2030
0000
0000
0010
0000
3010
0000
0000
0000
1000
0000
0100
0000
,
0120
0000
0000
0032
0000
0000
0010
0000
0013
0000
0000
0000
0001
0000
0010
0000
,
0210
0000
0000
2300
0000
0000
3001
0100
0020
0000
0000
0000
0130
0000
0001
1000
,
0200
0000
0000
0010
0310
0000
0100
0010
0001
0000
0100
0010
1000
0010
1000
0100
,
0020
0000
0001
0001
0000
0031
0010
0100
1000
0001
0000
0001
0000
1000
0010
0100
,
0020
0000
1000
1000
0000
1030
0010
0100
0001
1000
0000
1000
0000
0100
0010
0001
,
0200
0000
0010
0010
0000
0301
0100
0001
1000
1000
0000
0001
0000
1000
0100
0010
,
0200
0000
0010
0010
0000
0301
0100
1000
0002
0000
0000
0000
0000
0000
0000
0000
,
1003
0000
0100
0000
0001
0000
0200
0000
0000
0000
1300
0100
1000
0100
1000
0000
,
0001
0000
1000
0000
0010
0000
0002
0000
0000
0000
0013
0000
1000
0010
1000
0000
,
0001
0000
0010
0000
1000
0000
0020
0000
0000
0000
0031
0010
0001
0010
0001
0000
,
1000
0000
0001
0000
0100
0000
2000
0000
0000
0000
3100
0000
0001
0100
0001
0000
,
1000
0000
0100
0000
0010
0000
2000
0000
0000
0000
3010
0100
0010
0000
0001
0000
,
1000
0001
0100
0020
0000
0031
0010
0100
,
0001
0000
1000
0100
0010
0000
0200
0000
0000
0000
0310
0001
1000
0000
0001
0000
,
0100
0000
0100
0000
0010
0000
1001
0000
0000
0000
1000
0100
0010
0001
1000
0000
,
0001
0000
0100
0000
1000
0000
0200
0000
0000
0000
0301
0100
0010
0100
0001
0000
,
1000
0000
0001
0000
0010
0000
2000
0000
0000
0000
3010
0000
0100
0010
0100
0000
,
1000
0000
0010
0000
0001
0000
0020
0000
0000
0000
1030
0010
0100
0010
1000
0000
,
0001
0000
1000
0000
0100
0000
0002
0000
0000
0000
0103
0000
0010
0100
0010
0000
,
0001
0100
0010
2000
0000
3010
1000
0100
,
0011
0000
0000
1001
0000
0000
0101
0000
1010
0000
0000
1001
0000
0000
1100
0000
,
0100
0000
0010
0000
0001
0000
0100
0000
0010
1000
0001
0000
1000
0001
0010
0000
,
0200
0000
0000
0000
0000
0000
0000
0000
1300
0000
0010
0100
0000
0010
1000
0000
,
0010
0100
0000
0001
1000
0000
1000
0000
0001
0000
0010
0100
0000
0010
0001
0000
,
0010
0100
0000
1000
0001
0000
0001
0000
1000
0000
0010
0100
0000
0001
0010
0000
,
0100
1000
0000
0010
0100
0000
0100
0000
0001
0000
1000
0100
0000
0100
0010
0000
,
1000
0000
0010
0100
0000
0100
1000
0000
0001
0000
0100
0010
0000
0100
0010
0000
,
0100
0000
0001
0000
0100
0000
1000
0000
0100
0000
0010
1000
0000
0010
1000
0000
,
0001
0000
0100
0000
1000
0000
0100
0000
0001
0000
1000
0100
0000
1000
0100
0000
,
0001
0000
1000
0010
0000
0100
0010
0000
0011
0000
0000
0000
1100
0000
0000
0000
,
1001
0000
0000
0000
1010
0000
0000
0000
0002
0000
0000
0000
1003
0000
0100
0010
,
0100
0000
0010
0000
0001
0000
0001
0000
1000
0000
0001
0100
0000
0010
0100
0000
,
1000
0100
0000
0010
1000
0000
1000
0000
0001
0000
1000
0100
0000
0010
0100
0000
,
0001
0100
0000
0010
0001
0000
0001
0000
1000
0000
0001
0100
0000
0100
0010
0000
,
0001
0000
0010
0100
0000
0100
0001
0000
1000
0000
0100
0010
0000
0100
0010
0000
,
0100
0000
1000
0000
0100
0000
0001
0000
0100
0000
0010
0001
0000
0010
0001
0000
,
1000
0000
0100
0000
0001
0000
0100
0000
1000
0000
0001
0100
0000
0001
0100
0000
,
1000
0000
0001
0010
0000
0100
0010
0000
1010
0000
0000
0000
0101
0000
0000
0000
,
0001
0100
0001
0010
2100
0000
3010
1020
,
0000
0000
0000
0000
0100
0000
0130
0000
0001
0000
0010
0100
0000
0010
0001
0000
,
0010
0000
0100
1000
0000
1000
0010
0000
0102
0000
0000
0000
0013
0000
0021
0000
,
0000
0000
0000
0000
0100
0000
0130
0000
0010
0001
1000
0000
0001
1000
0010
0000
,
0200
0000
0310
1000
0001
0001
1000
1000
,
0100
0000
0100
0000
0010
0000
0100
1000
0010
0000
1000
0000
0001
0000
0001
0000
,
0100
0000
0100
0000
0010
0000
0100
0001
0020
0000
0000
0000
0130
1000
0001
0100
,
0010
0000
1000
0001
0000
0001
0010
0000
0110
0000
0000
0000
2002
0000
0000
0000
,
3003
0220
0000
0330
2002
3003
0000
0000
;

//---------------dance-single - ----------------
#NOTEDATA:;
#CHARTNAME:;
#STEPSTYPE:dance-single;
#DESCRIPTION:;
#CHARTSTYLE:;
#DIFFICULTY:Medium;
#METER:14;
#RADARVALUES:0.738802,0.915197,0.457944,0.592169,0.311876,655.000000,597.000000,58.000000,75.000000,0.000000,0.000000,0.000000,0.000000,0.000000,0.738802,0.915197,0.457944,0.592169,0.311876,655.000000,597.000000,58.000000,75.000000,0.000000,0.000000,0.000000,0.000000,0.000000;
#CREDIT:;
#OFFSET:-0.436870;
#BPMS:0.000000=210.000000
,167.000000=420.000000
,231.000000=105.000000
,260.750000=210.000000
,323.000000=105.000000
,325.000000=210.000000
;
#STOPS:33.500000=0.571430
,39.500000=0.571429
,45.500000=0.571429
,86.000000=0.857144
,260.750000=0.642857
,417.000000=0.857136
;
#DELAYS:;
#WARPS:;
#TIMESIGNATURES:0.000000=4=4
;
#TICKCOUNTS:0.000000=4
;
#COMBOS:0.000000=1
;
#SPEEDS:0.000000=1.000000=0.000000=0
;
#SCROLLS:0.000000=1.000000
,167.000000=0.500000
,231.000000=1.000000
,247.000000=1.500000
,260.750000=1.000000
;
#FAKES:;
#LABELS:0.000000=Song Start
;
#DISPLAYBPM:105.000000:210.000000;
#NOTES:
0000
0000
0000
0000
,
0000
0000
0000
0000
,
0000
0000
0000
0000
,
0000
0000
0000
0000
,
1001
0000
0000
0000
1000
0000
0010
0000
1010
0000
0000
0110
0000
0000
0101
0000
,
0000
1001
0000
0000
0001
0000
0010
0000
0011
0000
0000
0000
1100
0000
0000
0000
,
1001
0000
0000
0000
0000
0000
0001
0000
0000
0100
0000
0000
0010
0000
0000
0000
1000
0000
0000
0000
0100
0000
0000
0000
,
0021
0000
0000
0230
0000
0000
0310
0000
,
0012
0000
0000
0000
0000
0000
0103
0000
1000
0000
0000
0010
0000
0000
1000
0000
,
0001
0000
0000
0010
0000
0000
0001
0000
0102
0000
0000
0000
0000
0000
0013
0000
,
1000
0100
0010
0001
0100
0000
0010
1000
,
2010
0000
0000
0000
0000
0000
3100
0000
0001
0000
0000
0010
0000
0000
0001
0000
,
1000
0000
0000
0010
0000
0000
1000
0000
2100
0000
0000
0000
0000
0000
3010
0000
,
0000
0000
0000
0000
0001
0000
0100
0000
0001
0000
0000
1000
0000
0000
0001
0000
,
0010
0000
0000
0010
0000
0000
0010
0000
1002
0000
0000
0000
0103
0000
0020
0000
,
0000
0130
1010
0000
2001
0000
3100
0020
,
0000
0130
0011
0000
2001
0000
3010
0200
,
0000
0301
1001
0000
1000
0100
0010
0001
,
0010
0100
1000
0000
0001
0100
0001
0100
,
0010
1000
0010
1000
0001
0010
0001
0010
,
0100
1000
0100
1000
0010
0100
0001
1000
,
0100
0000
0000
0100
0000
0000
0010
0000
0110
0000
0000
0000
1001
0000
0000
0000
,
0001
0100
0110
0000
0001
0100
1000
0000
,
0001
0100
2000
3200
0320
2030
3002
0000
,
1003
0100
0010
0001
0010
0000
0200
1000
,
1300
0002
1000
1003
0010
1000
1001
0000
,
1000
0100
0110
0000
1000
0100
0001
0000
,
1000
0100
0002
0203
0320
0032
2003
0000
,
3001
0100
0010
1000
0010
0000
0100
0001
,
1000
0100
0010
0001
0100
0010
1001
0000
,
0001
0010
0110
0000
0001
0010
1000
0000
,
0001
0010
2000
3020
0032
2003
3020
0000
,
1030
0010
0001
0010
1000
0000
0002
0010
,
0013
0200
1000
1300
0001
0010
0011
0000
,
1000
0000
0010
0000
1010
0000
0000
0001
0000
0000
0100
0000
0101
0000
0000
1000
,
0000
0000
0100
0000
1100
0000
0000
0001
0000
0000
0010
0000
0100
0000
0010
0000
,
0100
0010
0001
1000
0010
0100
0210
0000
,
0000
0302
0000
0000
1003
0000
1002
0000
,
0003
0010
0000
0000
0010
0000
0000
0010
,
0000
0000
0100
0000
0010
0001
2001
0000
,
3000
0010
0000
0000
0010
0000
0000
0010
,
0000
0000
0000
0000
1001
0000
0000
0110
0000
0000
1001
0000
1000
0000
0000
0000
,
0100
1000
0100
1000
,
0100
1000
0100
1000
,
0100
1000
0100
0001
,
0000
0100
0000
0000
0010
0000
0001
0000
,
0100
0001
0100
0001
,
0100
0001
0100
0001
,
0100
0001
0100
1000
,
0000
0100
0000
0000
0010
0000
1000
0000
,
0001
1000
0001
0010
,
0100
0010
0100
1000
,
0001
1000
0001
0010
,
0000
1000
0000
0000
0010
0000
0001
0000
,
0100
1000
0100
0001
,
0010
1000
0010
0001
,
0100
1000
0100
0001
,
0000
0000
0000
0000
0000
0000
0000
0000
0000
0000
0000
0000
1020
0000
0000
0230
,
0000
0000
0001
0000
0301
0000
0000
0000
0001
0000
0010
0000
0021
0000
0000
0230
,
0000
0000
1000
0000
1300
0000
0000
0000
1000
0000
0010
0000
0102
0000
0000
1003
,
0000
0000
1000
0100
2000
0000
0000
0000
3001
0000
0001
0100
0002
0000
0000
1003
,
0100
0000
0010
0001
1000
0000
1000
0001
0100
0000
0100
0010
2000
0000
0000
3100
,
0000
1000
0100
0010
0002
0000
0000
0013
0000
0001
0010
0001
2000
0000
0000
3010
,
0000
1000
0010
0100
0002
0000
0000
0103
0000
0001
0100
0001
0020
0000
0000
0130
,
0000
1000
0010
0100
0002
0000
0000
0013
0000
0100
1000
0001
0200
0000
0010
0310
,
0000
0100
0010
0100
0002
0000
0000
0000
0000
0000
0000
0000
1003
0000
0100
0000
,
0001
0200
0000
0310
0001
1000
0001
0100
,
1000
0200
0000
0310
1000
0100
1000
0010
,
0100
0002
0000
0103
0010
1000
0001
0010
,
0100
2000
0000
3010
0100
0010
1000
0001
,
0010
2000
0000
3010
0100
1000
0001
0100
,
0010
0002
0000
0013
0100
0001
1000
0100
,
0010
0002
0000
0013
0100
1000
0010
0100
,
0010
0110
0000
0100
0010
0100
0001
0100
,
1000
0200
0000
0310
1000
0001
1000
0100
,
0001
0200
0000
0310
0001
0100
0001
0010
,
0100
2000
0000
3100
0010
0001
1000
0010
,
0100
0002
0000
0013
0100
1000
0001
0100
,
0010
0000
0200
0000
0000
0000
0310
0000
0100
0000
0010
0000
1000
0000
0000
1010
,
0000
0000
0100
0000
0001
0000
0000
0011
0000
0000
0100
0000
1000
0000
0001
0000
,
1000
0001
0100
1000
0100
0001
0020
0000
,
0000
0000
0000
0000
0031
0000
0000
0010
0000
0000
0100
0000
0000
1000
0000
0001
,
0100
0000
0010
0000
1000
0000
0000
0010
0000
0000
0100
0000
0000
0001
0000
1000
,
0100
0000
0010
0000
0001
0000
0000
0100
0000
0000
0010
0000
0000
1000
0000
0100
,
0010
0000
0001
0000
1000
0000
0000
1000
0000
0000
1000
0000
0001
0000
0000
0001
,
0000
0000
0001
0000
1000
0000
0000
0100
0000
0000
0001
0000
0100
0000
0001
0000
,
0100
0000
1000
0000
0001
0000
0000
0100
0000
0000
1000
0000
0100
0000
1000
0000
,
0100
0000
0001
0000
1000
0000
0000
0100
0000
0000
0010
0000
0010
0000
0000
0001
,
0000
0100
0110
0000
1010
0000
1001
0000
,
0011
0000
0000
0000
2000
0000
0000
0000
3010
0000
0100
0000
0000
0001
0000
1000
,
0100
0000
0010
0000
0001
0000
0000
0100
0000
0000
1000
0000
0000
0100
0000
0010
,
0100
0000
0010
0000
1000
0000
0000
0100
0000
0000
0001
0000
0000
0100
0000
0010
,
0100
0000
1000
0000
0010
0000
0000
0010
0000
0000
0010
0000
0100
0000
0000
0100
,
0000
0000
0100
0000
0001
0000
0000
0010
0000
0000
1000
0000
0010
0000
1000
0000
,
0010
0000
0001
0000
1000
0000
0000
0010
0000
0000
0001
0000
0010
0000
0001
0000
,
0010
0000
1000
0000
0001
0000
0000
0010
0000
0000
0100
0000
0100
0000
0000
1000
,
0000
0001
1001
0000
1010
0000
1100
0000
,
0011
0000
0101
0000
0000
2020
0000
0000
,
3030
0000
0000
0000
0001
0000
0000
0100
0000
0000
0001
0000
1000
0000
0000
0100
,
0000
1000
1100
0000
0000
0022
0000
0000
,
0033
0000
0001
0010
0100
1000
0020
0000
,
0130
0001
1000
0100
1000
0100
0001
0100
,
0001
0100
1000
0010
1000
0010
0001
0010
,
0001
0000
0010
0000
1000
0000
0100
0000
0010
0000
0001
0000
0100
0000
0000
0100
,
0000
0010
0110
0000
2002
0000
3003
0220
,
0000
0330
2002
3003
0000
0000
0000
0000
;

//---------------dance-single - ----------------
#NOTEDATA:;
#CHARTNAME:;
#STEPSTYPE:dance-single;
#DESCRIPTION:;
#CHARTSTYLE:;
#DIFFICULTY:Easy;
#METER:12;
#RADARVALUES:0.559459,0.665598,0.481631,0.576378,0.165807,496.000000,435.000000,61.000000,73.000000,0.000000,0.000000,0.000000,0.000000,0.000000,0.559459,0.665598,0.481631,0.576378,0.165807,496.000000,435.000000,61.000000,73.000000,0.000000,0.000000,0.000000,0.000000,0.000000;
#CREDIT:;
#OFFSET:-0.436870;
#BPMS:0.000000=210.000000
,167.000000=420.000000
,231.000000=105.000000
,260.750000=210.000000
,323.000000=105.000000
,325.000000=210.000000
;
#STOPS:33.500000=0.571430
,39.500000=0.571429
,45.500000=0.571429
,86.000000=0.857144
,260.750000=0.642857
,417.000000=0.857136
;
#DELAYS:;
#WARPS:;
#TIMESIGNATURES:0.000000=4=4
;
#TICKCOUNTS:0.000000=4
;
#COMBOS:0.000000=1
;
#SPEEDS:0.000000=1.000000=0.000000=0
;
#SCROLLS:0.000000=1.000000
,167.000000=0.500000
,231.000000=1.000000
,247.000000=1.500000
,260.750000=1.000000
;
#FAKES:;
#LABELS:0.000000=Song Start
;
#DISPLAYBPM:105.000000:210.000000;
#NOTES:
0000
0000
0000
0000
,
0000
0000
0000
0000
,
0000
0000
0000
0000
,
0000
0000
0000
0000
,
1001
0000
0000
0000
0001
0000
0000
0000
0100
0000
0000
0010
0000
0000
0100
0000
,
0000
0010
0000
0000
1000
0000
0000
0000
1100
0000
0000
0000
0011
0000
0000
0000
,
1001
0000
0000
1000
0000
0000
0010
0000
0100
0000
0001
0000
,
2000
0000
0000
3200
0000
0000
0310
0000
,
0012
0000
0000
0103
1000
0100
1000
0000
,
0001
0100
0001
0000
0102
0000
0000
0013
,
1000
0010
1000
0010
0100
0000
0010
0000
,
2010
0000
0000
3100
0001
0100
0001
0000
,
1000
0100
1000
0000
2100
0000
0000
3010
,
0000
0000
0000
0000
0001
0100
0010
0000
,
1000
0000
0000
0001
0000
0000
1000
0000
0100
0000
0000
0000
0000
0000
1100
0000
,
0000
0000
0011
0000
1001
0000
0000
0101
,
0000
0000
1010
0000
1001
0000
0000
0011
,
0000
0000
0110
0000
2000
0000
3001
0100
,
0010
1000
0001
0000
1000
0000
0100
0000
,
0010
0000
0001
1000
0010
0000
0100
0000
,
0001
0000
1000
0001
0020
0000
0000
0000
,
0130
0000
0000
0010
0000
0000
0100
0000
1000
0000
0000
0000
1002
0000
0000
0000
,
0103
1002
0013
1002
,
0103
0000
0001
0100
0010
1000
0200
0000
,
0310
0000
0100
0010
0100
0000
2000
0000
,
3010
0200
0000
0301
1000
0000
2001
0000
,
3100
2001
3010
2001
,
3100
0000
1000
0100
0010
0001
0200
0000
,
0310
0000
1000
0001
0010
0000
0100
0010
,
0100
0000
0010
0001
1000
0000
2010
0000
,
3100
0012
0103
2010
,
3100
0000
0010
0001
1000
0010
0200
0000
,
0310
0000
0100
0010
0100
0000
0002
0000
,
1003
0200
0000
0310
0001
0000
0012
0000
,
0013
1020
1030
2100
,
3100
0201
0301
0010
,
0010
0000
0001
0010
0100
1000
0001
0000
,
0000
0101
0000
0000
1010
0000
2001
0000
,
0000
3100
0000
0000
,
1100
0000
0010
0100
0010
0000
1002
0000
,
0000
0103
0000
0000
,
0101
0000
0000
0000
0010
0000
0000
0010
0000
0000
1000
0000
2020
0000
0000
0000
,
0000
0000
0000
0000
,
0000
0000
0000
0000
,
0000
3030
0000
0001
,
0000
0001
0000
0000
0010
0000
0022
0000
,
0000
0000
0000
0000
,
0000
0000
0000
0000
,
0000
0033
0000
1000
,
0000
0010
0000
0000
1000
0000
2002
0000
,
0000
0003
0000
0002
,
0000
3000
0000
2000
,
0000
0003
0000
3001
,
0000
0001
0000
0000
1000
0000
0100
0000
,
0010
0100
0010
0100
,
0010
0100
0010
0100
,
0010
0100
0010
0100
,
0000
0000
0000
0210
,
0000
1300
0000
2001
,
0000
3010
0100
0210
,
0000
0301
1000
1002
,
0000
0000
0000
0000
0013
0000
0000
0000
0000
0000
0000
0000
0001
0000
0000
0010
,
0000
0000
0100
0000
0010
0000
0000
0010
0000
0000
0100
0000
1000
0000
0000
0010
,
0000
0000
0100
0000
0010
0000
0000
0010
0000
0000
0100
0000
0001
0000
0000
0010
,
0000
0000
0001
0000
1000
0000
0000
0010
0000
0000
1000
0000
0100
0000
0000
0100
,
0000
0010
0001
1000
0002
0000
0000
0000
0000
0000
0000
0000
1003
0000
0000
0000
,
0001
0200
0300
0100
0010
1000
0010
0100
,
0000
0200
0300
0010
1000
0001
0010
0000
,
0100
0020
0030
0100
1000
0001
1000
0100
,
0000
0200
0300
0010
0001
1000
0010
0000
,
0100
0002
0003
0010
0100
1000
0001
0100
,
0000
0020
0030
0100
0010
1000
0001
0000
,
0010
0200
0300
0010
0100
1000
0010
0100
,
0010
0010
0000
0100
0001
1000
0001
0000
,
1000
0200
0300
0100
0010
0001
0010
0100
,
0000
0200
0300
0010
0001
1000
0010
0000
,
0100
0020
0030
0100
0001
1000
0001
0100
,
0000
0200
0300
0010
1000
0001
0010
0000
,
0100
0000
2000
0000
3000
0000
0010
0000
0100
0000
0001
0000
1000
0000
0000
1000
,
0000
0000
1000
0000
0001
0000
0000
0001
0000
0000
0001
0000
2000
0000
0000
0000
,
3200
0302
0203
2300
,
0000
0000
0000
0000
3001
0000
0000
0010
0000
0000
0100
0000
0000
0010
0000
0000
,
0100
0000
0000
0000
1000
0000
0000
0010
0000
0000
0100
0000
0000
0010
0000
0000
,
0100
0000
0000
0000
0001
0000
0000
0010
0000
0000
0100
0000
0000
1000
0000
0000
,
0001
0000
0000
0000
1000
0000
0000
0010
0000
0000
1000
0000
0001
0000
0000
0010
,
0000
0000
0001
0000
1000
0000
0000
0010
0000
0000
1000
0000
0010
0000
0000
0000
,
1010
0000
0000
0000
0001
0000
0000
0010
0000
0000
0001
0000
0010
0000
0000
0000
,
0011
0000
0000
0000
1000
0000
0000
0010
0000
0000
0100
0000
0001
0000
0000
0010
,
0000
0100
1100
0000
0011
0000
0101
0000
,
1010
0000
0000
0000
0002
0000
0000
0000
1003
0000
0100
0000
0000
0010
0000
0000
,
0001
0000
0000
0000
0010
0000
0000
0001
0000
0000
0100
0000
0000
0001
0000
0000
,
1000
0000
0000
0000
0010
0000
0000
1000
0000
0000
0100
0000
0000
1000
0000
0000
,
0001
0000
0000
0000
0100
0000
0000
0010
0000
0000
1000
0000
0100
0000
0000
0010
,
0000
0000
0001
0000
1000
0000
0000
0010
0000
0000
1000
0000
0010
0000
0000
0000
,
0101
0000
0000
0000
0001
0000
0000
0010
0000
0000
0001
0000
0010
0000
0000
0000
,
1100
0000
0000
0000
0001
0000
0000
0010
0000
0000
0100
0000
1000
0000
0000
0010
,
0000
0100
0101
0000
1010
0000
1100
0000
,
0011
0000
1001
0000
0000
0202
0000
0000
,
0303
0000
0001
0010
0001
0000
1000
0010
,
1000
0000
1001
0000
0000
2200
0000
0000
,
3300
0000
0001
0010
0001
0010
0200
0000
,
0000
0310
0001
1000
,
0010
0100
0001
0000
0010
0000
0100
0000
,
1000
0000
0010
0000
0200
0000
0000
0000
0000
0000
0000
0000
0310
0000
0000
0100
,
0000
0001
1000
0000
2002
0000
3003
0220
,
0000
0330
2002
3003
0000
0000
0000
0000
;

//---------------dance-single - ----------------
#NOTEDATA:;
#CHARTNAME:;
#STEPSTYPE:dance-single;
#DESCRIPTION:;
#CHARTSTYLE:;
#DIFFICULTY:Beginner;
#METER:9;
#RADARVALUES:0.368837,0.429323,0.418466,0.347406,0.000000,327.000000,274.000000,53.000000,44.000000,0.000000,0.000000,0.000000,0.000000,0.000000,0.368837,0.429323,0.418466,0.347406,0.000000,327.000000,274.000000,53.000000,44.000000,0.000000,0.000000,0.000000,0.000000,0.000000;
#CREDIT:;
#OFFSET:-0.436870;
#BPMS:0.000000=210.000000
;
#STOPS:;
#DELAYS:;
#WARPS:;
#TIMESIGNATURES:0.000000=4=4
;
#TICKCOUNTS:0.000000=4
;
#COMBOS:0.000000=1
;
#SPEEDS:0.000000=1.000000=0.000000=0
;
#SCROLLS:0.000000=1.000000
;
#FAKES:;
#LABELS:0.000000=Song Start
;
#DISPLAYBPM:105.000000:210.000000;
#NOTES:
0000
0000
0000
0000
,
0000
0000
0000
0000
,
0000
0000
0000
0000
,
0000
0000
0000
0000
,
1001
0000
0000
0000
,
0000
0000
0000
0000
,
0110
0000
0000
0000
,
1000
0000
0000
0001
0000
0000
1000
0000
,
1001
0000
0000
1001
0000
0000
0000
0000
,
0001
0010
0001
0000
,
1001
0000
0000
1001
0000
0000
0000
0000
,
1000
0010
1000
0000
,
1001
0000
0000
1001
0000
0000
0000
0000
,
0001
0100
0001
0000
,
1001
0000
0000
1001
0000
0000
0000
0000
,
1000
0100
1000
0000
,
0001
0000
0000
0101
0000
0000
0000
0000
,
0100
0000
0000
0110
0000
0000
0000
0000
,
0010
0000
0000
1010
0000
0000
0000
0000
,
1000
0100
0010
0000
,
0001
0001
0001
0010
,
0100
0100
0100
1000
,
0020
0000
0130
0010
,
0220
0000
0000
0330
,
0101
0000
0011
0000
,
0101
0000
1000
0100
,
0001
0000
0001
0100
,
2000
3000
0020
0030
,
1100
0000
1010
0000
,
1100
0000
0001
0100
,
1000
0000
1000
0100
,
0001
0000
0010
0010
,
1100
0000
1001
0000
,
0101
0000
1000
0010
,
0001
0000
0001
0010
,
2000
3000
0002
0003
,
0010
0100
0010
0100
,
0010
0100
0010
0000
,
0100
1000
0001
0100
,
0010
0000
0000
0100
0000
0000
0010
0000
,
2001
0000
3100
0000
,
0000
1100
0010
0001
,
1002
0000
0103
0000
,
0000
0101
1010
0000
,
2002
0000
0000
0000
,
0000
3003
0100
0000
,
2002
0000
0000
0000
,
0000
3003
0100
0000
,
2002
0003
0002
3000
,
2000
0003
3001
0000
,
2000
3002
2003
3002
,
2003
3002
1003
0000
,
0002
0000
0000
0000
,
0013
0000
0000
0000
,
0200
0000
0000
0000
,
0310
0000
0001
0000
,
2000
0000
0000
0000
,
3010
0000
0100
0000
,
0002
0000
0000
0000
,
2003
0000
0000
0000
,
3001
0000
0011
0000
,
0010
0001
1001
0000
,
1000
0000
1010
0000
,
0010
1000
1001
0000
,
0100
0000
1001
0000
,
0001
1000
0110
0000
,
0001
0000
1001
1000
,
0100
0000
0000
0000
,
1000
0000
0000
0200
0000
0000
0310
0000
,
0001
0000
0000
0020
0000
0000
0130
0000
,
1000
0000
0000
0020
0000
0000
0130
0000
,
0001
0000
0000
0200
0000
0000
0310
0000
,
1000
0000
0000
2000
0000
0000
3001
0000
,
0001
0000
0000
0002
0000
0000
1003
0000
,
1000
0000
0000
0200
0000
0000
0310
0000
,
0001
1000
0000
1001
,
0001
0000
0000
0200
0000
0000
0310
0000
,
1000
0000
0000
0020
0000
0000
0130
0000
,
0001
0000
0000
0020
0000
0000
0130
0000
,
1000
0000
0000
0200
0000
0000
0310
0000
,
0001
0000
0000
2000
0000
0000
3001
0000
,
0101
0000
1010
0000
,
1000
0100
0010
0001
,
2000
0000
0000
0000
,
3001
0100
0001
0100
,
0010
1000
0010
1000
,
0001
0010
0001
0010
,
0100
1000
0010
0100
,
0001
0010
0011
0000
,
0010
0100
0110
0000
,
0001
0010
0100
0010
,
0001
0100
0010
1000
,
0000
0100
1000
0100
,
0010
0001
0010
0001
,
1000
0010
1000
0010
,
0100
0001
0010
0100
,
1000
0010
1010
0000
,
0010
0100
0110
0000
,
1000
0010
0100
0010
,
1000
0001
0010
0100
,
1100
0000
0000
1100
0000
0000
0000
0000
,
0010
0001
0100
0000
,
0101
0000
0000
0101
0000
0000
0000
0000
,
0010
1000
0100
0000
,
0010
0010
0010
0100
,
1000
1000
1000
0001
,
0200
0000
0310
0100
,
2002
0000
3003
0000
,
1001
0000
0000
0110
0000
0000
1001
0000
;

//---------------dance-single - ----------------
#NOTEDATA:;
#CHARTNAME:;
#STEPSTYPE:dance-single;
#DESCRIPTION:;
#CHARTSTYLE:;
#DIFFICULTY:Challenge;
#METER:19;
#RADARVALUES:1.134709,1.359620,0.694812,0.631647,0.919836,1006.000000,918.000000,88.000000,80.000000,0.000000,0.000000,0.000000,0.000000,0.000000,1.134709,1.359620,0.694812,0.631647,0.919836,1006.000000,918.000000,88.000000,80.000000,0.000000,0.000000,0.000000,0.000000,0.000000;
#CREDIT:;
#OFFSET:-0.436870;
#BPMS:0.000000=210.000000
,33.500000=420.000000
,34.500000=210.000000
,40.500000=420.000000
,41.500000=210.000000
,47.500000=420.000000
,48.500000=210.000000
,89.000000=472.500000
,95.750000=210.000000
,96.000000=420.000000
,96.500000=210.000000
,96.750000=105.000000
,97.000000=210.000000
,98.000000=420.000000
,98.500000=210.000000
,98.750000=105.000000
,99.000000=210.000000
,100.000000=420.000000
,100.500000=210.000000
,100.750000=105.000000
,101.000000=210.000000
,102.000000=420.000000
,104.000000=105.000000
,104.250000=210.000000
,104.500000=420.000000
,105.000000=210.000000
,112.000000=420.000000
,112.500000=210.000000
,112.750000=105.000000
,113.000000=210.000000
,114.000000=420.000000
,114.500000=210.000000
,114.750000=105.000000
,115.000000=210.000000
,116.000000=420.000000
,116.500000=210.000000
,116.750000=105.000000
,117.000000=210.000000
,118.000000=420.000000
,120.000000=105.000000
,120.250000=210.000000
,120.500000=420.000000
,121.000000=210.000000
,128.000000=420.000000
,128.500000=210.000000
,128.750000=105.000000
,129.000000=210.000000
,130.000000=420.000000
,130.500000=210.000000
,130.750000=105.000000
,131.000000=210.000000
,132.000000=420.000000
,132.500000=210.000000
,132.750000=105.000000
,133.000000=210.000000
,134.000000=420.000000
,136.000000=105.000000
,136.250000=210.000000
,136.500000=420.000000
,137.000000=210.000000
,144.000000=420.000000
,144.500000=210.000000
,144.750000=105.000000
,145.000000=210.000000
,146.000000=420.000000
,146.500000=105.000000
,146.750000=210.000000
,148.000000=420.000000
,148.500000=105.000000
,148.750000=210.000000
,150.000000=420.000000
,150.500000=105.000000
,150.750000=210.000000
,174.000000=420.000000
,188.000000=840.000000
,192.000000=420.000000
,204.000000=840.000000
,208.000000=420.000000
,220.000000=840.000000
,224.000000=420.000000
,240.000000=105.000000
,269.750000=210.000000
,332.000000=105.000000
,334.000000=210.000000
,366.000000=420.000000
,367.000000=210.000000
,399.500000=420.000000
,400.000000=210.000000
,400.250000=105.000000
,400.500000=210.000000
,407.500000=420.000000
,408.000000=210.000000
,408.250000=105.000000
,408.500000=210.000000
;
#STOPS:34.500000=0.428572
,41.500000=0.428572
,48.500000=0.428572
,95.750000=0.214285
,102.000000=0.071429
,102.500000=0.071429
,103.000000=0.071429
,103.500000=0.071429
,118.000000=0.071429
,118.500000=0.071429
,119.000000=0.071429
,119.500000=0.071429
,134.000000=0.071429
,134.500000=0.071429
,135.000000=0.071429
,135.500000=0.071429
,174.000000=0.107144
,174.750000=0.107144
,175.500000=0.071427
,188.000000=0.071431
,189.000000=0.035714
,189.500000=0.071431
,190.500000=0.035714
,191.000000=0.071431
,204.000000=0.035714
,204.500000=0.071431
,205.500000=0.035714
,206.000000=0.071431
,207.000000=0.035714
,207.500000=0.035717
,220.000000=0.071431
,221.000000=0.035714
,221.500000=0.071431
,222.500000=0.035714
,223.000000=0.071431
,269.750000=0.642857
,366.000000=0.142860
,426.000000=0.857136
;
#DELAYS:;
#WARPS:;
#TIMESIGNATURES:0.000000=4=4
;
#TICKCOUNTS:0.000000=4
;
#COMBOS:0.000000=1
;
#SPEEDS:0.000000=1.000000=0.000000=0
;
#SCROLLS:0.000000=1.000000
,176.000000=0.500000
,240.000000=1.000000
,256.000000=1.500000
,269.750000=1.000000
;
#FAKES:;
#LABELS:0.000000=Song Start
;
#DISPLAYBPM:105.000000:210.000000;
#NOTES:
0000
0000
0000
0000
,
0000
0000
0000
0000
,
0000
0000
0000
0000
,
0000
0000
0000
0000
,
1001
0000
0000
0000
0001
0100
0001
0100
0010
0000
0000
1010
0000
0000
0101
0000
,
0000
1001
0000
0000
1000
0100
1000
0100
0010
0000
0001
0100
0010
0000
0000
0000
,
0110
0000
0000
0000
0000
0000
0000
0000
0000
0000
0000
0000
1000
0000
0000
0010
0000
0000
0100
0000
0000
0001
0000
0000
0010
0000
0000
0000
0000
0000
0000
0000
0110
0000
0000
0000
0000
0000
0000
0000
1100
0000
0000
0000
0000
0000
0000
0000
,
1001
0100
0010
1001
0010
0100
0110
0000
,
2001
0000
0000
0000
3010
0000
1010
0000
0000
0000
0000
0000
1000
0010
1000
0010
,
0100
0010
1000
0000
0010
1000
0001
1000
0010
0100
0001
0000
2001
0000
0000
0000
,
3100
0000
1100
0000
0000
0000
0000
0000
1000
0100
1000
0100
0010
0001
0010
0100
,
1000
0000
0010
0100
0001
0000
1000
0000
1002
0000
0000
0000
0013
0000
0011
0000
,
0000
0000
0000
0000
0001
0010
0001
0010
0100
0010
0001
0000
0010
0001
1000
0001
,
0010
0100
1000
0000
1002
0000
0000
0000
0103
0000
0101
0000
0000
0000
0000
0001
,
0100
0001
0100
0001
1000
0010
0100
0010
1000
0001
1000
0100
0010
0000
0000
1100
,
0000
0011
1002
0103
0010
0210
0301
0010
,
0110
0000
2001
3100
0010
0210
1300
0010
,
0110
0000
0102
0013
0100
2100
3010
0100
,
0101
0000
0000
0000
1000
0000
0010
0100
0001
0000
0010
0000
0001
0000
0010
0100
,
1000
0000
0001
0001
0100
0100
1000
0001
,
0010
0000
1000
0001
1000
0000
1000
0000
0100
0000
0100
0000
0001
0000
1000
0000
,
0010
0000
0001
1000
0100
0010
0100
0010
0100
0010
0100
0010
0001
0000
0100
0010
,
1000
0001
0010
0000
0220
0000
0000
0000
0000
0000
0000
0000
0000
0000
0000
0000
,
0000
0000
0000
0000
0000
0000
0000
0000
0000
0000
0000
0000
0000
0000
0000
0330
,
1002
0000
0000
0000
0103
0000
0010
0000
1020
0000
0030
0000
0010
0001
1000
0001
,
0020
0000
0030
0000
0010
1000
0001
1000
0020
0000
0032
0000
0023
0000
2030
0000
,
3200
0000
0000
0000
0310
0000
0010
0000
0100
1000
0001
0100
0010
0000
0010
0000
,
0100
0001
0100
0001
0010
0000
0010
1000
0010
1000
0100
0000
0010
0000
0100
0000
,
2001
0000
0000
0000
3100
0000
0010
0000
0021
0000
0030
0000
0010
1000
0001
1000
,
0020
0000
0030
0000
0010
0001
1000
0001
0020
0000
2030
0000
3020
0000
0032
0000
,
0203
0000
0000
0000
0310
0000
0010
0000
1000
0010
0100
0001
1000
0000
0100
0000
,
0010
0000
0010
0000
0001
0000
0100
0000
0010
0000
0010
0000
0100
0001
0010
0100
,
2000
0000
0000
0000
3010
0000
0100
0000
0201
0000
0300
0000
0100
1000
0010
1000
,
0200
0000
0300
0000
0100
0001
0010
0001
0200
0000
2300
0000
3200
0000
0320
0000
,
2030
0000
0000
0000
3010
0000
0010
0000
0100
0001
1000
0100
0010
0000
0010
0000
,
0100
1000
0100
1000
0010
0000
0010
0001
0010
0001
0100
0000
0010
0000
0100
0000
,
1002
0000
0000
0000
0103
0000
0010
0000
0101
0000
0000
1000
0100
0000
0010
0000
,
1100
0000
0000
0001
0100
0000
0010
0000
0101
0000
0000
1000
0001
0000
1001
0000
,
1000
0000
0100
0000
0010
0000
0001
0000
1000
0100
0010
0001
0010
0100
1000
0001
,
0200
0000
0310
0102
0000
0013
2200
3300
,
0022
0033
0010
0001
1000
1000
0001
0010
,
0010
0000
0001
0000
1000
0000
1000
0000
0001
0000
0100
0010
1000
0000
0010
0000
,
2020
3030
0010
1000
0001
0001
1000
0010
,
0100
0000
0000
0000
1010
0000
0000
0000
0101
0000
0000
0011
0000
0000
1100
0000
,
1000
0010
1000
0010
1000
0010
1000
0010
,
1000
0010
1000
0010
1000
0010
1000
0010
,
1000
0010
1000
0010
1000
0010
1000
0010
,
0100
0000
0010
1000
0000
0100
0010
0000
,
0001
0010
0001
0010
0001
0010
0001
0010
,
0001
0010
0001
0010
0001
0010
0001
0010
,
0001
0010
0001
0010
0001
0010
0001
0010
,
0100
1000
0000
0001
0100
0000
0010
1000
,
0001
1000
0100
0010
0100
0010
0100
0010
,
0001
1000
0010
0100
0010
0100
0010
0100
,
0001
1000
0100
0010
0100
0010
0100
0010
,
0001
0000
0100
0010
0000
1000
0001
0000
,
1000
0010
1000
0001
0010
0001
1000
0010
,
1000
0001
0010
0001
1000
0010
1000
0001
,
0010
0100
1000
0100
0010
0001
1000
0010
,
0100
0000
0000
0000
,
0120
0000
0000
2030
0000
0000
0001
0000
3001
0000
0000
0000
1000
0000
0100
0000
,
0120
0000
0000
0032
0000
0000
1000
0000
1003
0000
0000
0000
0001
0000
0100
0000
,
2010
0000
0000
3002
0000
0000
1003
0100
0012
0000
0000
1003
0001
0000
0100
0010
,
0120
0000
0000
0100
0130
0000
0010
1000
0100
0000
0010
0001
0100
0010
0010
0100
,
0120
0000
0000
0000
1000
0000
1000
0000
0000
0000
0130
0010
0100
0000
0001
0000
1000
0000
0010
0000
0000
0000
0010
0000
0000
0000
1000
0000
0001
1000
0100
0000
,
0020
0000
0000
0000
0001
0000
0001
0000
0000
0000
0130
0010
0100
0000
1000
0000
0001
0000
0010
0000
0000
0000
0010
0000
0000
0000
0001
0000
1000
0001
0100
0000
,
0020
0000
0000
0000
0001
0000
0001
0000
0000
0000
0130
0010
1000
0000
0001
0000
1000
0000
0100
0000
0000
0000
0001
0000
0000
0000
0100
0000
0010
0000
0100
0000
,
1000
0000
0001
0100
0010
0000
1000
0000
0000
0000
1000
0100
0010
0000
0001
0000
1000
0000
0100
0000
0010
0000
0001
0000
0010
0000
0100
0000
1000
0000
0001
0000
,
0100
0000
0010
1000
0100
0000
0002
0000
0003
0000
0001
0100
0010
0100
0010
0100
,
1000
0000
0010
0000
0100
0000
2000
0000
3000
0000
1000
0000
0100
0010
0100
0000
,
0001
0000
1000
0001
0010
0000
2000
0000
3000
0000
1000
0010
0100
0010
0100
0010
,
0001
0000
0100
0000
0010
0000
0002
0000
0003
0000
0001
0000
0010
0100
0010
0000
,
1000
0000
0001
1000
0100
0000
0020
0000
0030
0000
1000
0010
0100
0000
1000
0000
,
0001
0100
0010
0002
0003
0010
0100
0001
,
1000
0000
0100
0010
0100
0000
0002
0000
0003
0000
0100
0010
0100
0000
1000
0000
,
1010
0000
0110
0000
0101
0000
1001
0000
0000
0000
0001
0100
0010
1000
0100
0010
,
0100
0000
0010
0001
0100
0000
2000
0000
3000
0000
1000
0100
0010
0100
0001
1000
,
0100
0000
0010
0000
0100
0000
0002
0000
0003
0000
0001
0000
0100
0010
0001
0000
,
1000
0000
0001
1000
0010
0000
0002
0000
0003
0000
0001
0010
0100
0010
1000
0001
,
0010
0000
0100
0000
0010
0000
2000
0000
3000
0000
1000
0000
0010
0100
1000
0000
,
0001
0000
0100
0010
1000
0000
0002
0000
0003
0000
0010
0000
0100
0000
1000
0000
,
1100
0000
0010
0001
0000
0000
1001
0000
0101
0000
0010
1000
0000
0000
1001
0000
,
1000
0010
0100
0010
0100
0001
1000
0100
0010
0001
0100
0001
0010
0001
0100
0001
,
0020
0000
0000
0000
0000
0000
0000
0000
0031
0000
0010
0001
1000
0001
0100
0000
,
0010
1000
0000
0010
1000
0000
1010
0000
1000
0000
0010
1000
0001
1000
0100
0000
,
0010
0001
0000
0010
0001
0000
0011
0000
0001
0000
1000
0010
0100
0001
1000
0000
,
0001
0010
0000
0100
1000
0000
1001
0000
0001
0000
0100
0010
0100
0000
1000
0000
,
0001
0000
0010
0100
0010
0000
1000
0000
0001
0000
1000
0100
1000
0100
0010
0000
,
1000
0000
0010
0000
0001
0000
1001
0000
1000
0000
0001
0100
0001
0100
0010
0000
,
0001
0000
0010
0000
1000
0000
1001
0000
0001
0000
0010
0001
0100
0010
1000
0000
,
0010
0000
1000
0010
0100
0001
0010
0000
0011
0000
0000
0000
1100
0000
0000
0000
,
1010
0000
0101
0000
0002
0000
0013
0100
,
1000
0010
0000
0010
0100
0000
0110
0000
0001
0000
1000
0100
0010
0100
0001
0000
,
0100
0010
0000
0100
0010
0000
0011
0000
1000
0000
0001
0100
0010
0100
1000
0000
,
0100
0010
0000
0100
0010
0000
1010
0000
0001
0000
0010
0100
0010
0000
1000
0000
,
0001
0000
0100
0010
0100
0000
1000
0000
0001
0000
1000
0010
0100
0010
0001
0000
,
1000
0000
0100
0000
0001
0000
1001
0000
1000
0000
0001
0010
0100
0010
1000
0000
,
0001
0000
0100
0000
1000
0000
1001
0000
1000
0000
0001
0100
0010
1000
0100
0000
,
0010
0000
0100
1000
0010
0100
0001
0000
0101
0000
0000
0000
1010
0000
0000
0000
,
1001
0000
0011
0000
2100
0000
3001
1010
,
0000
0000
1000
0010
0100
0001
1000
0000
0001
0010
0001
0010
0100
0010
0001
0000
,
0010
0001
1000
0001
0100
0010
0100
0000
0102
0000
0000
0000
1003
0000
0011
0000
,
0000
0000
0001
0010
0100
1000
0001
0000
1000
0100
1000
0100
0010
0001
0100
0010
,
1000
0000
0010
0100
0001
0000
1000
0000
0001
0000
0001
0000
0010
0000
0010
0000
,
1000
0000
0001
0000
0100
0000
1000
0001
1000
0000
1000
0000
0010
0000
0010
0000
,
0001
0000
1000
0000
0100
0000
0001
1000
0001
0100
0010
1000
0100
0010
0001
1000
,
0100
0000
0010
0001
1000
0010
0100
0000
0220
0330
0000
0000
2002
0000
0000
0000
,
3003
0220
0000
0330
2002
3003
0000
0000
;
