#TITLE:Moe Chaos;
#SUBTITLE:;
#ARTIST:Hommarju;
#TITLETRANSLIT:;
#SUBTITLETRANSLIT:;
#ARTISTTRANSLIT:;
#GENRE:;
#CREDIT:;
#MUSIC:Moe Chaos.ogg;
#BANNER:Moe Chaos.png;
#BACKGROUND:Moe Chaos-bg.png;
#CDTITLE:;
#SAMPLESTART:64.000;
#SAMPLELENGTH:15.000;
#SELECTABLE:YES;
#OFFSET:1.600;
#BPMS:0.000=150.000
,243.000=300.000
,244.000=150.000
;
#STOPS:243.000=0.200;
#DISPLAYBPM:150.000;
#BGCHANGES:;
#FGCHANGES:;

//--------------- dance-single - chrononical ----------------
#NOTES:
     dance-single:
     chrononical:
     Beginner:
     4:
     0,0,0,0,0:
0000
0000
0000
0000
,
0000
0000
0000
0000
,
0000
0000
0000
0000
,
0000
0000
0000
0000
,
0000
0000
0000
0000
,
0001
0001
2000
0000
,
3001
0001
0010
0000
,
0001
0001
2000
0000
,
3001
0001
1000
0010
,
1000
0001
1000
0000
,
0010
0100
0010
0000
,
1000
0001
1000
0001
,
1000
0010
1000
0010
,
0000
0000
0000
0000
,
0000
0000
0000
0000
,
0000
0000
0000
0000
,
0000
0000
0000
0000
,
0000
0000
0000
0000
,
0000
0000
0000
0000
,
0000
0000
0000
0000
,
0000
0000
0000
0000
,
0001
0010
0002
0000
,
1003
0010
1000
0001
,
1000
0100
2000
0000
,
3001
0001
1000
1000
,
1000
0100
2000
0000
,
3000
1002
0000
0000
,
1003
0010
0200
0000
,
0301
1000
0001
0002
,
1003
0100
0010
0010
,
0001
0000
0100
0000
0000
0010
0000
0000
,
0010
1000
0001
0001
,
1000
0000
0100
0000
0000
0100
0000
0000
,
1000
0000
0100
0000
,
0001
0000
0010
0000
,
1000
0000
0010
0000
,
0001
0000
0100
0000
,
1000
0000
1001
0000
,
0001
0000
0110
0000
,
1000
0001
1000
0000
,
2002
0000
0000
3003
,
0001
0100
0001
0001
,
1000
0010
1000
1000
,
1000
0100
1000
0100
,
1000
0001
0001
1000
,
1000
0010
1000
1000
,
0001
0100
0001
0001
,
0001
1000
0100
1000
,
0002
0000
0000
0103
,
0010
1000
0010
1000
,
0010
1000
0001
1000
,
0100
1000
0100
1000
,
0010
0100
0010
0100
,
0100
0000
1001
0000
,
0010
0000
1001
0000
,
1000
0100
0010
0001
,
2000
0000
0000
0000
,
3001
0100
0001
0000
,
1001
0000
0110
0000
,
1000
0001
1000
0000
,
0010
1000
0002
0000
,
0003
1000
0100
0010
,
0001
0100
0010
1000
,
0001
1000
0001
1000
,
0001
0000
0100
0000
,
0010
0010
2000
0000
,
3001
0001
1000
1000
,
0010
0010
0200
0000
,
0302
0000
0000
1003
,
0001
1000
0100
0010
,
0001
0100
0010
0000
,
1001
0000
1000
1000
,
0001
0001
1000
0001
,
2002
0000
0000
0000
,
3003
0000
0000
0000
;

//--------------- dance-single - chrononical ----------------
#NOTES:
     dance-single:
     chrononical:
     Easy:
     8:
     0,0,0,0,0:
0000
0000
0000
0000
,
0000
0000
0000
0000
,
0000
0000
0000
0000
,
0000
0000
0000
0000
,
0000
0000
0000
0000
,
1000
0000
0100
0010
0002
0000
0000
0000
,
1003
0000
0010
0100
0001
0000
1000
0000
,
0100
0000
0010
0001
2000
0000
0000
0000
,
3010
0000
0100
0001
1000
0000
0100
0000
,
0110
0010
0011
0001
,
0101
0100
0110
0010
,
0100
0001
1000
0000
0100
0010
0100
0000
,
1000
0001
1000
0001
1000
0001
1000
0001
,
0000
0000
0000
0000
,
0000
0000
0000
0000
,
0000
0000
0000
0000
,
0000
0000
0000
0000
,
0000
0000
0000
0000
,
0000
0000
0000
0000
,
2000
0000
0000
0000
,
0000
0000
0000
0001
,
0001
0001
3001
0001
,
0010
0100
1000
0001
,
1000
0010
1000
0000
0001
0000
0100
0000
,
0010
1000
0100
0010
,
0001
0010
1000
0100
,
0001
0000
1000
0002
0000
0000
0000
0000
,
1003
0010
0100
0010
,
1000
0100
0010
0100
,
0010
0001
1000
0000
0020
0000
0230
0000
,
0301
1000
0001
0000
1000
0010
0000
0010
,
1000
0001
1000
0000
0200
0000
0320
0000
,
0031
1000
0001
0000
0001
0100
0000
0100
,
0001
0100
0020
0130
,
0010
1000
0200
0310
,
0001
0100
2000
3100
,
0001
0010
2000
3010
,
0001
0100
0010
0110
,
0010
1000
0100
0110
,
0010
0001
0100
0010
,
2002
0000
0000
3003
,
0001
0000
0010
0000
0100
0010
0000
0010
,
0100
0000
1000
0000
0010
0000
0100
0001
,
1000
0100
0001
0100
,
1000
0100
0001
0010
,
0010
0000
1000
0000
0001
1000
0000
1000
,
0001
0000
0100
0000
0010
0000
1000
0001
,
1000
0010
0001
0010
,
1000
0001
1000
0000
0010
0000
0100
0000
,
1001
1000
0100
0010
,
0011
0000
0001
0000
0100
0000
0010
1000
,
0001
0010
0100
0010
,
0110
0000
0110
0000
1001
0000
0001
1000
,
0001
0000
1001
0000
,
1010
0000
1001
1000
,
0001
1000
0001
1000
0001
1000
0001
1000
,
0002
0000
0000
0000
,
1003
0010
0100
0101
,
0001
0100
1000
0010
,
0001
0010
0100
1100
,
1000
1010
0010
0200
,
0301
0100
0110
0101
,
1001
0100
1001
0010
,
1001
1000
0110
0110
,
0001
0010
1000
0100
,
0001
0000
1000
0010
0200
0000
0000
0000
,
0310
1000
0100
0010
,
0001
0000
0100
0010
2000
0000
0000
0000
,
3001
0000
0100
0000
0010
0000
1000
0001
,
1000
0100
0010
0001
,
1000
0010
0100
0001
,
1000
0001
1000
0000
0100
0000
0010
0000
,
0001
1000
0010
0100
,
2002
0000
0000
0000
,
3003
0000
0000
0000
;

//--------------- dance-single - chrononical ----------------
#NOTES:
     dance-single:
     chrononical:
     Medium:
     12:
     0,0,0,0,0:
0000
0000
0000
0000
,
0000
0000
0000
0000
,
0000
0000
0000
0000
,
0000
0000
0000
0000
,
0000
0000
0000
0000
,
0011
0000
0010
0200
0001
0000
1000
0000
,
1300
0000
0000
0010
0100
0000
0100
0000
0001
0000
0000
0000
1001
0000
0000
0000
,
1000
0000
0010
0200
1000
0000
0001
0000
,
0301
0000
0000
0010
0100
0000
0100
0000
1000
0001
1000
0000
0010
0000
0100
0000
,
0110
0010
1010
1000
,
1001
0001
0011
0010
,
0100
0100
1000
1000
0001
0001
0100
0100
,
0010
1000
0000
0010
1000
0000
0001
1000
0000
0001
0010
0000
0001
1000
0000
0001
,
0000
0000
0000
0000
,
0000
0000
0000
0000
,
0000
0000
0000
0000
,
0000
0000
0000
0000
,
0000
0000
0000
0000
,
0000
0000
0000
0000
,
2002
0000
0000
0000
,
0000
0000
0003
3002
,
2003
0100
0010
0001
,
3001
0000
0000
0100
0000
0000
0010
0000
0000
1000
0000
0000
0001
0000
1000
0000
,
0001
0020
0200
0000
0330
0100
0100
1000
,
0010
0000
0000
0100
0000
0000
0010
0000
0000
1000
0000
0000
0001
0000
0010
0000
,
0100
0000
1000
0020
1000
0000
0001
0000
,
1030
0000
0000
0000
0100
0000
0020
0000
0000
0001
0000
0000
0031
0000
1000
0000
,
0010
0000
0000
0100
0000
0000
0020
0000
0000
0100
0000
0000
0130
0000
0010
0000
,
1000
0000
0000
0001
0000
0000
0100
0000
0000
0010
0000
0000
2000
0000
0000
0000
,
3001
1000
0200
0000
1000
0000
0001
0000
,
0310
0001
1000
0010
0100
0010
0000
1000
,
0001
0100
0010
0100
0020
0000
2030
0000
,
3001
0010
0100
1000
0010
1000
0000
1000
,
0100
1000
0010
0100
0010
0000
0120
0000
,
0130
0001
0010
0100
0010
0000
0120
0000
,
0130
0001
0100
1000
0010
0000
0120
0000
,
0130
1000
0100
0001
0010
0000
0120
0000
,
0130
1000
0010
0100
0110
0000
0101
0000
,
0100
0010
1000
0100
0110
0000
0011
0000
,
0001
0100
1000
0100
0010
0000
0210
0000
,
0302
2003
0002
3000
,
1003
1100
0110
0011
,
1001
0000
0000
0000
1010
0000
0000
0000
0010
0100
0010
0000
0100
0000
0001
0000
,
1000
0110
0001
0110
,
1001
0000
0000
0000
1010
0000
0000
0000
0010
1000
0010
0000
0100
0000
0001
0000
,
1000
1010
0011
1010
,
1100
0000
0000
0000
0110
0000
0000
0000
0010
0001
0010
0000
0001
0000
1000
0000
,
0001
0101
1100
0101
,
0001
0010
1000
0020
0100
0000
0130
1000
,
0010
0110
1001
0011
,
1001
0000
0000
0000
1010
0000
0000
0000
1000
0001
1000
0000
0100
0000
0010
0000
,
0001
0110
1000
0110
,
1001
0000
0000
0000
1100
0000
0000
0000
0100
0010
0100
0000
0010
0000
0001
0000
,
1000
0010
0110
0100
,
0101
0000
0001
0000
0011
0000
0010
0010
,
0001
1000
0000
1000
0010
0000
0010
0100
0000
0100
0001
0000
1000
0001
1000
0000
,
0002
0000
0000
0000
,
1003
0100
0010
0100
0020
0000
0031
0000
,
0011
1010
0011
1001
,
0001
0100
0010
0100
0020
0000
1030
0000
,
1000
0010
0110
0000
0201
0000
0000
0000
,
1300
0000
0000
0000
1001
0000
0000
0000
1100
0000
0000
0000
1000
0000
0001
1000
,
0001
0000
0000
0000
1001
0000
0000
0000
1000
0010
1000
0000
0010
0000
0000
0000
,
1010
1100
1001
0011
,
0002
0000
0000
0000
0203
0000
0000
0320
0000
0000
1030
0000
0002
0000
0000
0000
,
1003
0100
0010
0200
0001
0000
1000
0000
,
1300
0010
0100
1000
0100
0010
1000
0001
,
1000
0010
0100
0020
0001
0000
1000
0000
,
1030
0000
0000
0100
0000
0010
0000
0001
0000
1000
0000
0010
0100
0000
0001
0000
,
1000
0100
0001
0100
1000
0000
1100
0000
,
1000
0010
0000
0000
0010
0100
0000
0000
0100
0001
0100
0000
0001
0000
0000
0000
,
1001
0001
1000
0100
0010
0001
1000
0000
,
0001
0000
0100
0010
0000
0010
1000
0000
0100
0010
0100
0000
0010
0000
0001
0000
,
2002
0000
0000
0000
,
3003
0000
0000
0000
;

//--------------- dance-single - chrononical ----------------
#NOTES:
     dance-single:
     chrononical:
     Hard:
     15:
     0,0,0,0,0:
0000
0000
0000
0000
,
0000
0000
0000
0000
,
0000
0000
0000
0000
,
0000
0000
0000
0000
,
0000
0000
0000
0000
,
1001
0000
0000
0001
0010
0000
0100
0000
0010
0000
0000
0100
1000
0000
0001
0000
,
0101
0000
0000
0100
0010
0000
1000
0000
0010
0000
0000
0010
0100
0000
0001
0000
,
0011
0000
0000
0010
0100
0000
0010
0000
0100
0000
0000
0100
1000
0000
0100
0000
,
1100
0000
0000
1000
0010
0000
0100
0000
0010
0100
0001
0000
1000
0000
0010
0000
,
1010
0010
0001
0010
1010
1000
0100
0010
,
0110
0100
0001
0100
0110
0100
1000
0001
,
0100
0010
0100
0000
0001
0010
0001
0000
1000
0010
1000
0000
0001
0010
0001
0000
,
1000
0010
1000
0010
0100
0001
1000
0001
1000
0100
0010
0100
0010
0001
1000
0001
,
0000
0000
0000
0000
,
0000
0000
0000
0000
,
0000
0000
0000
0000
,
0000
0000
0000
0000
,
0000
0000
0000
0000
,
0000
0000
0000
0000
,
2002
0000
0000
0000
,
0000
0000
3000
2003
,
3001
0000
0000
0100
0000
0000
0001
0000
0000
1000
0000
0000
1000
0000
0001
0010
,
0001
0000
0010
0100
0000
0000
1000
0000
0000
0001
0000
0000
0001
0000
1000
0000
,
0010
0000
0000
0010
0000
0000
0120
0000
0000
0130
0000
0000
0100
0000
0001
0010
,
0100
0000
1000
0001
0000
0000
0100
0000
0000
0001
0000
0000
0001
0000
1000
0000
,
0001
0000
0000
0010
0000
0000
0210
0000
1000
0000
0000
0000
0001
0000
0000
0000
,
2300
0000
0000
0000
3010
0000
0200
0000
0000
0010
0000
0000
0001
0000
0001
0000
,
0301
0000
0000
1000
0000
0000
2001
0000
0000
3100
0000
0000
0100
0000
1000
0100
,
0010
0000
0100
1000
0000
0000
0010
0000
0000
0100
0000
0000
0100
0000
0001
0000
,
0010
0000
0100
0000
1000
0000
0010
0100
0001
1000
0010
0000
0110
0000
0010
1000
,
0001
0000
0001
0000
0010
0000
0100
1000
0001
0100
0010
0000
0000
0000
0010
0000
,
1000
0000
1000
0000
0001
0000
0010
0100
1000
0100
0010
0000
0110
0000
0010
0001
,
1000
0000
0010
0000
0100
0000
0001
0100
0010
1000
0100
0000
0000
0000
0100
0000
,
1100
1000
0010
0100
1000
0000
2000
0000
,
3100
0001
0010
1000
0001
0000
0002
0000
,
0103
1000
0010
0001
0010
0000
0210
0000
,
0310
0001
0010
1000
0100
0000
0210
0000
,
0310
0001
1000
0010
0100
1000
0100
0010
,
1000
0100
0010
0100
0001
0100
1000
0001
,
0100
0010
1000
0000
0100
0010
0001
0000
0100
0000
0000
0000
0110
0000
0000
0000
,
2002
0000
0000
3003
,
0011
0000
0001
0010
0001
0000
0100
0000
0110
0000
0000
0000
1010
0000
0000
0000
,
1100
0000
0000
1000
0001
0000
0001
1000
0001
0010
0100
0000
0110
0000
0010
0000
,
0011
0000
0001
1000
0001
0000
1000
0000
1100
0000
1000
0000
0001
0100
0010
0000
,
0100
0001
0000
0000
0001
0010
0000
0000
0100
1000
0001
0000
0101
0000
0100
0000
,
0110
0000
0010
1000
0001
0000
1000
0000
1001
0000
0000
0000
1010
0000
0000
0000
,
0101
0000
0000
0100
0001
0000
0010
0100
0010
0100
1000
0000
1100
0000
0100
0000
,
0110
0000
0010
0001
1000
0000
0010
0000
0110
0000
0100
0000
0001
1000
0001
0000
,
0010
0000
0001
0000
1000
0010
0100
0001
1000
0000
0001
0000
1000
0000
0010
0000
,
1010
0000
1000
0001
1000
0000
0010
0000
0110
0000
0000
0000
0101
0000
0000
0000
,
1001
0000
0000
0001
1000
0000
0100
0010
0001
1000
0001
0000
1001
0000
1000
0000
,
1100
0000
0100
0010
0100
0000
1000
0000
1100
0000
0100
0000
0010
0001
1000
0000
,
0001
0100
0000
0000
0010
0100
0000
0000
0010
1000
0001
0000
0101
0000
0100
0000
,
0110
0010
0001
0010
0110
0100
0001
0010
,
0110
0000
0000
0100
1000
0000
0001
0100
0010
0100
0010
0000
1010
0000
0010
0000
,
1000
0010
0100
0010
0100
0001
1000
0001
1000
0100
0010
0100
0010
0001
1000
0001
,
2000
0100
0010
0001
,
3001
0100
1000
0100
0110
0000
0110
0010
,
1010
0000
0000
0000
0011
0000
0000
0000
1010
0000
0000
0000
1000
0001
1000
0000
,
0001
0000
0010
0000
1000
0000
0010
0000
0110
0000
0000
0000
0100
1000
0001
0000
,
0100
0010
1000
0000
1001
0000
0000
0000
1200
0000
0000
0000
0000
0000
0000
0000
,
0301
0000
0000
0000
0011
0000
0000
0000
0101
0000
0000
0000
0101
0000
0001
0010
,
0100
0000
0000
0000
0110
0000
0000
0000
0100
1000
0001
0000
0100
0010
0100
0000
,
0110
0000
0000
0000
1001
0000
0000
0000
1000
0100
0000
0100
0010
0000
0001
0000
,
1001
0000
0000
0000
1000
0000
0000
0001
0000
0000
0001
0000
0010
0000
0100
0000
,
1100
0000
1000
0001
0100
0000
0201
0000
0010
0000
0000
0000
1000
0000
0000
0000
,
0301
0000
1000
0100
0010
0000
0100
1000
0001
1000
0001
0000
1000
0001
1000
0000
,
1001
0000
0001
1000
0010
0000
1020
0000
0100
0000
0000
0000
0001
0000
0000
0000
,
1030
0000
0000
1000
0000
0010
0000
0001
0000
0010
0000
0100
0010
0000
1000
0000
,
1010
0000
1000
0001
0100
0000
0001
0010
0001
0000
0010
0100
1000
0000
0001
0100
,
0010
0100
0000
0000
0001
1000
0000
0000
0001
0010
0001
0000
1001
0000
0000
0000
,
1010
0000
0010
0000
0110
0000
0100
0001
1000
0001
1000
0000
1001
0000
0001
0000
,
0011
0000
0010
0100
0000
0100
1000
0000
0001
0100
0001
0000
0100
0000
0010
0000
,
0220
0000
0000
0000
,
0330
0000
0000
0000
;
