#VERSION:0.83;
#TITLE:Mitarashi platonic;
#SUBTITLE:;
#ARTIST:Yunomi feat. nicamoq;
#TITLETRANSLIT:;
#SUBTITLETRANSLIT:;
#ARTISTTRANSLIT:;
#GENRE:;
#ORIGIN:;
#CREDIT:;
#BANNER:Mitarashi platonic.png;
#BACKGROUND:Mitarashi platonic-bg.png;
#PREVIEWVID:;
#JACKET:Mitarashi platonic-jacket.png;
#CDIMAGE:;
#DISCIMAGE:;
#LYRICSPATH:;
#CDTITLE:;
#MUSIC:Mitarashi platonic.ogg;
#OFFSET:-0.046447;
#SAMPLESTART:79.537750;
#SAMPLELENGTH:12.000000;
#SELECTABLE:YES;
#BPMS:0.000=160.000;
#STOPS:;
#DELAYS:;
#WARPS:;
#TIMESIGNATURES:0.000=4=4;
#TICKCOUNTS:0.000=4;
#COMBOS:0.000=1;
#SPEEDS:0.000=1.000=0.000=0;
#SCROLLS:0.000=1.000;
#FAKES:;
#LABELS:0.000=Song Start;
#BGCHANGES:;
#KEYSOUNDS:;
#ATTACKS:
;

//---------------dance-single - ----------------
#NOTEDATA:;
#CHARTNAME:;
#STEPSTYPE:dance-single;
#DESCRIPTION:;
#CHARTSTYLE:;
#DIFFICULTY:Challenge;
#METER:15;
#RADARVALUES:0.765077,0.784113,0.375827,0.298954,0.439889,627.000000,583.000000,44.000000,35.000000,0.000000,0.000000,0.000000,0.000000,0.000000,0.765077,0.784113,0.375827,0.298954,0.439889,627.000000,583.000000,44.000000,35.000000,0.000000,0.000000,0.000000,0.000000,0.000000;
#CREDIT:Daniel Van Eden;
#NOTES:
// measure 0
0000
0000
0000
0000
,  // measure 1
0000
0000
0000
0000
,  // measure 2
0000
0000
0000
0000
,  // measure 3
0000
0000
0000
0000
,  // measure 4
0000
0000
0000
0000
,  // measure 5
0001
0000
0000
1000
0010
0000
1000
0000
0001
0000
0000
0010
0001
0000
1000
0000
,  // measure 6
0100
0010
0001
1000
0010
0001
0010
1000
,  // measure 7
0001
0000
0000
1000
0100
0000
1000
0000
0001
0000
0000
0100
0001
0000
1000
0000
,  // measure 8
0100
0001
0100
1000
0010
0001
0010
1000
,  // measure 9
0001
0000
0000
0011
0000
0000
0001
0000
1000
0000
0000
1100
0000
0000
1000
0000
,  // measure 10
0001
0000
0100
0000
0010
0000
1000
0000
0001
0000
0010
0001
1000
0000
0010
0000
,  // measure 11
1000
0000
0001
0100
0001
0000
1000
0000
0001
0000
1000
0100
1000
0000
0010
0000
,  // measure 12
0001
1000
0100
0001
0010
0100
2002
3003
,  // measure 13
0102
0000
0013
0100
2001
0000
3010
0100
,  // measure 14
0001
0000
0010
0001
0010
0000
0100
0000
1000
0000
0010
0100
0001
0000
0010
0000
,  // measure 15
2100
0000
3010
0100
1002
0000
0013
0100
,  // measure 16
1000
0000
0001
1000
0001
0000
1000
0100
0010
0000
0000
0000
0101
0000
0000
0000
,  // measure 17
1020
0000
0130
0001
0021
0000
0130
1000
,  // measure 18
0010
0000
0100
0010
0100
0000
0001
0000
1000
0000
0001
0010
0100
0000
1000
0000
,  // measure 19
1200
0000
0310
0001
0201
0000
0310
1000
,  // measure 20
0001
0000
0010
0001
0010
0000
0100
0000
1000
0001
1000
0001
0200
0000
0000
0000
,  // measure 21
0301
0000
0000
0010
0100
0000
0001
0000
0100
0000
0000
0010
0100
0000
1000
0000
,  // measure 22
0001
0000
0100
0010
0100
0000
0001
0000
1000
0000
0001
0010
0100
0000
1000
0000
,  // measure 23
0001
0000
0000
0100
0010
0000
0001
0000
0010
0000
0000
0100
0010
0000
1000
0000
,  // measure 24
0001
0000
1000
0001
1000
0000
0100
0000
0010
0000
0000
0100
0010
0000
0001
0000
,  // measure 25
1000
0000
0000
0010
0100
0000
1000
0000
0100
0000
0000
0010
0100
0000
0001
0000
,  // measure 26
1000
0000
0100
0010
0100
0000
1000
0000
0001
0000
0100
0001
1000
0000
0010
0000
,  // measure 27
2010
0000
0000
3001
0000
0000
0001
0000
0012
0000
0000
1003
0000
0000
1000
0000
,  // measure 28
1100
0100
0110
0010
0011
0000
2002
3003
,  // measure 29
0001
0000
0000
1000
0001
0000
0000
1000
,  // measure 30
0100
0000
0000
0100
0000
0000
0100
0000
0100
0000
0010
0000
1001
0000
0000
0000
,  // measure 31
1000
0000
0010
0100
1000
0000
0100
0001
,  // measure 32
1000
0000
0000
1000
0001
0000
0010
0000
0001
0000
0000
0001
0100
0000
0010
0000
,  // measure 33
1000
1000
0100
1000
0001
0000
0021
0000
,  // measure 34
0130
0000
0010
0001
1000
0000
0010
0000
0100
0000
0000
0100
0001
0000
1000
0000
,  // measure 35
0100
0000
0001
0100
0010
0000
0010
0001
,  // measure 36
1000
0000
0010
1000
0001
0000
1000
0000
1001
0000
0000
1000
0001
0100
0001
1000
,  // measure 37
0100
0000
0000
0100
0010
0000
0001
0000
0100
0000
0000
0100
0010
0000
1000
0000
,  // measure 38
0001
0000
0100
0001
1000
0000
0100
0000
0010
0000
0001
0010
0001
0000
1000
0000
,  // measure 39
0010
0000
0000
0010
1000
0000
0001
0000
0010
0000
0000
0010
0100
0000
1000
0000
,  // measure 40
0100
0000
0010
0001
1000
0000
0010
0000
0100
0000
0010
0100
0001
0000
1000
0100
,  // measure 41
0010
0000
0000
0010
0001
0000
0100
0000
0010
0000
0000
0010
1000
0000
0001
0000
,  // measure 42
1000
0000
0001
1000
0100
0000
0010
0000
0001
0000
1000
0001
1000
0000
0010
0000
,  // measure 43
0100
0000
0000
0100
0001
0000
1000
0000
0100
0000
0000
0100
1000
0000
0001
0000
,  // measure 44
0010
0000
1000
0000
0010
0000
0001
0000
1000
0000
0010
1000
0010
0000
0100
0001
,  // measure 45
0200
0000
0010
0000
1000
0000
0310
1000
,  // measure 46
0200
0001
0310
1001
,  // measure 47
0021
0000
1000
0000
0100
0000
0031
1000
,  // measure 48
0020
0000
0001
0000
0130
0001
1001
0000
,  // measure 49
1000
0000
0000
0001
1000
0000
0001
0000
0100
0000
0000
0010
0100
0000
0010
0000
,  // measure 50
1000
0000
0000
0100
1000
0000
0100
0000
0010
0000
0000
0001
0010
0000
0001
0000
,  // measure 51
1000
0000
0010
1000
0010
0000
0100
0000
0001
0000
0100
0001
0100
0000
0010
0000
,  // measure 52
1000
0000
0000
0000
0001
0000
1000
0100
0010
0000
0001
0000
1001
0000
0000
0000
,  // measure 53
1000
0000
0010
0100
0001
0000
0010
0000
0001
0000
0010
0100
1000
0000
0010
0000
,  // measure 54
1000
0000
0010
0100
0010
0000
0001
0000
0010
0000
1000
0001
1000
0000
0100
0000
,  // measure 55
0010
0000
0000
0100
1000
0000
0100
0000
0001
0000
0000
0100
1000
0000
0001
0000
,  // measure 56
0100
0000
0010
1000
0010
0000
0100
0000
0001
0000
0000
0001
1000
0000
0010
1000
,  // measure 57
0001
0000
0010
0100
1000
0000
0010
0000
1000
0000
0010
0100
0001
0000
0010
0000
,  // measure 58
0001
0000
0100
0010
0100
0000
1000
0000
0100
0000
0001
1000
0001
0000
0010
0000
,  // measure 59
0100
0000
0000
0100
0001
0000
0100
0000
1000
0000
0010
1000
0001
0000
0001
0000
,  // measure 60
0101
0100
0110
0010
1010
0000
1002
0000
,  // measure 61
0103
0000
0010
0100
1000
0000
0100
0000
0010
0000
0100
0010
0001
0000
0010
0000
,  // measure 62
1000
0000
0100
0010
0100
0000
0001
0000
1000
0000
0010
0001
1000
0000
0010
0000
,  // measure 63
0110
0000
0000
0010
1000
0000
0001
0000
0011
0000
0000
0010
0100
0000
1000
0000
,  // measure 64
0001
0000
0100
0001
1000
0000
0010
0000
1000
0000
0001
0010
0100
0000
1000
0000
,  // measure 65
0100
0000
0010
0100
0001
0000
0100
0000
0010
0000
0100
0010
1000
0000
0010
0000
,  // measure 66
0001
0000
0100
0010
0100
0000
1000
0000
0001
0000
0010
1000
0001
0000
0010
0000
,  // measure 67
0120
0000
0000
0031
0000
0000
0001
0000
0102
0000
0010
0000
0013
0000
0100
0000
,  // measure 68
1100
0000
1000
0000
1001
0000
0001
0000
0101
0000
0100
0010
1000
0000
1000
0000
,  // measure 69
1200
0000
0302
0103
0210
0000
0302
1003
,  // measure 70
0010
0000
0001
0000
1000
0000
0010
0000
0001
0000
0010
0100
0001
0000
0010
0000
,  // measure 71
0021
0000
2030
3010
0021
0000
2030
3001
,  // measure 72
0100
0000
1000
0000
0010
0000
0100
0010
1000
0000
0001
0010
0100
0000
1000
0000
,  // measure 73
1020
0000
0032
0013
1020
0000
0032
1003
,  // measure 74
0100
0000
0001
0000
1000
0000
0100
0010
0100
0000
0010
0001
1000
0000
0010
0000
,  // measure 75
1000
0000
0010
0100
0001
0000
0001
1000
0010
0000
1000
0100
0010
0000
0010
0001
,  // measure 76
1000
0001
0101
0100
0110
0000
0000
0000
;

//---------------dance-single - ----------------
#NOTEDATA:;
#CHARTNAME:;
#STEPSTYPE:dance-single;
#DESCRIPTION:;
#CHARTSTYLE:;
#DIFFICULTY:Hard;
#METER:13;
#RADARVALUES:0.627193,0.620756,0.102498,0.230621,0.213538,514.000000,502.000000,12.000000,27.000000,0.000000,0.000000,0.000000,0.000000,0.000000,0.627193,0.620756,0.102498,0.230621,0.213538,514.000000,502.000000,12.000000,27.000000,0.000000,0.000000,0.000000,0.000000,0.000000;
#CREDIT:Daniel Van Eden;
#NOTES:
0000
0000
0000
0000
,
0000
0000
0000
0000
,
0000
0000
0000
0000
,
0000
0000
0000
0000
,
0000
0000
0000
0000
,
1000
0000
0000
0100
1000
0000
0001
0000
1000
0000
0000
0100
1000
0000
0001
0000
,
0100
0000
0000
0010
1000
0000
0001
0000
0010
0000
0000
0000
1001
0000
0000
0000
,
0001
0000
0000
0100
0001
0000
1000
0000
0001
0000
0000
0100
0001
0000
1000
0000
,
0010
0000
0000
1000
0100
0000
0010
0000
0001
0000
1000
0000
0020
0000
0000
0000
,
0130
0000
0000
0001
0000
0000
0001
0000
0010
0000
0000
0100
0000
0000
0100
0000
,
1000
0000
0000
0001
0000
0000
0001
0000
0100
0000
0000
0010
0100
0000
0001
0000
,
1000
0100
1000
0001
0010
0001
0100
0010
,
1000
0010
0001
0010
1000
0001
1001
0000
,
2000
0000
3001
0100
2000
0000
3100
0001
,
1000
0000
0001
0000
0100
0000
0010
0000
1000
0000
0001
0010
0100
0000
1000
0000
,
0002
0000
1003
0100
0002
0000
0103
1000
,
0001
0000
0000
0001
0000
0000
1000
0010
2000
0000
0000
0000
3200
0000
0000
0000
,
0320
0000
0031
1000
0020
0000
0130
0001
,
0010
0000
0100
0000
1000
0000
0001
0000
0100
0000
0010
1000
0001
0000
0010
0000
,
0200
0000
1300
0001
0200
0000
0310
1000
,
0100
0000
0000
0100
0000
0000
0010
0000
0100
0000
1000
0000
1001
0000
0000
0000
,
0001
0000
0000
0010
0100
0000
0010
0000
0001
0000
0000
0010
0100
0000
0010
0000
,
0001
0000
1000
0000
0010
0000
0100
0000
0001
0000
1000
0100
0010
0000
0001
0000
,
1000
0000
0000
0010
0100
0000
0010
0000
1000
0000
0000
0010
0100
0000
0010
0000
,
1000
0000
0000
1000
0001
0000
0010
0000
0100
0000
0000
0100
0010
0000
0001
0000
,
0100
0000
0000
0010
1000
0000
0010
0000
0100
0000
0000
0001
0010
0000
0001
0000
,
0100
0000
0010
0000
1000
0000
0001
0000
0010
0000
0100
0010
0001
0000
1000
0000
,
0010
0000
0000
1000
0000
0000
1000
0000
0001
0000
0000
0010
0000
0000
0010
0000
,
1000
0010
0001
0100
0010
0000
1001
0000
,
1000
0000
0000
0001
1000
0000
0000
0001
,
0010
0000
0000
0010
0000
0000
0010
0000
0010
0000
0100
0000
0100
0000
0000
0000
,
1000
0000
0001
0100
0001
0000
1000
0001
,
1000
0000
0010
0000
1000
0000
0100
0000
0010
0000
0000
0010
0000
0000
0100
0000
,
1000
0010
1000
0001
0010
0000
0100
0000
,
0010
0000
0001
0000
1000
0000
0010
0000
0100
0000
0000
0100
0000
0000
0001
0000
,
1000
0000
0001
0010
0100
0000
0010
0001
,
0010
0000
0000
0010
0001
0000
1000
0000
0001
0000
0000
0000
0000
0000
0000
0000
,
0010
0100
1000
0100
0010
0000
0011
0000
,
0001
0000
1000
0000
0010
0000
0100
0000
0001
0000
0000
0001
1000
0000
0001
0000
,
0100
0000
0001
1000
0100
0000
0010
0100
,
1000
0000
0001
0000
0100
0000
0010
0000
1000
0000
0001
1000
0001
0000
0100
0000
,
0010
0100
0001
1000
0100
0000
1100
0000
,
1000
0000
0001
0000
0010
0000
0100
0000
1000
0000
0000
1000
0010
0000
0100
0000
,
0001
0000
0010
0001
1000
0000
0010
0100
,
0010
0000
1000
0000
0001
0000
0010
0000
0100
0000
0010
0100
0010
0000
0001
1000
,
0002
0000
0010
0000
2003
0000
3010
0100
,
0002
0100
1003
0010
,
2000
0000
0010
0000
3002
0000
0013
0100
,
2000
0000
0100
0000
3001
0100
0010
0000
,
1000
0000
0000
0001
0000
0000
0010
0000
0001
0000
0000
1000
0000
0000
0100
0000
,
1000
0000
0000
0010
0000
0000
1000
0000
0010
0000
0000
0100
0000
0000
0001
0000
,
0100
0010
0100
0001
1000
0100
0010
0001
,
1000
0000
0010
0000
0100
0001
1002
0000
,
0103
1000
0100
0001
0100
1000
0100
0001
,
0010
0100
0100
0001
0100
1000
0010
0100
,
0001
0000
1000
0001
0100
0000
0010
1000
,
0001
0010
0010
0100
1000
0000
2001
0000
,
3100
0001
0100
1000
0100
0001
0100
1000
,
0010
0100
0100
1000
0100
0001
0010
0100
,
1000
0000
0000
1000
0100
0000
0010
0000
0001
0000
1000
0000
0010
0000
0010
0000
,
0100
1000
0100
0001
0001
0000
2001
0000
,
3010
0001
0010
0100
0010
1000
0010
0100
,
0001
0010
0010
1000
0001
0100
1000
0001
,
0100
0000
0001
1000
0100
0000
0010
0100
,
1000
0001
0001
0100
0010
0000
1002
0000
,
0013
1000
0010
0100
0010
0001
0010
0100
,
1000
0010
0010
0001
1000
0100
0001
1000
,
0100
0000
0000
0100
1000
0000
0001
0000
0100
0000
0010
0000
0010
0000
1000
0000
,
0001
0000
0010
0000
0001
0000
1000
0000
1000
0000
0001
1000
0100
0000
0100
0000
,
0120
0000
0130
1000
0020
0000
0130
0001
,
0010
0000
0100
0000
0010
0000
0001
0000
1000
0000
0010
1000
0001
0000
0010
0000
,
0200
0000
1300
0010
0200
0000
0301
0010
,
0100
0000
1000
0000
0001
0000
0100
0001
0100
0000
0010
1000
0001
0000
0010
0000
,
2000
0000
3010
0001
2000
0000
3010
0100
,
1000
0000
0100
0000
0001
0000
1000
0010
1000
0000
0001
1000
0100
0000
0010
0000
,
0001
0000
0000
0001
0010
0000
0100
0000
1000
0000
0000
1000
0010
0000
0100
0000
,
1000
0100
0001
1000
1001
0000
0000
0000
;

//---------------dance-single - ----------------
#NOTEDATA:;
#CHARTNAME:;
#STEPSTYPE:dance-single;
#DESCRIPTION:;
#CHARTSTYLE:;
#DIFFICULTY:Beginner;
#METER:2;
#RADARVALUES:0.202556,0.228700,0.034166,0.000000,0.000000,166.000000,162.000000,4.000000,0.000000,0.000000,0.000000,0.000000,0.000000,0.000000,0.202556,0.228700,0.034166,0.000000,0.000000,166.000000,162.000000,4.000000,0.000000,0.000000,0.000000,0.000000,0.000000,0.000000;
#CREDIT:Daniel Van Eden;
#NOTES:
0000
0000
0000
0000
,
0000
0000
0000
0000
,
0000
0000
0000
0000
,
0000
0000
0000
0000
,
0000
0000
0000
0000
,
1000
0000
0010
0000
,
0010
0000
1000
0000
,
0001
0000
0010
0000
,
0010
0000
0001
0000
,
1000
0000
0100
0000
,
0010
0000
0001
0000
,
1000
0000
0001
0000
,
0100
0100
0100
0000
,
1001
0000
1000
0000
,
0001
0000
0100
0100
,
0100
0000
0010
0000
,
1000
0000
0001
0001
,
0001
0000
1000
0000
,
0010
0000
1000
1000
,
1000
0000
0001
0000
,
0010
0010
0010
0000
,
0001
0000
1000
0000
,
0001
0000
0100
0000
,
0010
0000
1000
0000
,
0001
0000
0010
0000
,
0100
0000
1000
0000
,
0010
0000
0100
0000
,
0001
0000
0010
0000
,
0001
1000
0001
0000
,
0000
0000
0000
0000
,
0010
0000
0010
0000
,
1001
0000
0001
0000
,
1000
0000
0010
0000
,
0100
0000
0010
0000
,
1000
1000
1000
0000
,
0001
0000
0010
0000
,
0001
0000
0001
0000
,
1001
0000
1000
0000
,
0010
0010
0010
0000
,
1000
0000
0100
0000
,
0010
0000
0001
0000
,
1000
0000
0010
0000
,
0100
0100
0100
0000
,
0001
0000
1000
0000
,
0010
0000
1000
0000
,
0001
0000
1000
0000
,
0001
0000
0001
0000
,
1000
0000
0001
0000
,
1000
0000
1000
0000
,
0100
0100
0100
0000
,
0010
0010
0010
0000
,
0001
0000
1000
0000
,
0001
0000
0000
1000
,
1000
0000
0010
0000
,
0001
0000
0010
0000
,
1000
0000
0100
0000
,
0010
0010
0010
0000
,
0001
0000
0100
0000
,
1000
0000
0100
0000
,
0001
0000
1000
0000
,
0100
0100
0100
0000
,
0110
0000
0001
0000
,
1000
0000
0010
0010
,
0010
0000
0100
0000
,
0001
0000
1000
0000
,
0100
0000
0010
0000
,
0001
0000
0100
0100
,
0100
0000
0010
0000
,
1000
0001
1000
0000
,
0010
0000
0010
0000
,
1000
0000
0001
0001
,
0001
0000
0001
0000
,
0010
0000
0100
0100
,
0100
0000
1000
0000
,
1000
0000
0010
0010
,
0010
0000
1000
0000
,
0001
1000
0001
0000
;

//---------------dance-single - ----------------
#NOTEDATA:;
#CHARTNAME:;
#STEPSTYPE:dance-single;
#DESCRIPTION:;
#CHARTSTYLE:;
#DIFFICULTY:Medium;
#METER:10;
#RADARVALUES:0.417315,0.490070,0.136665,0.008542,0.042708,342.000000,326.000000,16.000000,1.000000,0.000000,0.000000,0.000000,0.000000,0.000000,0.417315,0.490070,0.136665,0.008542,0.042708,342.000000,326.000000,16.000000,1.000000,0.000000,0.000000,0.000000,0.000000,0.000000;
#CREDIT:Daniel Van Eden;
#NOTES:
0000
0000
0000
0000
,
0000
0000
0000
0000
,
0000
0000
0000
0000
,
0000
0000
0000
0000
,
0000
0000
0000
0000
,
1000
0000
1000
0010
0100
0000
0100
0001
,
0100
0000
0100
0001
1000
0000
0000
0000
,
0001
0000
0001
0010
0100
0000
0100
1000
,
0100
0000
1000
0001
1000
0000
0000
0000
,
1000
0000
0000
1000
0000
0000
0000
0000
0001
0000
0000
0001
0000
0000
0000
0000
,
0100
0000
0000
0100
0000
0000
0000
0000
0010
0000
0000
0010
0000
0000
0000
0000
,
1000
0000
0001
0000
0010
0100
0010
0100
,
0010
0001
1000
1001
,
0001
0000
0000
0100
0001
0000
0000
0100
,
0001
0000
0010
0000
0100
1000
0001
0000
,
1000
0000
0000
0100
1000
0000
0000
0100
,
1000
0010
0100
0001
,
0010
0000
0000
0001
0010
0000
0000
0001
,
0010
0000
0100
0000
1000
0001
0100
0000
,
0010
0000
0000
1000
0010
0000
0000
1000
,
0001
0000
0010
0000
0100
0010
0100
0000
,
1000
0000
0001
0100
0001
0000
1000
0000
,
0001
0000
0010
0000
0100
1000
0100
0000
,
1000
0000
0010
1000
0010
0000
0100
0000
,
0001
0000
1000
0000
0001
0010
0001
0000
,
1000
0000
0010
1000
0010
0000
0100
0000
,
0001
0000
0010
0000
0100
1000
0100
0010
,
0001
0000
0000
1000
0001
0000
0000
1000
,
0010
0110
1001
0000
,
0001
0000
1000
0000
,
1000
0000
0000
0100
0000
0000
0010
0000
0001
0000
0000
0000
0000
0000
0000
0000
,
0001
0000
1000
0001
1000
0000
0100
0000
,
0010
0000
0000
0000
0001
0000
0010
0000
0100
0000
0000
0100
0000
0000
0100
0000
,
1000
0010
0100
0001
,
1000
0001
1000
0000
0100
0000
0000
0010
,
0001
0000
0000
0001
0100
0000
0001
0000
,
1000
0010
1000
0001
1000
0000
0000
0000
,
0100
0010
0001
1000
,
0001
0010
0001
0000
1000
0000
0000
1000
,
0010
0000
0000
0010
1000
0000
0100
0000
,
0010
0100
0010
0000
0001
0000
1000
0000
,
0100
1000
0100
0000
0010
0000
0001
0000
,
0100
0010
0100
0000
0001
0000
2000
0000
,
3010
0000
0000
0010
0100
0000
0010
0000
,
0100
0001
1000
0001
1000
0000
0000
0000
,
0100
0010
0001
1000
,
0010
0100
0010
0000
,
1000
0001
0010
0100
,
0010
0001
1000
0000
,
0010
0000
0000
0010
0000
0000
0000
0000
1000
0000
0000
1000
0000
0000
0000
0000
,
0001
0000
0000
0001
0000
0000
0000
0000
0010
0000
0000
0010
0000
0000
0000
0000
,
0001
0000
0010
0000
0100
0000
1000
0001
,
1000
0010
0100
1001
,
1000
0001
0100
0000
0001
1000
0100
0000
,
0010
0000
0001
0000
1000
0001
1000
0000
,
0010
0000
0000
0100
0010
0000
1000
0000
,
0100
0010
0100
1001
,
0001
1000
0010
0000
1000
0001
0010
0000
,
0001
1000
0001
0000
0010
0000
0100
0000
,
1000
0000
1010
0000
,
0101
0110
1001
0001
,
0010
0100
1000
0000
0010
0100
0001
0000
,
0100
0010
0100
0000
0001
0000
1000
0000
,
0010
0000
0000
1000
0001
0000
0010
0000
,
0100
1000
0100
0000
0010
0000
1001
0000
,
1000
0100
0010
0000
0001
0100
0010
0000
,
1000
0001
1000
0000
0010
0000
0100
0001
,
0100
0000
0000
0010
0100
0000
0000
0001
,
1000
1010
0011
1001
,
0001
0000
0000
1000
0001
0000
0000
1000
,
0001
0000
0010
0000
0100
0010
0001
0000
,
0100
0000
0000
0010
0100
0000
0000
0010
,
0100
0000
0001
0000
1000
0010
1000
0000
,
0001
0000
0000
0010
0100
0000
0000
1000
,
0001
0000
1000
0000
0010
0100
0010
0000
,
1000
0001
1000
0000
0010
0100
0010
0000
,
1010
0101
1001
0000
;

//---------------dance-single - ----------------
#NOTEDATA:;
#CHARTNAME:;
#STEPSTYPE:dance-single;
#DESCRIPTION:;
#CHARTSTYLE:;
#DIFFICULTY:Easy;
#METER:6;
#RADARVALUES:0.284311,0.326714,0.102498,0.000000,0.000000,233.000000,221.000000,12.000000,0.000000,0.000000,0.000000,0.000000,0.000000,0.000000,0.284311,0.326714,0.102498,0.000000,0.000000,233.000000,221.000000,12.000000,0.000000,0.000000,0.000000,0.000000,0.000000,0.000000;
#CREDIT:Daniel Van Eden;
#NOTES:
0000
0000
0000
0000
,
0000
0000
0000
0000
,
0000
0000
0000
0000
,
0000
0000
0000
0000
,
0000
0000
0000
0000
,
1000
1000
0010
0010
,
1000
0010
1000
0000
,
0001
0001
0010
0010
,
0001
0010
0001
0000
,
1000
0000
0001
0000
,
0010
0000
0100
0000
,
1000
1000
0001
0001
,
0010
0100
1000
0000
,
1001
0000
1010
0000
,
1000
0010
0100
0001
,
0010
0000
0011
0000
,
0001
0010
0001
1000
,
0100
0000
1100
0000
,
1000
0010
1000
0001
,
0100
0000
0101
0000
,
0100
0010
0100
0000
,
1000
0010
0010
1000
,
1000
0001
0010
0000
,
0001
0010
0010
0001
,
0001
1000
0100
0010
,
0001
0100
0100
0001
,
0001
1000
0100
0010
,
0100
0000
1100
0000
,
1000
0001
1001
0000
,
1000
0000
0010
0000
,
0100
0100
0100
0000
,
0001
0000
0010
0000
,
0001
1000
0001
0000
,
1000
0000
0010
0000
,
1000
0001
0100
0000
,
0010
0000
1000
0000
,
0001
0010
0100
0000
,
0100
1000
0100
1000
,
0001
1000
0001
0000
,
0100
0000
0001
0000
,
0010
0001
1000
0000
,
0010
1000
0010
1000
,
0001
1000
0001
0000
,
1000
0000
0100
0000
,
0010
0001
0010
0000
,
0001
0000
1000
0000
,
0010
0010
0010
0000
,
1000
0001
1000
0000
,
0100
0100
0100
0000
,
1000
0000
0100
0000
,
0010
0010
0010
0000
,
0001
0010
0100
1000
,
0001
1000
0001
0000
,
1000
0010
1000
0001
,
1000
0100
0100
0010
,
0001
0000
1000
0000
,
0001
0010
0100
0000
,
1000
0001
0100
0001
,
0010
0100
0100
1000
,
0001
0000
1000
0000
,
0010
0100
0001
1000
,
0010
1000
0001
0010
,
0100
1000
1000
0001
,
0100
0000
0010
0000
,
1000
0010
0100
0000
,
0001
0100
0010
0100
,
0001
1000
1000
0100
,
0010
0000
0100
0000
,
1000
0001
1001
0000
,
1000
0000
0011
0000
,
0010
0001
1000
0010
,
0100
0000
1010
0000
,
0010
1000
0001
0100
,
0010
0000
0101
0000
,
0100
0001
1000
0100
,
0010
0100
0100
1000
,
1000
0001
1001
0000
;
