#TITLE:MEIKYOUSHISUI;
#SUBTITLE:;
#ARTIST:TOMOSUKE feat. Asaki;
#TITLETRANSLIT:;
#SUBTITLETRANSLIT:;
#ARTISTTRANSLIT:;
#GENRE:;
#CREDIT:;
#BANNER:MEIKYOUSHISUI-bn.png;
#BACKGROUND:MEIKYOUSHISUI-bg.png;
#LYRICSPATH:;
#CDTITLE:;
#MUSIC:MEIKYOUSHISUI.ogg;
#OFFSET:1.000000;
#SAMPLESTART:18.862000;
#SAMPLELENGTH:20.000000;
#SELECTABLE:YES;
#DISPLAYBPM:104.000000:145.000000;
#BPMS:0.000000=145.000000
,284.000000=133.500000
,285.000000=132.000000
,286.000000=117.500000
,288.000000=108.000000
,290.000000=104.000000
;
#STOPS:
;
#BGCHANGES:;
#KEYSOUNDS:;
#ATTACKS:;

//---------------dance-single - ----------------
#NOTES:
     dance-single:
     :
     Hard:
     13:
     0.651677,0.654606,0.429902,0.493591,0.601067,573.000000,519.000000,54.000000,62.000000,0.000000,0.000000,0.651677,0.654606,0.429902,0.493591,0.601067,573.000000,519.000000,54.000000,62.000000,0.000000,0.000000:
0000
0000
0000
0000
,
0000
0000
0000
0000
,
0000
0000
0000
0000
0000
0000
0000
1010
,
1002
0000
0000
1000
0000
0000
0010
0000
0010
0000
0000
0100
0003
0000
0101
0000
,
2001
0000
0000
0001
0000
0000
0100
0000
0100
0000
0000
0010
3000
0000
1010
0000
,
0210
0000
0000
1000
0000
0000
0001
0000
0001
0000
0000
0010
0300
0000
0101
0000
,
0120
0000
0000
1000
0030
0000
0001
0000
0011
0000
0000
0000
1100
0000
0000
0001
,
0020
0000
0000
0001
0000
0000
1000
0000
1000
0000
0000
0100
0000
0000
1000
0000
,
1000
0000
0000
0100
0000
0000
0001
0000
0031
0000
0000
0000
0101
0000
0000
0000
,
2010
0000
0000
0100
0000
0000
0001
0000
0001
0000
0000
3010
0000
0000
1000
0002
,
0200
0000
0000
0003
,
0020
0000
0000
0000
0030
0010
0310
0000
,
1000
0000
0000
1000
0100
0000
0000
0100
0010
0000
0000
0010
0001
0000
0000
0001
,
1000
0000
0000
1000
0001
0000
0000
0001
0100
0000
0000
0100
0010
0000
0000
0010
,
0100
0000
0000
0100
0001
0000
0000
0001
0010
0000
0000
0010
1000
0000
0000
1000
,
0001
0000
0000
1000
0100
0000
0000
0001
0100
0000
0010
0000
0010
0000
0000
0000
,
0100
0000
0000
0100
0010
0000
0000
0010
1000
0000
0000
1000
0001
0000
0000
0001
,
0010
0000
0000
0010
0001
0000
0000
0001
0100
0000
0000
0100
1000
0000
0000
1000
,
0010
0000
0000
1000
0100
0000
0001
0000
0020
0000
0000
0230
0000
0000
2300
0000
,
0001
0000
0000
3100
1000
0000
0000
0010
0100
0010
0000
0100
0001
0000
1000
0001
,
0020
0230
2300
3002
2003
0100
3100
1000
,
0001
0000
0100
0000
0010
0000
1000
0000
0100
0000
0010
0001
0000
0001
1000
0000
,
0002
0023
0230
2300
3020
1000
1030
0001
,
1000
0000
0100
0000
0010
0000
0100
0000
1000
0000
0001
0100
0000
0001
1000
0000
,
0200
2300
3020
0230
0302
0010
0013
0001
,
0100
0000
0010
0000
1000
0000
0100
0000
0010
0000
0001
0100
0000
0001
1000
0000
,
0002
2003
3020
0230
0302
1000
1003
0010
,
1000
0100
0010
0001
0100
0010
0110
0000
,
1001
0000
0000
1000
0100
0000
0010
0000
1000
0000
0010
0000
0001
0000
0100
0000
,
0010
0001
0010
0100
0001
0010
0100
1000
,
1100
0000
0000
0100
0010
0000
0000
0010
0001
0000
0000
0001
0100
0000
0000
0100
,
1000
0000
0000
1000
0100
0000
0000
0100
0001
0000
0000
0001
0010
0000
0000
0010
,
0100
0000
0000
0100
0001
0000
0000
0001
0100
0000
0000
0100
0010
0000
0000
0010
,
0001
0000
0100
0000
0010
1000
0000
1000
0100
0000
0010
0001
0000
0001
0100
0000
,
0101
0000
0000
0001
1000
0000
0000
1000
0100
0000
0000
0100
0010
0000
0000
0010
,
1000
0000
0000
1000
0010
0000
0000
0010
0001
0000
0000
0001
0100
0000
0000
0100
,
0010
0000
0000
1000
0100
0000
0001
0000
0011
0000
0000
0110
0000
0000
1100
0000
,
1002
0010
0010
0100
0100
1000
1003
0001
,
2000
3002
2003
3200
0320
0001
0031
0000
,
1000
0100
1000
0000
0001
0000
0000
0001
0010
0100
0010
0000
0001
0000
0000
1000
,
0020
2030
3200
0320
0032
1000
1003
0000
,
0010
0100
0010
0000
1000
0000
0000
1000
0001
0100
0001
0000
0010
0000
0000
0100
,
2000
3020
0230
0320
2030
0001
3001
0000
,
1000
0001
0010
0000
0001
0000
0000
0100
0010
1000
0010
0000
0100
0000
0000
0001
,
0020
0032
2003
3002
0203
0010
0310
0000
,
1000
0010
0100
0000
0001
0000
0000
0010
0100
1000
0001
0000
0011
0000
0000
0000
,
1200
0000
1000
0000
1000
0000
0000
0001
0000
0001
0000
0000
0010
0000
0010
0000
,
0000
0000
0001
0000
0001
0000
0000
1000
0000
1000
0000
0000
0310
0000
0110
0000
,
0011
0000
1000
0000
1000
0000
0000
0010
0000
0100
0000
0000
0001
0000
0010
0000
,
0000
0000
0100
0000
0100
0000
0000
1000
0000
0001
0000
0000
1000
0000
0010
0000
,
0101
0000
0000
0000
1000
0100
1000
0200
0000
0000
0010
0000
0310
0000
0000
0000
,
0002
0000
0100
0000
0103
0000
0000
0000
1010
0000
0000
0101
0000
0000
1000
0000
,
1100
0000
0000
0000
0001
0100
0001
0200
0000
0000
0010
0000
0310
0000
0000
0000
,
2000
0000
0001
0000
3001
0000
0100
0000
0110
0000
0000
1001
0000
0000
0000
0000
,
1000
0000
0010
0000
0010
0100
0000
0001
1000
0001
0000
0001
0100
0000
0010
0000
,
1000
0100
0010
0001
0100
1000
0100
0010
,
1000
0000
0100
0000
0001
0000
0100
0000
0010
0000
1000
0000
0010
0000
0000
0001
,
0100
0010
1000
0011
0000
0001
0010
0000
,
0101
0000
1000
0000
0001
0010
0000
0000
0100
0000
1000
0001
0000
0100
0010
0000
,
1000
0100
0001
0100
0010
0100
1000
0010
,
0001
0000
0010
0000
0100
0000
0001
0000
0010
0000
1000
0000
0010
0000
0000
0001
,
1000
0010
0100
0001
0010
0100
1000
0001
,
1100
0000
1100
0000
1100
0000
0000
0001
1000
0000
0000
0110
0000
0010
0100
0000
,
1001
0000
0000
0011
0000
0000
0000
1000
0000
0001
0000
0010
0000
0001
0100
0000
,
0010
0000
1000
0000
0001
0000
0000
1000
0000
0010
0000
0100
0000
0001
0100
0000
,
0110
0000
0000
1010
0000
0000
0000
0100
0000
1000
0000
0001
0000
0010
0100
0000
,
1000
0000
0001
0000
0010
0000
0000
0001
0000
0100
0000
0010
0000
1000
0100
0000
,
1100
0000
0000
0011
0000
0000
0000
0100
0000
0010
0000
1000
0000
0100
0001
0000
,
0011
0000
0000
1010
0000
0000
0000
1000
0000
0100
0000
0001
0000
0010
0100
0000
,
0110
0000
0000
1001
0000
0000
0000
0100
0000
0001
0000
1000
0000
0100
0010
0000
,
1100
0000
0000
0101
0000
0000
0000
0000
1000
0000
0010
0000
0100
0000
0001
0000
,
0010
0100
1000
0001
2010
0000
3100
0000
,
0201
0000
0310
0000
1001
0000
0011
0110
,
2200
0000
0000
0000
,
0000
0000
0000
3300
;

//---------------dance-single - ----------------
#NOTES:
     dance-single:
     :
     Medium:
     11:
     0.449236,0.565341,0.238834,1.066794,0.151262,395.000000,365.000000,30.000000,134.000000,0.000000,0.000000,0.449236,0.565341,0.238834,1.066794,0.151262,395.000000,365.000000,30.000000,134.000000,0.000000,0.000000:
0000
0000
0000
0000
,
0000
0000
0000
0000
,
0000
0000
0000
0000
0000
0000
0000
1000
,
2001
0000
0000
0010
0000
0000
0000
0000
0001
0000
0000
0001
3000
0000
0010
0000
,
0120
0000
0000
1000
0000
0000
0000
0000
0100
0000
0000
0100
0030
0000
0001
0000
,
0012
0000
0000
0100
0000
0000
0000
0000
0010
0000
0000
0010
0003
0000
0000
0000
,
2200
0000
0000
0000
0300
0000
0000
0000
3002
0000
0000
0000
1003
0000
0000
0010
,
0200
0000
0000
0010
0000
0000
0000
0000
0001
0000
0000
0001
0000
0000
0000
0000
,
1000
0000
0000
0010
0000
0000
0001
0000
0301
0000
0000
0000
0101
0000
0000
0000
,
1020
0000
0000
1000
0000
0000
0000
0000
0100
0000
0000
0100
0030
0000
0000
0002
,
2000
0000
0000
0003
,
0020
0000
0000
0000
0030
0010
3010
0000
,
2000
3200
0302
0203
,
0320
0000
0000
0000
0032
0000
0000
0000
2003
0000
0000
0000
3010
0000
0000
1000
,
0002
0023
0230
2300
,
3020
0000
0000
0000
0130
0000
0000
0001
1000
0000
0001
0000
0100
0000
0000
0000
,
0002
2003
3200
0320
,
2030
0000
0000
0000
3020
0000
0000
0000
0032
0000
0000
0000
0103
0000
0000
0001
,
2000
0000
0000
0000
3000
0000
0000
0000
0001
0000
0000
0100
0000
0000
0010
0000
,
0200
0000
0000
0000
1000
0000
0000
0000
0310
0100
0000
0010
0100
0000
0001
0000
,
2000
3002
0023
0230
2300
0000
0010
0000
,
0100
0001
0100
3010
,
0002
0203
0320
2030
3002
0000
1000
0000
,
0010
0100
0010
1003
,
0002
2003
3200
0320
0230
0000
0010
0000
,
0001
1000
0001
0310
,
0200
2300
3002
0203
0320
0000
0001
0000
,
1000
0001
0130
0110
,
1002
0023
2030
3200
,
0301
0010
0100
1000
0010
0100
0001
1000
,
0002
2003
3200
0320
,
0230
0000
0000
0000
0320
0000
0000
0000
0032
0000
0000
0000
1003
0000
0000
0010
,
2000
3200
0320
0032
,
2003
0000
0100
0000
0000
0010
0000
0000
0001
0000
0000
0010
0000
0000
3100
0000
,
0020
2030
3020
0032
,
0203
0000
0000
0000
0320
0000
0000
0000
2030
0000
0000
0000
3001
0000
0000
0100
,
0020
0000
1000
0000
0000
1030
0000
0000
0002
0000
0000
0013
0000
0030
0001
0000
,
0200
0010
0010
0000
1000
0000
0301
0000
,
2000
3002
0023
0230
2300
0000
0010
0000
,
0001
0001
0001
0000
0100
0100
3100
0000
,
0002
0023
0230
2300
3020
0000
0001
0000
,
1000
1000
1000
0000
0100
0100
0130
0000
,
0020
2030
3002
0023
0230
0000
0010
0000
,
0001
0001
0001
0000
1000
1000
1300
0000
,
0200
2300
3230
0320
0032
0000
0010
0000
,
0100
0100
0100
0000
0010
0013
0011
0000
,
1200
0000
0001
0000
1000
1000
1300
0000
,
0002
0000
1000
0000
0100
0100
0103
0010
,
2010
0000
0100
0000
0010
0010
3010
0000
,
0020
0000
0100
0000
1000
1000
1030
0000
,
0110
0000
0001
0010
0100
1000
0001
0000
,
0000
0000
0100
0000
0020
0000
0000
0000
2030
0000
0000
3001
0000
0000
0000
0000
,
0011
0000
0100
0001
1000
0100
0010
0000
,
0000
0000
0002
0000
2003
0000
3002
0000
0203
0000
0000
0310
0000
0000
0000
0000
,
1000
0001
0010
0100
0001
1000
0010
0100
,
0002
2003
3200
2300
,
3020
0000
0000
0000
0230
0000
0000
0000
0302
0000
0000
0000
1003
0000
0000
0001
,
0200
0000
0310
1001
0000
0001
1000
0000
,
0101
0000
0100
0000
1000
0000
0000
0000
0010
0000
0000
1000
0000
0000
0001
0000
,
2000
3002
0023
0230
,
0320
0000
0000
0000
0230
0000
0000
0000
2300
0000
0000
0000
3010
0000
0000
1000
,
0002
0010
1000
0103
,
0110
0000
0110
0000
0110
0000
0000
1000
0001
0000
0000
0010
0000
0000
0100
0000
,
1100
0000
0000
1100
0000
0000
0000
0000
0001
0000
0010
0000
0100
0000
1000
0000
,
0010
0100
0001
0000
1000
0001
1000
0100
,
0011
0000
0000
0011
0000
0000
0000
0000
1000
0000
0001
0000
0010
0000
0100
0000
,
0010
0001
1000
0000
0010
0100
0001
1000
,
1010
0000
0000
1010
0000
0000
0000
0000
0001
0000
0010
0000
0100
0000
1000
0000
,
1001
0000
0000
1001
0000
0000
0000
0000
0010
0000
1000
0000
0001
0000
0100
0000
,
0101
0000
0000
0101
0000
0000
0000
0000
0100
0000
0001
0000
1000
0000
0010
0000
,
0110
0000
0000
0110
0000
0000
0000
0000
0002
0000
0000
0000
2003
0000
0000
0000
,
3001
0100
0010
1000
0002
0000
2003
0000
,
3020
0000
0230
0000
0302
0000
2003
3200
,
0020
0000
0000
0000
,
0000
0000
0000
0330
;

//---------------dance-single - ----------------
#NOTES:
     dance-single:
     :
     Easy:
     7:
     0.304798,0.416567,0.175145,0.286601,0.023883,268.000000,246.000000,22.000000,36.000000,0.000000,0.000000,0.304798,0.416567,0.175145,0.286601,0.023883,268.000000,246.000000,22.000000,36.000000,0.000000,0.000000:
0000
0000
0000
0000
,
0000
0000
0000
0000
,
0000
0000
0000
0000
0000
0000
0000
1000
,
0002
0000
0010
0000
0100
0000
1003
0001
,
0200
0000
1000
0000
0010
0000
0301
1000
,
0020
0100
0001
1030
,
2200
0300
0001
3100
,
0102
0010
0100
1000
,
0010
1000
0103
0001
,
2001
0010
0100
3001
,
0220
0000
0000
0030
,
0002
0000
0000
0000
0303
1000
0001
0000
,
0010
0001
1000
0010
,
1000
0100
0010
0001
,
0100
0010
0100
0001
,
2000
0000
0000
3000
,
0001
1000
0100
0010
,
0001
0100
0010
1000
,
2200
3000
0001
1300
,
2002
0000
0000
3003
,
0001
1000
0001
1000
0002
0000
0000
0000
,
0000
0000
0000
0003
,
0100
0010
0100
0010
0200
0000
0000
0000
,
0000
0000
0000
0300
,
1000
0001
1000
0001
2000
0000
0000
0000
,
0000
0000
0000
3000
,
0010
0100
0010
0100
0020
0000
0000
0000
,
0000
0000
0000
1030
,
0110
0001
1000
0100
,
1000
0010
0100
0001
,
0010
0001
1000
0010
,
1000
0100
0010
0001
,
0100
0001
0010
0100
,
2000
0001
0100
3100
,
0010
1000
0100
0010
,
0001
0100
1000
0010
,
0202
0300
0010
1003
,
2002
0000
0000
3003
,
0001
0010
0001
0010
0002
0000
0000
0000
,
1000
0100
1000
0013
,
1000
0100
1000
0100
2000
0000
0000
0000
,
0100
0001
0010
3001
,
0010
1000
0010
1000
0020
0000
0000
0000
,
0001
0100
0001
1030
,
0100
0001
0100
0001
0200
0000
0000
0000
,
0010
1000
0010
0301
,
0102
0000
1000
0000
,
0010
0000
0000
0000
0103
0000
0000
0001
,
2000
0000
0100
0000
,
0001
0000
3010
0000
,
1001
0100
1000
0000
,
0001
0100
1000
0000
1100
0000
0000
0000
,
0110
0010
0001
0000
,
1000
0100
0001
0100
1000
0000
0000
0000
,
0202
0000
0000
0303
,
1000
0001
1000
0010
,
0100
0001
0010
0100
,
1000
0000
0000
1100
0000
0000
0001
0000
,
0000
0010
0100
0000
1000
0000
0001
0000
,
0100
0010
1000
0100
,
0001
0010
1000
0001
,
0220
0000
0000
0330
,
1000
0001
1000
0000
0101
0000
1100
0000
,
0001
0000
0000
0001
0000
0000
0000
0000
0100
0000
0000
0000
0010
0000
0000
0000
,
1000
0010
0100
0001
,
0010
0000
0000
0010
0000
0000
0000
0000
1000
0000
0000
0000
0001
0000
0000
0000
,
0100
0001
0010
1000
,
0100
0000
0000
0100
0000
0000
0000
0000
1000
0000
0000
0000
0001
0000
0000
0000
,
0010
0000
0000
0010
0000
0000
0000
0000
0001
0000
0000
0000
0100
0000
0000
0000
,
1000
0000
0000
1000
0000
0000
0000
0000
0010
0000
0000
0000
1000
0000
0000
0000
,
0100
0000
0000
0100
0000
0000
0000
0000
0000
0000
0000
0000
0000
0000
0000
0000
,
0010
0100
1001
0110
,
1001
0000
0110
0000
0020
0000
1030
0001
,
2000
0000
0000
0000
,
0000
0000
0000
3000
;

//---------------dance-single - ----------------
#NOTES:
     dance-single:
     :
     Beginner:
     4:
     0.144438,0.238038,0.103495,0.206990,0.000000,127.000000,114.000000,13.000000,26.000000,0.000000,0.000000,0.144438,0.238038,0.103495,0.206990,0.000000,127.000000,114.000000,13.000000,26.000000,0.000000,0.000000:
// measure 0
0000
0000
0000
0000
,  // measure 1
0000
0000
0000
0000
,  // measure 2
0000
0000
0000
0000
,  // measure 3
2002
0000
3003
0000
,  // measure 4
0220
0000
0330
0000
,  // measure 5
2002
0000
3003
0000
,  // measure 6
0010
0000
0100
0000
,  // measure 7
0220
0000
0000
0000
,  // measure 8
0000
0000
0330
0000
,  // measure 9
0002
0000
0003
0000
,  // measure 10
2000
0000
0000
0000
,  // measure 11
3000
0000
0000
0000
,  // measure 12
0001
0000
1000
0000
,  // measure 13
0001
0000
0100
0000
,  // measure 14
0010
0000
1000
0000
,  // measure 15
0002
0000
0003
0000
,  // measure 16
0010
0000
0100
0000
,  // measure 17
0010
0000
0001
0000
,  // measure 18
1000
0000
0001
0000
,  // measure 19
0200
0000
0300
0000
,  // measure 20
0010
0010
0020
0000
,  // measure 21
0000
0000
0030
0000
,  // measure 22
1000
1000
2000
0000
,  // measure 23
0000
0000
3000
0000
,  // measure 24
0100
0100
0200
0000
,  // measure 25
0000
0000
0300
0000
,  // measure 26
0001
0001
0002
0000
,  // measure 27
0003
0000
0000
0100
,  // measure 28
0100
0000
0000
0000
,  // measure 29
0010
0000
1000
0000
,  // measure 30
0010
0000
0100
0000
,  // measure 31
0001
0000
0010
0000
,  // measure 32
0001
0000
0100
0000
,  // measure 33
2000
0000
3000
0000
,  // measure 34
0100
0000
1000
0000
,  // measure 35
0010
0000
0100
0000
,  // measure 36
0010
0000
1000
0000
,  // measure 37
0002
0000
0003
0000
,  // measure 38
0010
0010
0020
0000
,  // measure 39
0000
0000
0030
0000
,  // measure 40
0001
0001
0002
0000
,  // measure 41
0000
0000
0003
0000
,  // measure 42
0100
0100
0200
0000
,  // measure 43
0000
0000
0300
0000
,  // measure 44
1000
1000
2000
0000
,  // measure 45
3000
0000
0000
0001
,  // measure 46
0001
0000
0000
0000
,  // measure 47
1000
0000
0000
0000
,  // measure 48
0110
0000
0000
0000
,  // measure 49
0010
0000
0000
0000
,  // measure 50
1000
0000
1000
0000
,  // measure 51
0000
0010
0100
0000
,  // measure 52
0010
0000
0010
0000
,  // measure 53
0000
1000
0001
0000
,  // measure 54
1001
0000
0000
0000
,  // measure 55
1000
0000
1000
0000
,  // measure 56
0010
0000
0100
0000
,  // measure 57
0002
0000
1000
0000
,  // measure 58
0010
0000
0103
0000
,  // measure 59
0010
0000
1000
0000
,  // measure 60
0001
0000
0100
0000
,  // measure 61
0020
0000
0000
0000
,  // measure 62
1000
1000
1030
0000
,  // measure 63
1100
0000
0001
0000
,  // measure 64
1000
0000
0001
0000
,  // measure 65
0101
0000
0010
0000
,  // measure 66
1000
0000
0100
0000
,  // measure 67
1100
0000
0010
0000
,  // measure 68
0101
0000
0001
0000
,  // measure 69
1100
0000
1000
0000
,  // measure 70
0101
0000
0000
0000
,  // measure 71
0000
0000
0010
0000
,  // measure 72
0100
0000
0001
1000
,  // measure 73
2002
0000
0000
0000
,  // measure 74
0000
0000
0000
3003
;
