#TITLE:Just For You;
#SUBTITLE:;
#ARTIST:Zizkil;
#TITLETRANSLIT:;
#SUBTITLETRANSLIT:;
#ARTISTTRANSLIT:;
#GENRE:;
#CREDIT:D0omsday;
#MUSIC:just for you.ogg;
#BANNER:banner.png;
#BACKGROUND:bg.png;
#CDTITLE:;
#SAMPLESTART:31.992;
#SAMPLELENGTH:13.333;
#SELECTABLE:YES;
#OFFSET:0.000;
#BPMS:0.000=89.994
,15.000=180.000
,16.000=90.000
,45.938=180.000
,112.000=90.000
,115.500=180.000
,116.000=90.000
,123.500=180.000
,124.000=90.000
,126.000=180.000
,192.000=90.000
,205.938=180.000
,336.000=90.000
;
#STOPS:15.000=0.333
,45.938=0.688
,115.500=0.167
,123.500=0.167
,125.938=0.667
,205.938=0.688
;
#DISPLAYBPM:90.000:180.000;
#BGCHANGES:;
#FGCHANGES:;

//--------------- dance-single - D0omsday ----------------
#NOTES:
     dance-single:
     D0omsday:
     Medium:
     12:
     0,0,0,0,0:
0000
0000
0000
0000
,
0000
0000
0000
0000
,
0000
0000
0000
0000
,
0000
0000
0000
0000
,
0001
0100
0010
1000
0001
0010
0100
0010
,
0010
0001
1000
0010
1000
0100
0001
0100
,
1000
0001
0100
0010
1000
0001
1000
0100
,
0100
0010
0100
1000
0001
0100
1000
0100
,
0001
0000
0000
0000
,
1000
0000
0000
0000
,
0001
1000
0001
1000
,
0001
0000
1000
0000
0001
0000
2000
3000
0001
0000
0000
0010
0000
0000
0100
0000
,
1000
1100
0100
0110
,
0010
0000
0011
0000
0001
0000
0100
0010
,
0100
0110
0010
1010
,
1000
0000
0000
0000
1001
0000
0001
0000
0010
0000
0000
0010
0100
0000
0100
0000
,
0010
0000
0011
0000
0001
0000
1000
0001
,
1000
0000
0220
0000
0330
0000
0010
1000
,
0001
0011
0010
0110
,
0100
0000
0000
0000
1100
0000
1000
0000
0010
0000
0000
0010
0100
0000
0100
0000
,
0002
0003
0000
0000
,
1002
0000
0010
0000
0103
0000
0001
0010
,
0100
0000
1000
0001
1001
0000
0001
0000
,
0100
0010
2000
0000
0100
0000
3001
0010
,
0001
0000
0000
0000
0100
0000
0000
0100
0010
0000
0000
0000
1000
0000
0001
0000
,
0020
0000
0100
0000
0031
0000
0010
0100
,
1000
0000
0010
0100
0110
0000
0100
0000
,
0001
0010
0100
1000
0010
0000
0010
0000
,
1000
0001
0100
0010
0100
0001
0010
0020
,
0130
1000
0001
1000
0010
0100
0010
0100
,
0001
1000
0100
0010
0001
0100
0010
0020
,
1030
0000
0001
0000
0010
0000
0200
0300
0010
0000
0100
0000
1000
0000
0000
0000
,
0001
0101
1000
1100
,
0010
0000
0110
0000
0100
0000
0002
0023
,
0130
1100
0010
0011
,
1000
0000
1001
0000
0010
0000
1000
1000
,
0001
0011
0100
0110
,
0001
1001
0010
0110
,
1000
1100
0010
1010
,
0100
0000
0101
0000
0010
0000
0001
0001
,
0010
0100
1000
0001
0100
0000
0110
0000
,
0001
1000
0100
1000
0010
0000
2000
3002
,
0013
0100
0010
0001
1000
0000
1010
0000
,
0010
0100
0001
1000
0100
0000
0010
0010
,
0001
1000
0010
1000
0001
0000
0011
0000
,
0010
0100
1000
0001
0100
0000
0110
0000
,
0010
1000
0001
0010
0100
1000
0010
0100
,
0000
0000
0000
0000
0000
0000
0001
1000
,
0001
0000
0000
0000
,
1000
0000
0000
0000
,
0001
1000
0001
1000
,
0001
0000
1000
0000
0001
0000
2000
3000
0001
0000
0000
0100
0000
0000
0010
0000
,
1000
1000
0001
0000
0001
0001
1000
0000
,
0010
0100
0101
0000
,
0001
0001
0010
0000
0010
0001
1000
0000
,
0001
0010
0001
0100
0010
1000
1010
0000
,
0001
0000
0010
0000
0100
0100
0010
0000
,
0000
0001
0000
1000
0010
0010
0100
0000
,
0001
1000
1001
0000
1001
0000
0001
0000
,
0100
0010
0110
0000
0110
0000
0100
0000
,
0001
0001
0010
0100
1000
0001
0100
0000
,
0100
0100
0010
1000
0001
1000
0100
0000
,
0100
0100
1000
0001
0010
0001
1000
0000
,
1000
1000
0010
0100
0001
0010
0100
0000
,
0010
0000
0001
0000
1000
1000
0010
0000
,
0000
0100
0000
0001
0010
0010
0100
0000
,
1000
0100
1100
0000
1100
0000
1000
0000
,
2020
0000
3030
0020
0030
0020
0030
0020
,
0130
0100
0001
0010
1000
0010
0001
0000
,
0001
0001
0100
1000
0100
0010
1000
0000
,
1000
1000
0100
0010
1000
0010
0001
0000
,
0001
0001
0100
1000
0001
0010
1000
0000
,
0010
1010
1000
1001
,
0001
0011
0010
0110
,
0100
1100
1000
1010
,
0010
0200
0300
0200
0300
0200
0300
0200
,
0301
0010
0011
1010
,
1001
0000
1100
0000
0101
0000
0001
0010
,
0011
1001
1100
0110
,
1001
0000
0101
0000
1010
0000
0100
0010
,
0110
1010
0011
1001
,
0011
0000
0110
0000
1100
0000
1000
0001
,
1001
0110
0011
1100
,
0020
0000
0000
0000
0031
1000
0001
1000
;

//--------------- dance-single - D0omsday ----------------
#NOTES:
     dance-single:
     D0omsday:
     Hard:
     15:
     0,0,0,0,0:
0000
0000
0000
0000
,
0000
0000
0000
0000
,
0000
0000
0000
0000
,
0000
0000
0000
0000
,
0001
0100
0010
0000
1000
0000
0010
0000
0100
0000
0001
0000
0010
0000
0100
0000
,
0100
1000
0001
0000
0100
0000
1000
0000
0001
0000
0010
0000
1000
0000
0001
0000
,
0001
0010
0100
0000
1000
0000
0010
0000
0100
0000
0001
0000
1000
0000
0010
0000
,
0010
1000
0100
0000
0010
0000
1000
0000
0001
0000
0100
0000
1000
0000
0001
0000
,
0001
0000
0000
0000
,
1000
0000
0000
0000
,
0001
1000
0001
1000
,
0001
0000
0100
0000
0010
0000
1000
0000
1010
0000
0000
1001
0000
0000
0011
0000
,
0001
1001
0001
0101
,
0001
0000
0000
0000
0010
0000
0000
0000
0100
0000
1000
0000
0001
1000
0001
0000
,
1000
1010
1000
1001
,
1000
0000
0000
0000
1000
0000
0100
0000
0010
0100
0010
0100
0010
0000
0001
0000
,
0100
0000
0110
0000
0100
0000
0101
0001
,
0100
0000
0000
0000
2020
0000
0030
0000
3100
0000
0010
0000
0001
0010
0001
0000
,
1000
1010
1000
1001
,
1000
0000
0000
0000
1000
0000
0001
0000
0010
0100
0010
0100
0010
0000
0100
0000
,
2000
3000
0000
0000
,
0001
0010
0100
0010
0001
0100
0010
0010
,
1000
0000
0000
0000
0001
0000
1000
0000
1001
0000
0000
1000
0010
0000
0000
0010
,
1000
0010
0100
0010
1000
0001
0010
0010
,
0100
0000
0000
0000
1000
0001
0000
1000
0001
0000
0010
0000
0100
0000
1000
0000
,
0010
0100
0001
0100
0010
1000
0001
0001
,
0010
0000
0000
0000
0100
0000
1000
0000
1100
0000
0000
0100
0010
0000
0000
0010
,
0001
0100
0010
0100
1000
0000
1000
0000
,
0100
0010
1000
0001
0010
0100
1000
2010
,
3010
0000
0100
0000
1000
0000
0100
0000
0001
0000
0010
0000
0001
0000
0100
0010
,
1000
0001
0010
0100
1000
0001
0100
0210
,
0310
0000
1000
0000
0100
0000
0010
0000
0001
1000
0001
1000
0001
0000
0000
0000
,
0100
0001
0010
0001
1000
0100
0010
0001
,
1000
0010
0001
0010
1000
0100
0010
0000
,
0001
0100
0010
1000
0010
0001
0010
0100
,
0001
1000
0100
0010
0100
0010
0001
0001
,
1000
0010
0100
0010
0001
0010
0100
0001
,
0010
0100
1000
0100
0010
0001
1000
0001
,
0100
0010
1000
0100
1000
0010
0001
0010
,
0100
0001
0010
0100
0010
0001
0100
0100
,
0010
1000
0100
1000
0001
0010
0100
1000
,
0001
0100
1000
0100
0001
0010
0100
0000
,
1000
0010
0100
0001
0100
1000
0100
0010
,
1000
0001
0010
0100
0010
0100
1000
1000
,
0001
0100
0010
0100
1000
0100
0010
1000
,
0100
0010
0001
0010
0100
1000
0001
1000
,
0010
0100
0001
0010
1000
0010
0001
0100
,
0000
0000
0000
0000
0000
0000
0000
0000
0000
0000
0000
0000
0001
1000
0001
1000
,
0001
0000
0000
0000
,
1000
0000
0000
0000
,
0001
1000
0001
1000
,
0001
0000
0010
0000
0100
0000
1000
0000
1100
0000
0000
1001
0000
0000
0101
0000
,
0001
0100
0001
0100
0001
0000
0000
0000
1000
0100
1000
0100
1000
0000
0000
0000
,
0010
0100
1001
0001
,
0010
0001
0010
0001
0010
0000
0000
0000
0001
0000
0100
0000
0010
0000
0000
0000
,
1000
0000
0001
0000
0100
0010
0100
0000
0010
1000
0010
1000
0010
0000
0000
0000
,
1000
0000
0000
0000
0100
0000
0000
0000
0010
0100
0010
0100
0010
0000
0000
0000
,
0000
0000
0001
0000
0000
0000
0100
0000
0010
0100
0010
0100
0010
0000
0000
0000
,
1000
0010
1010
0000
0011
0000
0010
0000
,
0001
0100
0101
0000
1100
0000
0100
0000
,
1000
0100
1000
0100
1000
0000
0100
0000
0010
0000
0001
0000
1000
0000
0000
0000
,
0010
1000
0010
1000
0010
0000
0100
0000
0001
0000
0010
0000
0001
0000
0000
0000
,
0010
0100
0010
0100
0010
0000
0100
0000
1000
0000
0001
0000
0100
0000
0000
0000
,
0001
0010
0001
0010
0001
0000
0010
0000
0100
0000
1000
0000
0001
0000
0000
0000
,
0100
0000
0000
0000
0010
0000
0000
0000
1000
0010
1000
0010
1000
0000
0000
0000
,
0000
0000
0100
0000
0000
0000
0010
0000
0001
0010
0001
0010
0001
0000
0000
0000
,
1000
0010
0110
0000
1001
0000
0010
0000
,
0022
0000
0033
2000
3000
2000
3000
2000
,
3001
1000
0001
1000
0001
0000
0100
0000
0010
0000
1000
0000
0100
0000
0000
0000
,
1000
0100
1000
0100
1000
0000
0001
0000
0010
0000
0100
0000
0010
0000
0000
0000
,
0001
0010
0001
0010
0001
0000
0100
0000
0010
0000
0100
0000
0002
0000
2003
0000
,
3100
1000
0100
1000
0100
0000
0010
0000
0001
0000
1000
0000
0010
0000
0000
0000
,
1000
0100
0010
0001
0100
1000
0100
0001
,
1000
0010
1000
0100
0001
0100
0010
0010
,
0001
1000
0010
0001
1000
0100
0001
1000
,
0200
0020
0030
0020
0030
0020
0030
0320
,
0130
1000
0101
1010
,
0110
0000
1001
0000
0101
0000
0001
0010
,
0011
0101
1100
1010
,
0110
0000
1001
0000
0101
0000
0110
0100
,
0110
1010
1100
0011
,
1100
0000
0110
0000
1001
0000
1010
1100
,
1001
0001
0011
0001
0101
0100
0110
0010
,
2010
0000
0000
0000
3100
0100
0100
0100
;

//--------------- dance-single - D0omsday ----------------
#NOTES:
     dance-single:
     D0omsday:
     Challenge:
     17:
     0,0,0,0,0:
0000
0000
0000
0000
,
0000
0000
0000
0000
,
0000
0000
0000
0000
,
0000
0000
0000
0000
,
1001
0000
0001
0010
0100
0000
0010
0000
0001
0000
1000
0000
1010
0000
0010
0000
,
0100
0001
1000
0000
1100
0000
0100
0000
1000
0010
0001
0000
1000
0100
0001
0000
,
0101
0000
1000
0100
0010
0000
0001
0000
0100
0000
0010
0000
0110
0000
1000
0000
,
0001
0010
0100
0000
0110
0000
0010
0000
0001
0100
1000
0000
0001
0010
1000
0000
,
0001
0000
0000
0000
,
1000
0000
0000
0000
,
0001
1000
0001
1000
,
1001
0000
0000
0000
0000
0000
0000
0000
0000
0000
0000
0000
1100
0000
0000
0000
0000
0000
0000
0000
0000
0000
0000
0000
0110
0000
0000
0000
0000
0000
0000
0000
0000
0000
0000
0000
0011
0000
0000
0000
0000
0000
0000
0000
0000
0000
0000
0000
0010
0000
0000
0000
0000
0000
0000
0000
0001
0000
0000
0000
0000
1000
0000
0000
0000
0000
0010
0000
0000
0000
0000
0000
0000
0000
1000
0000
0000
0000
0000
0001
0000
0000
0000
0000
0010
0000
0000
0000
0000
0000
0000
0000
0100
0000
0000
0000
,
0010
1001
0010
1001
,
0010
0000
0000
0000
0001
0000
0100
0000
1000
0000
0100
0000
0001
0100
0001
0100
,
0001
1100
0001
1100
,
0001
0000
0000
0000
1010
0000
1000
0001
0010
0100
0010
0100
0010
0000
0100
1000
,
0010
0000
0101
0000
0010
0000
0101
0001
,
0010
0000
0000
0000
0220
0000
0300
0000
0031
0000
0010
0000
0100
1000
0100
1000
,
0100
0011
0100
0011
,
0100
0000
0000
0000
1001
0000
0001
0100
0010
1000
0010
1000
0010
0000
0010
0000
,
0220
0330
0000
0000
,
0001
0000
0100
0010
1000
0000
0100
0010
0001
0000
0100
0010
1000
0000
1000
0000
,
1010
0000
0000
0000
1000
0010
1000
0010
0100
0000
0010
1000
0100
0000
1000
0100
,
0010
0001
0010
0100
1000
0000
0010
0100
0001
0000
0010
0100
1000
0000
1000
0000
,
1100
0000
0000
0000
0100
0010
0000
0010
0001
0000
0001
0000
1000
0100
0010
0100
,
1000
0000
0010
0100
0001
0000
0010
0100
1000
0000
0010
0100
0001
0000
0001
0000
,
0101
0000
0000
0000
0001
0100
0001
0100
0010
0000
0100
0001
0010
0000
0001
0010
,
0100
1000
0010
1000
0100
1000
0010
1000
0100
0000
0000
0000
0100
0000
0000
0000
,
0010
0001
1000
0010
0100
0010
1000
2010
,
3100
0000
0010
0000
0001
0000
0010
0000
1000
0000
0010
0000
1000
0000
0010
0100
,
1000
0010
0100
0001
1000
0001
0010
0021
,
0130
0000
1000
0000
0010
0000
0100
0000
0001
0100
0010
1000
0001
0000
0000
0000
,
1000
0000
1100
0000
0100
1000
0010
0000
,
0100
0000
0101
0000
0001
0000
0002
0023
,
0130
0000
0110
0000
0010
0001
0100
1000
,
0100
0000
0110
0000
0010
0000
1010
1010
,
1000
0000
1001
0000
0001
0010
0100
0001
,
0100
0010
0011
0000
0001
0000
1001
0000
,
0010
1000
1010
0000
0001
0010
0011
0000
,
0010
0100
1100
0000
0001
0100
0110
0110
,
0010
0000
0101
0000
0010
0100
1000
0000
,
0001
0000
1010
0000
0100
0000
0200
0302
,
0013
0000
1100
0000
0001
0100
1000
0100
,
0001
0000
0011
0000
0100
0000
1001
1001
,
0010
0000
1100
0000
0100
0001
0100
1000
,
0001
0100
1010
0000
0100
0000
0110
0000
,
1000
0010
0101
0000
0010
0100
1001
0000
,
0000
0000
0000
0000
0000
0000
0000
0000
0000
0000
0000
0000
1000
0001
1000
0001
,
1000
0000
0000
0000
,
0001
0000
0000
0000
,
1000
0001
1000
0001
,
1001
0000
0000
0000
0000
0000
0000
0000
0000
0000
0000
0000
0011
0000
0000
0000
0000
0000
0000
0000
0000
0000
0000
0000
0110
0000
0000
0000
0000
0000
0000
0000
0000
0000
0000
0000
1100
0000
0000
0000
0000
0000
0000
0000
0000
0000
0000
0000
0100
0000
0000
0000
0000
0000
0000
0000
0010
0000
0000
0000
0000
0001
0000
0000
0000
0000
0100
0000
0000
0000
0000
0000
0000
0000
0001
0000
0000
0000
0000
0010
0000
0000
0000
0000
0100
0000
0000
0000
0000
0000
0000
0000
1000
0000
0000
0000
,
0001
0100
1000
0100
0001
0000
0000
0000
1000
0100
0001
0100
1000
0000
0000
0000
,
0010
0100
0010
0000
1010
0000
0001
0000
,
1000
0010
0001
0010
1000
0000
0000
0000
0001
0000
0001
0000
0010
0000
0000
0000
,
0001
0000
0001
0000
0010
0100
1000
0001
0010
0100
1000
0010
0100
0000
0000
0000
,
0001
0000
0000
0000
1000
0000
0000
0000
0001
0010
1000
0010
0001
0000
0000
0000
,
0000
0000
0100
0000
0000
0000
0010
0000
1000
0100
0001
0100
1000
0000
0000
0000
,
1000
0000
0100
0000
0011
0000
0000
0000
1010
0000
1000
0010
0100
0000
0000
0000
,
0001
0000
0010
0000
1100
0000
0000
0000
0101
0000
0001
0100
0010
0000
0000
0000
,
1000
0100
0001
0100
1000
0000
0001
0000
0100
0000
0010
0000
1000
0000
0000
0000
,
0001
0100
1000
0100
0001
0000
1000
0000
0100
0000
1000
0000
0010
0000
0000
0000
,
1000
0010
0001
0010
1000
0000
0001
0000
0010
0000
0100
0000
1000
0000
0000
0000
,
0001
0010
1000
0010
0001
0000
1000
0000
0010
0000
1000
0000
0100
0000
0000
0000
,
1000
0000
0000
0000
0001
0000
0000
0000
1000
0010
0001
0010
1000
0000
0000
0000
,
0000
0000
0100
0000
0000
0000
0010
0000
0001
0100
1000
0100
0001
0000
0000
0000
,
0100
0000
0010
0000
1010
0000
0000
0000
0101
0000
1000
0100
0010
0000
0000
0000
,
0022
0000
0033
2000
3000
2000
3000
2000
,
3001
0100
1000
0100
0001
0000
0010
0000
0100
0000
1000
0000
0010
0000
0000
0000
,
1000
0100
0001
0100
1000
0000
0010
0000
0100
0000
0010
0000
1000
0000
0000
0000
,
0001
0010
1000
0010
0001
0000
0100
0000
0010
0000
1000
0000
0200
0000
0320
0000
,
0031
0100
1000
0100
0001
0000
0100
0000
0010
0000
0100
0000
0001
0000
0000
0000
,
1000
0100
1100
0000
0001
0100
0101
0000
,
0010
0100
0110
0010
0001
1000
1001
1001
,
0001
0100
0110
0000
1000
0001
0011
0010
,
0001
0100
0020
1030
0001
0100
0020
1030
0001
0100
0020
1030
0001
0100
0020
1030
,
0001
0010
0110
1100
,
1001
0000
0101
0000
0110
0000
1010
1000
,
1001
0000
0101
0000
1001
0001
0011
0010
,
0110
0000
1100
0000
1010
0000
0101
1001
,
1100
0000
0011
0010
0110
1100
1010
0000
,
1001
0000
0011
1001
0101
0000
0110
0000
,
1001
1100
1001
0001
0011
0110
1001
1010
,
2000
0000
0000
0000
0001
0001
0001
3001
;
