#TITLE:JIGOKU STATION CENTRAL GATE;
#SUBTITLE:;
#ARTIST:鬱P feat.000;
#TITLETRANSLIT:;
#SUBTITLETRANSLIT:;
#ARTISTTRANSLIT:;
#GENRE:;
#CREDIT:;
#MUSIC:JIGOKU STATION CENTRAL GATE.ogg;
#BANNER:JIGOKU STATION CENTRAL GATE.png;
#BACKGROUND:JIGOKU STATION CENTRAL GATE-bg.png;
#CDTITLE:;
#SAMPLESTART:72.185;
#SAMPLELENGTH:15.000;
#SELECTABLE:YES;
#OFFSET:0.750;
#BPMS:0.000=160.000
,114.000=320.000
,116.000=160.000
,132.000=80.000
,148.000=160.000
;
#STOPS:114.000=0.093
,114.500=0.093
,115.000=0.093
,115.500=0.093
;
#DISPLAYBPM:80.000:160.000;
#BGCHANGES:;
#FGCHANGES:;

//--------------- dance-single - chrononical ----------------
#NOTES:
     dance-single:
     chrononical:
     Beginner:
     3:
     0,0,0,0,0:
0000
0000
0000
0000
,
0000
0000
0000
0000
,
0000
0000
0000
0000
,
0000
0000
0000
0000
,
0000
0000
0000
0000
,
0001
0010
0001
0000
,
0100
0000
0100
0000
,
0010
1000
0010
2000
,
3000
0001
1000
0000
,
1001
0000
1000
0000
,
0100
0000
0010
0010
,
0010
0000
0001
1000
,
0001
0000
0010
0010
,
0010
0000
0100
0000
,
0100
0000
1000
0001
,
1000
0000
0020
0000
,
0030
1000
0000
2000
,
3001
0001
1000
0000
,
0010
0010
0010
0000
,
1000
1000
0100
0000
,
0001
0000
0100
0000
,
1000
0010
0010
0000
,
0100
0001
1000
0000
,
0001
0100
0100
0000
,
0200
0000
0300
0000
,
1001
0000
1000
0100
,
0100
0000
0010
0010
,
0010
0000
0001
1000
,
1000
0000
2002
0000
,
3003
0000
0001
0100
,
0010
0000
0100
0010
,
1000
0000
0001
0010
,
0100
0000
1000
0000
,
2001
3100
0010
0002
,
0003
0100
0010
1000
,
0200
0310
0001
2000
,
3000
0010
0001
0010
,
2000
0000
0000
0000
,
3200
0000
0000
0000
,
0310
0001
1000
0000
,
1000
0010
0100
0000
,
0001
0000
0010
0000
,
1000
0000
0200
0000
,
0300
0001
0001
0000
,
1001
0000
1001
0000
,
1000
0010
1000
0000
,
0001
0000
0010
0000
,
0100
0010
0100
0000
,
1000
0000
0001
0000
,
1000
0010
0100
0000
,
0001
0000
1000
0000
,
0100
0010
0001
0000
,
1000
0000
0020
0000
,
0130
0001
1000
0000
,
0100
0010
0001
0000
,
1000
0010
0100
0000
,
0001
0010
0100
0000
,
1000
0010
0100
0000
,
0001
0010
0100
1000
,
2000
0000
3000
0000
,
0010
0000
0100
0000
,
0001
0000
1000
0000
,
0001
0000
2002
0000
,
3003
0000
0000
0000
;

//--------------- dance-single - chrononical ----------------
#NOTES:
     dance-single:
     chrononical:
     Easy:
     6:
     0,0,0,0,0:
0000
0000
0000
0000
,
0000
0000
0000
0000
,
0000
0000
0000
0000
,
0000
0000
0000
0000
,
0000
0000
0000
0000
,
1000
0010
1000
0000
0010
0100
0010
0000
,
0100
0001
0100
0000
0101
0000
0110
0000
,
0010
1000
0010
0000
0200
0000
0000
0000
,
0000
0320
0000
0000
2030
0000
0000
0000
,
3100
0000
0010
0000
0001
1000
0001
0000
,
0100
0010
1000
1000
,
1000
0000
0100
0000
0010
0001
0010
0000
,
0001
0000
0100
0000
0010
1000
0010
0000
,
0100
0000
1000
0000
0100
0010
0100
0000
,
0010
1000
0100
0100
,
0100
0000
0001
0000
0100
1000
0200
0000
,
0000
2300
0000
0000
3010
0000
0110
0000
,
0200
0000
0000
0301
2000
0000
0000
3100
,
0020
0000
0031
1000
0002
0000
0000
0103
,
0020
0000
1030
0001
2000
0000
3200
0000
,
0310
0001
0020
0000
0130
1000
0200
0000
,
2300
0000
0000
3100
0020
0000
0000
0031
,
0200
0000
0310
1000
0002
0000
0000
1003
,
0200
0000
0310
0001
2000
0000
3020
0000
,
0130
0001
2000
0000
0000
3010
0100
0000
,
0200
0000
0310
1000
0010
0000
0100
0001
,
0100
0000
0001
1000
0001
0000
0001
0000
,
0002
0000
0013
0100
0010
0000
0100
1000
,
0100
1000
1002
0000
,
2003
0000
3100
0010
0001
0000
0100
0010
,
1000
0000
0010
0100
0010
0000
0010
0000
,
0020
0000
1030
0100
0010
0000
0010
0100
,
1000
0010
0100
0100
,
1001
0000
0001
0000
0100
0000
0010
0000
1000
0000
0100
0000
0010
0000
0001
2000
,
0000
3010
0100
1000
0100
0010
1000
0001
,
1000
0000
0100
0000
0001
0000
0100
0000
1000
0000
0010
0000
0100
0000
0001
2000
,
0000
3100
0001
0100
1000
0010
0001
0010
,
0200
1000
0000
0001
,
0302
0010
0000
1000
,
1003
0001
1000
0000
0010
0000
0100
0000
,
0001
1000
0001
0000
0010
0000
0100
0000
,
1000
0100
0001
0010
,
1000
0100
0001
0200
,
0000
1300
0000
0010
0100
0000
0001
0000
,
1001
1000
1001
0000
,
0001
0010
0200
0302
,
0203
0000
0000
1300
0010
0000
0020
0000
,
0032
0023
2030
3200
,
0320
0000
0000
0031
0200
0000
0300
0000
,
0100
0010
2000
3200
,
0320
0000
0000
0130
1000
0000
2000
0000
,
3020
0032
0023
2030
,
3020
0000
0000
0130
0002
0000
0203
0000
,
0310
0000
1000
0000
0100
0010
0100
0000
,
0010
0000
0001
0000
1000
0001
1000
0000
,
0010
0000
0100
0000
0001
1000
0001
0000
,
0010
0000
0010
0000
0010
0100
0010
0000
,
0100
0000
1000
0000
0010
0100
0001
0000
,
1000
0000
0100
0000
0010
0100
1000
0000
,
0020
0000
0000
0130
0002
0000
2003
0000
,
3001
0010
1000
0100
,
0002
0103
0101
0100
,
0110
0010
2002
0000
,
3003
0000
0000
0000
;

//--------------- dance-single - chrononical ----------------
#NOTES:
     dance-single:
     chrononical:
     Medium:
     11:
     0,0,0,0,0:
0000
0000
0000
0000
,
0000
0000
0000
0000
,
0000
0000
0000
0000
,
0000
0000
0000
0000
,
0000
0000
0000
0000
,
0001
1000
0010
0100
0001
0010
1000
0010
,
0001
0100
0010
1000
1001
0000
0011
0000
,
0001
0010
1000
0010
0200
0000
0001
0000
,
0000
0000
1300
0000
0000
1100
0000
0000
1001
0000
0001
1000
0001
0000
1000
0000
,
0001
0000
0010
0100
0000
0000
1000
0000
0010
0000
0100
0001
0000
0000
1000
0000
,
0100
0000
0010
0001
0000
0000
1000
0000
0010
0200
0000
0302
0000
0000
2003
0000
,
3100
0000
0010
0001
0000
0000
0100
0000
0020
0000
0000
2030
0000
0000
3002
0000
,
0013
0000
0100
1000
0000
0000
0010
0000
0200
0000
0000
0320
0000
0000
2030
0000
,
3001
0000
0010
0100
0000
0000
0001
0000
0100
0000
1000
0100
0000
0000
1000
0000
,
0010
0000
0100
0010
0000
0000
0001
0000
0010
0200
0000
0320
0000
0000
2030
0000
,
3001
0000
0010
0100
0000
0000
0001
0000
0200
0000
0000
2300
0000
0000
3020
0000
,
0000
0000
0130
0000
0000
0001
0000
0000
1000
0000
0001
0000
0011
0000
0000
0000
,
0102
0000
0103
0001
0020
0000
0130
1000
,
0020
0000
0031
0010
2000
0000
3010
1000
,
0200
0000
0310
0001
0200
0000
0310
0010
,
0001
0010
0200
0000
0301
0010
0200
0000
,
2300
0000
3001
0010
0200
0000
0301
0100
,
0020
0000
0130
1000
0020
0000
0130
0001
,
0200
0000
0310
0100
2000
0000
3100
0010
,
1000
0100
0020
0000
0000
0031
0010
1000
,
0020
0000
0000
0000
0130
0000
0000
0100
1000
0000
0010
0000
0100
0000
0000
0100
,
0001
0000
1000
0000
0100
0000
0000
0100
0010
0000
0001
0000
1000
0001
0000
1000
,
0001
0000
0000
0001
0010
0000
0100
0000
1000
0000
0000
1000
0010
0000
0100
0000
,
0001
0000
0000
0000
0000
0000
0001
0000
1000
0000
0000
0000
0001
0000
0000
0000
2000
3000
0000
0000
0200
0300
0000
0000
0020
0030
0000
0000
0200
0300
0000
0000
,
2000
0000
0000
0000
3001
0000
0000
0100
0010
0000
0010
0000
1000
0000
0000
0100
,
0010
0000
0001
0000
1000
0000
0000
0010
0100
0000
0010
0000
0000
0100
0000
0001
,
1000
0000
0100
0000
0010
0000
0000
0001
1000
0000
0010
0000
0100
0000
0000
0001
,
1000
0000
0100
0000
0010
0000
1000
0000
0010
0000
0000
0001
0000
0000
1000
0000
,
2001
0000
0000
0000
3020
0000
0000
0000
0130
0000
0000
1000
0000
0000
0100
0000
0020
0000
0000
0000
2030
0000
0000
0000
3200
0000
0000
0320
0000
0000
0032
0000
,
0000
0000
0000
0000
0023
0000
0000
0000
0130
0000
0000
0001
0000
0000
0100
0000
1000
0000
0000
0010
0000
0000
0001
0000
0010
0000
0000
1000
0000
0000
0001
0000
,
2000
0000
0000
0000
3200
0000
0000
0000
0310
0000
0000
1000
0000
0000
0010
0000
0002
0000
0000
0000
0203
0000
0000
0000
0320
0000
0000
2030
0000
0000
3002
0000
,
0000
0000
0000
0000
0203
0000
0000
0000
1300
0000
0000
0100
0000
0000
0010
0000
1000
0000
0000
0100
0000
0000
0001
0000
0100
0000
0000
1000
0000
0000
0010
0000
,
0200
0001
1000
0001
,
0320
1000
0001
1000
,
0130
0000
0010
0000
1000
0000
0000
0100
0000
0000
0010
0000
0001
0000
1000
0000
,
0010
0000
0100
0000
0010
0000
0000
1000
0000
0000
0001
0000
0010
0000
0000
0001
,
1000
0010
0100
0001
1000
0100
0010
0001
,
1000
0100
0010
0100
1000
0020
0000
0000
,
0000
0000
0130
0000
0000
0001
0000
0000
1000
0000
0000
0100
0000
0000
0010
0000
,
0001
0000
0000
1000
0000
0000
0010
0000
0220
0000
0000
0000
0330
0000
0000
0000
,
0010
0000
0000
1000
0000
0000
0100
0000
0020
0000
0000
0000
0032
0000
0000
0000
,
0203
0000
0000
0000
0000
0000
0301
1000
0002
0000
0000
0000
0023
0000
0000
0000
,
0230
0302
0203
2300
,
3020
0000
0000
0031
0020
0000
0000
0000
,
0130
0000
0000
1000
0000
0000
0100
0000
0020
0000
0000
0000
2030
0000
0000
0000
,
3200
0000
0000
0000
0000
0000
0310
0001
0020
0000
0000
0000
0032
0000
0000
0000
,
0203
2300
3200
0302
,
0023
0000
0000
1030
0020
0000
0032
0000
,
0013
0000
0000
0010
0000
0000
0100
0000
0001
0000
0000
0100
0000
0000
1000
0000
,
0010
0000
0000
0001
0000
0000
0010
0000
1000
0000
0000
0200
0000
0000
0000
0000
,
1300
0000
0000
0010
0000
0000
0100
0000
1000
0000
0000
0100
0000
0000
0010
0000
,
1000
0000
0000
0010
0000
0000
0001
0000
0020
0000
0000
2030
0000
0000
0000
0000
,
3001
0000
0000
0010
0000
0000
1000
0000
0010
0000
0000
0100
0000
0000
0001
0000
,
0100
0000
0000
1000
0000
0000
0010
0000
0002
0000
0000
0000
0023
0000
0000
0000
,
2030
0000
0000
0000
0000
0000
3100
0000
0010
0000
0001
1000
0001
0000
1000
0000
,
0001
0000
0000
0100
0000
0000
1000
0000
0100
0000
0000
0001
0000
0000
0010
0000
,
0200
0000
0000
1300
0000
0000
0010
0000
0100
0000
0000
0001
0000
0000
0010
0000
,
0100
0000
0000
1000
0000
0000
0001
0000
2002
0000
0000
0000
0000
0000
0000
0000
,
3003
0000
0000
0000
;

//--------------- dance-single - chrononical ----------------
#NOTES:
     dance-single:
     chrononical:
     Hard:
     15:
     0,0,0,0,0:
0000
0000
0000
0000
,
0000
0000
0000
0000
,
0000
0000
0000
0000
,
0000
0000
0000
0000
,
0000
0000
0000
0000
,
1001
0000
1000
0000
0100
0000
0001
0000
0100
0010
0100
0010
0100
0000
1000
0000
,
0001
0000
0100
0000
1000
0000
0100
0000
0010
0100
0000
0100
0001
0000
1000
0000
,
0100
0010
0100
0010
0001
0000
1000
0010
0100
0000
0001
0000
1000
0000
0200
0000
,
0000
0000
1300
0000
0000
1100
0000
0000
1010
0000
1000
0010
0100
0001
1000
0001
,
1000
0000
0010
0100
0000
0100
0001
0000
0010
0100
1000
0001
0000
0100
0010
0000
,
1000
0000
0100
0010
0000
0010
0001
0000
1000
0010
0100
0010
0000
0100
0001
0000
,
0010
0000
0100
0010
0000
0100
0010
0000
0100
1000
0001
0100
0000
0010
0100
0000
,
0010
0000
1000
0001
0000
1000
0001
0000
0010
0100
1000
0001
0000
1000
0001
0000
,
1000
0000
0100
0001
0000
0100
1000
0000
0001
0100
0010
0100
0000
0001
1000
0000
,
0010
0000
0100
1000
0000
0100
0001
0000
0010
0100
1000
0001
0000
0100
0010
0000
,
1000
0000
0100
0001
0000
0100
0010
0000
0100
0000
1000
0010
0000
0100
0001
1000
,
0000
0000
1010
0000
0000
0101
0000
0000
1010
0000
0010
0000
0210
0000
0000
0000
,
0302
0000
0103
0010
2000
0000
3001
0010
,
0200
0000
1300
0100
0001
0100
0010
0100
,
2000
0000
3001
0100
0002
0000
1003
0100
,
1000
0010
0002
0000
1003
0100
0002
0000
,
1003
0100
0010
0100
1000
0001
0100
0010
,
0100
0010
1000
1000
0100
0010
0100
0010
,
0001
0100
0010
0001
0010
0100
0010
0010
,
1000
0100
0002
0000
0000
0103
1000
0001
,
2001
0000
0000
0000
3100
0010
0000
0100
1000
0000
0010
0000
0100
0010
0000
0100
,
0001
0000
0010
0000
0100
1000
0000
0001
0100
0000
0010
0000
1000
0010
0000
0100
,
0001
0000
1000
0000
0100
0010
0000
0100
0010
0000
0100
0000
0010
0001
0000
1000
,
0010
0000
0000
0000
0100
0000
0001
0000
0100
0000
0000
0000
0001
0000
0000
0000
0022
0033
0000
0000
0020
0030
0000
0000
2000
3000
0000
0000
0020
0030
0000
0000
,
0001
0000
0100
0000
0010
0001
0000
0010
0100
0000
0001
0000
0010
1000
0000
0010
,
0100
0000
1000
0000
0100
0001
0000
0100
1000
0000
0010
0000
0000
1000
0000
0010
,
0100
0000
0001
0000
0100
1000
0000
0100
0010
0000
1000
0000
0100
0001
0000
0100
,
0010
0000
0100
0000
1000
0010
1000
0000
1001
0000
0000
1000
0000
0000
0001
0000
,
1002
0000
0000
0000
0013
0000
0000
0000
0110
0000
0000
0100
0000
0000
0001
0000
0100
0000
0000
0000
0110
0000
0000
0000
1001
0000
0000
1010
0000
0000
0120
0000
,
0000
0000
0000
0000
0230
0000
0000
0000
0301
0000
0000
0100
0000
0000
0010
0000
0001
0000
0000
0010
0000
0000
1000
0000
0010
0000
0000
0100
0000
0000
0001
0000
,
2001
0000
0000
0000
3100
0000
0000
0000
0110
0000
0000
0100
0000
0000
0001
0000
0100
0000
0000
0000
0110
0000
0000
0000
1001
0000
0000
0011
0000
0000
2001
0000
,
0000
0000
0000
0000
3002
0000
0000
0000
0103
0000
0000
1000
0000
0000
0100
0000
0010
0000
0000
1000
0000
0000
0100
0000
0001
0000
0000
0100
0000
0000
1000
0000
,
1001
0000
0011
0000
0001
0100
0010
0000
,
1001
0000
1010
0000
1000
0100
0010
0000
,
1001
0000
0001
0010
0001
0000
0100
0010
0000
0100
0010
0000
1000
0000
0100
0010
,
0100
0000
1000
0010
1000
0000
0010
0100
0000
0000
0100
0000
0001
0010
0000
0100
,
1000
0100
0001
0100
1000
0001
0100
0010
,
1000
0010
0001
0010
1000
0100
0010
0002
,
0000
0000
1003
0000
0010
0100
0000
0100
0001
0000
0000
0101
0000
0000
1010
0000
,
1001
0000
0000
1100
0000
0000
0011
0000
2200
0000
0000
0000
3300
0000
0000
0000
,
1001
0000
0000
0001
0000
0000
1000
0000
0010
0100
0001
0100
0000
0010
1000
0000
,
0002
0000
0000
0010
0000
0000
0013
0000
0100
1000
0001
0010
0000
0100
1000
0000
,
0020
0000
0000
1000
0000
0000
1030
0000
0010
0100
0001
1000
0000
0100
0010
0000
,
0002
0000
0000
0010
0000
0000
0013
0000
0010
0100
1000
0001
0000
1000
0001
0000
,
1001
0000
0000
0011
0000
0000
1001
0000
0001
0010
0100
0010
0000
1000
0010
0000
,
0200
0000
0000
0010
0000
0000
0310
0000
0001
0100
0010
0100
0000
1000
0100
0000
,
0020
0000
0000
1000
0000
0000
1030
0000
1000
0100
0010
0100
0000
0001
0100
0000
,
2000
0000
0000
0010
0000
0000
3010
0000
1000
0010
0100
0001
0200
0000
0000
0000
,
0301
0000
0010
0100
0000
0100
1000
0000
0001
0000
0100
0010
0000
0010
1000
0000
,
0001
0000
0010
1000
0000
0010
0001
0000
0011
0000
0000
0120
0000
0000
0130
0000
,
1000
0000
0100
0010
0000
0010
0001
0000
1000
0000
0010
0100
0000
0100
0001
0000
,
1000
0000
0100
0001
0000
0100
1000
0000
1100
0000
0000
1020
0000
0000
0130
0000
,
0001
0000
0001
0100
0000
1000
0100
0000
0010
0000
1000
0100
0000
0001
0100
0000
,
0010
0000
0100
1000
0000
0001
0100
0000
0210
0000
0000
0000
0302
0000
0000
0000
,
1003
0000
0010
0100
0000
0010
0100
0000
0101
0000
0001
0010
0100
1000
0001
1000
,
0001
0000
0000
1000
0000
0000
0010
0000
1010
0000
0000
1000
0000
0000
0001
0000
,
2001
0000
0000
3001
0000
0010
0100
0000
1100
0000
0000
1000
0000
0001
0100
0000
,
0110
0000
0000
0010
0000
1000
0001
0000
2002
0000
0000
0000
0000
0000
0000
0000
,
3003
0000
0000
0000
;
