#VERSION:0.83;
#TITLE:Get Wild;
#SUBTITLE:;
#ARTIST:TM NETWORK;
#TITLETRANSLIT:;
#SUBTITLETRANSLIT:;
#ARTISTTRANSLIT:;
#GENRE:;
#CREDIT:;
#MUSIC:Get Wild.ogg;
#BANNER:Get Wild banner.png;
#BACKGROUND:Get Wild.png;
#PREVIEWVID:;
#JACKET:Get Wild jacket.png;
#CDTITLE:;
#SAMPLESTART:61.884;
#SAMPLELENGTH:14.554;
#SELECTABLE:YES;
#OFFSET:-0.258;
#BPMS:0.000=131.924;
#STOPS:;
#BGCHANGES:;
#FGCHANGES:;

//--------------- dance-single - ----------------
#NOTEDATA:;
#STEPSTYPE:dance-single;
#DESCRIPTION:;
#DIFFICULTY:Hard;
#METER:11;
#RADARVALUES:0,0,0,0,0;
#NOTES:
0000
0000
0000
0000
,
0000
0000
0000
0000
,
0000
0000
0000
0000
,
0000
0000
0000
0000
,
1000
0000
0100
0000
0020
0000
0000
0031
,
0100
0000
0000
0100
0000
0000
0100
0000
0020
0000
0000
0000
0000
0000
1030
0001
,
0010
0000
0000
0010
0000
0000
0010
0000
0100
0000
0000
1000
0000
0000
0100
0000
,
1000
0000
0000
1000
0000
0000
1000
0000
0002
0000
0000
0000
0000
0000
0000
0000
,
1003
0000
0000
0010
0000
0000
0100
0000
1000
0000
0100
0000
0001
0000
1000
0000
,
0100
0000
0000
0001
0000
0000
0100
0000
1000
0000
0010
0000
0100
0000
0010
0000
,
1000
0000
0000
0100
0000
0000
0010
0000
1000
0000
0010
0000
0001
0000
1000
0000
,
0001
0000
0000
0100
0000
0000
1000
0000
0010
0000
0001
0000
0100
0000
0010
0000
,
1000
0000
0000
0100
0000
0000
0100
0000
0001
0000
0010
0000
0001
0000
1000
0000
,
0010
0000
0000
0100
0000
0000
0100
0000
1000
0000
0010
0000
1000
0000
0100
0000
,
1000
0000
0000
0010
0000
0000
0010
0000
0001
0000
0100
0000
0010
0000
1000
0000
,
0001
0000
0000
0100
0000
0000
0100
0000
1000
0000
0001
0000
0101
0000
0100
0000
,
0001
0000
0000
1000
0000
1000
0000
0010
0001
0000
0010
0000
0100
0000
1000
0000
,
0001
0000
0000
0100
0000
0000
0010
0000
0100
0000
0000
0000
0010
0000
1000
0000
,
0200
0000
1300
0100
0010
0100
0010
0001
,
0010
0000
0000
0001
0000
0000
0100
0000
0010
0000
0100
0000
0110
0000
0010
0000
,
1000
0000
0000
0001
0000
0001
0000
0100
1000
0000
0010
0000
0100
0000
0001
0000
,
0100
0000
0000
0010
0000
0000
1000
0000
0100
0000
0000
0000
1000
0000
0100
0000
,
0100
0010
0001
0001
0100
0010
0010
1000
,
0001
0000
0000
0100
0000
0000
0010
0000
1000
0000
1010
0000
0100
0000
1000
0000
,
0020
0000
0000
1000
0000
0000
1030
0000
0002
0000
0000
0100
0000
0000
0103
0000
,
0002
0000
0000
0010
0000
0000
0013
0000
0011
0000
0000
0000
1000
0000
0100
1000
,
0100
0010
0010
0001
0001
0100
0100
0010
,
0010
0000
0000
1000
0000
0000
0001
0000
1001
0000
0000
0000
0010
0000
0001
0000
,
0200
0000
0000
0302
0000
0000
0103
0000
0020
0000
0000
2030
0000
0000
3100
0000
,
0020
0000
0000
0032
0000
0000
0103
0000
0101
0000
0000
0000
0001
0000
1000
0000
,
0200
0001
1000
0301
,
0110
1100
1001
0101
,
0001
0010
0100
1000
0001
0010
1000
0010
,
0001
0000
0100
0010
0000
0010
0100
0000
0001
0000
0100
0000
0010
0000
1000
0000
,
1001
0000
0110
0000
1001
0000
0001
1000
,
0100
0000
0000
0100
0000
0000
0010
0000
0200
0000
0000
0000
0310
0000
0100
0010
,
0001
0001
1000
1000
0001
0100
1000
0100
,
0001
0000
0000
0100
0000
0000
0010
0000
1010
0000
0000
0000
0100
0000
0001
0000
,
1001
0000
0110
0000
1001
0000
1000
0001
,
0010
0000
0000
0010
0000
0000
0100
0000
0020
0000
0000
0000
0130
0000
0010
0100
,
1000
1000
0001
0001
1000
0010
0001
0010
,
1000
0020
0000
0130
0101
0000
0010
1000
,
1010
0000
1001
0000
1100
0000
0001
1000
,
0010
0000
0000
0010
0000
0000
0100
0000
0002
0000
0000
0000
0013
0000
0100
1000
,
0100
0100
0010
0010
0001
0100
1000
0100
,
0001
0020
0000
0031
0011
0000
0100
0001
,
0101
0000
1001
0000
0011
0000
1000
0001
,
0100
0000
0000
0100
0000
0000
0010
0000
2000
0000
0000
0000
3100
0000
0010
0001
,
0010
0010
0100
0100
1000
0100
0001
0100
,
1000
0020
0000
1030
1010
0000
0010
0000
,
0200
0000
0001
0000
0002
0000
0000
0303
,
0010
0100
1000
0000
,
2002
0000
0000
0000
,
3003
0000
0000
0000
;

//--------------- dance-single - ----------------
#NOTEDATA:;
#STEPSTYPE:dance-single;
#DESCRIPTION:;
#DIFFICULTY:Challenge;
#METER:13;
#RADARVALUES:0,0,0,0,0;
#NOTES:
0000
0000
0000
0000
,
0000
0000
0000
0000
,
0000
0000
0000
0000
,
0000
0000
0000
0000
,
0001
0000
0000
0000
0010
0000
0000
0000
0200
0000
0000
0000
0000
0000
1300
0100
,
0010
0000
0000
0010
0000
0000
0010
0000
0200
0000
0000
0000
0000
0000
1300
0001
,
0100
0000
0000
0100
0000
0000
0100
0000
0010
0000
0000
1000
0000
0000
0100
0000
,
1000
0000
0000
0001
0000
0000
0001
0000
0002
0000
0000
0000
0000
0000
0000
0000
,
1003
0000
0000
MMMM
0000
0000
0010
0000
0000
0000
1000
0000
0100
0000
1000
0000
0010
0000
0000
0000
0100
0000
0000
0000
0010
0000
0000
0000
1000
0000
0000
0000
,
0100
0000
0000
MMMM
0000
0000
0010
0000
0000
0000
0001
0000
0100
0000
0010
0000
0100
0000
0000
0000
0001
0000
0000
0000
0010
0000
0000
0000
0100
0000
0000
0000
,
1000
0000
0000
MMMM
0000
0000
0010
0000
0000
0000
1000
0000
0010
0000
0100
0000
0001
0000
0000
0000
0010
0000
0000
0000
0001
0000
0000
0000
1000
0000
0000
0000
,
0001
0010
0001
1000
0001
0100
0001
1000
0001
0000
1000
0000
1100
0000
0100
0000
,
0110
0000
0000
MMMM
0000
0000
0010
0000
0000
0000
0001
0000
0100
0000
0001
0000
1000
0000
0000
0000
0100
0000
0000
0000
0001
0000
0000
0000
0100
0000
0000
0000
,
1000
0000
0000
MMMM
0000
0000
0010
0000
0000
0000
1000
0000
0010
0000
0100
0000
0001
0000
0000
0000
0100
0000
0000
0000
1000
0000
0000
0000
0100
0000
0000
0000
,
0001
0000
0000
MMMM
0000
0000
1000
0000
0000
0000
0001
0000
0010
0000
0001
0000
1000
0000
0000
0000
0010
0000
0000
0000
0001
0000
0000
0000
0010
0000
0000
0000
,
1000
0000
0000
MMMM
0000
0000
0001
0000
0000
0000
0010
0000
0100
0000
1000
0000
0001
0000
0000
0000
0101
0000
0000
0000
0101
0000
0000
0000
0100
0000
0000
0000
,
0001
0000
0000
MMMM
0000
0000
0010
0000
0000
0000
1000
0000
0000
0000
0010
0000
0001
0000
0000
0000
1000
0000
0000
0000
0100
0000
0000
0000
0010
0000
0000
0000
,
0001
0000
0000
0100
0000
0000
0010
0000
0110
0000
MMMM
0000
1000
0000
0010
0100
,
0001
0020
0000
0130
0010
0001
0100
0001
,
0010
0000
0000
0001
0000
0000
1000
0000
1100
0000
1010
0000
1010
0000
0010
0000
,
1000
0000
0000
MMMM
0000
0000
0100
0000
0000
0000
0001
0000
0000
0000
0100
0000
1000
0000
0000
0000
0001
0000
0000
0000
0010
0000
0000
0000
0100
0000
0000
0000
,
0010
0000
0000
0001
0000
0000
0100
0000
0011
0000
MMMM
0000
0001
0000
0100
0001
,
0100
0000
0001
0000
1000
0000
0010
1000
0010
0000
1000
0000
0001
0000
1000
0001
,
1000
0000
0000
0010
0000
0000
0100
0000
0101
0000
0101
0000
0110
0000
1000
0000
,
0010
0000
0000
MMMM
0000
0000
1010
0000
0000
MMMM
0000
0000
1000
0000
0000
0000
0100
0000
0000
MMMM
0000
0000
0011
0000
0000
MMMM
0000
0000
0001
0000
0000
0000
,
1000
0000
0000
MMMM
0000
0000
1001
0000
0000
MMMM
0000
0000
1000
0000
0000
0000
1100
0000
0000
0000
MMMM
0000
0000
0000
0001
0000
0000
0000
0010
0000
0001
0000
,
0010
0001
0101
0100
0110
0010
1010
1000
,
0100
0000
0000
MMMM
0000
0000
0110
0000
0000
MMMM
0000
0000
0011
0000
0000
0000
1010
0000
0000
0000
MMMM
0000
0000
0000
1000
0000
0000
0000
0010
0000
0000
0000
,
0100
0000
0000
MMMM
0000
0000
0101
0000
0000
MMMM
0000
0000
0001
0000
0000
0000
0010
0000
0000
MMMM
0000
0000
0110
0000
0000
MMMM
0000
0000
0001
0000
0000
0000
,
0100
0000
0000
MMMM
0000
0000
0011
0000
0000
MMMM
0000
0000
0001
0000
0000
0000
1001
0000
0000
0000
MMMM
0000
0000
0000
0010
0000
0001
0000
1000
0000
0000
0000
,
0001
MMMM
1000
0010
0100
MMMM
0001
0100
,
0110
MMMM
1001
MMMM
0110
MMMM
0011
MMMM
,
0001
0100
1000
0001
0010
1000
0001
1000
,
0100
0000
0010
0001
0000
0001
1000
0000
0010
0100
0010
0000
1000
0000
0100
0000
,
1100
0000
MMMM
0000
1010
0000
MMMM
0000
1001
0000
MMMM
0000
1000
0000
0001
0100
,
0001
0000
0000
0010
0000
0000
0001
0000
0011
0000
MMMM
0000
0010
0000
0001
1000
,
0100
0000
1000
0000
0001
0000
0100
0010
0100
0000
0001
0000
1000
0000
0100
0010
,
0001
0000
0000
MMMM
0000
0000
0101
0000
0000
MMMM
0000
0000
0100
0000
0000
0000
0110
0000
0000
0000
MMMM
0000
0000
0000
0000
0000
0000
0000
0010
0000
0000
0000
,
1010
0000
MMMM
0000
1100
0000
MMMM
0000
1001
0000
MMMM
0000
1000
0000
0100
0010
,
0100
0000
0000
1000
0000
0000
0001
0000
0011
0000
MMMM
0000
1000
0000
0010
0100
,
0001
0000
1000
0000
0001
0000
0010
0001
0010
0000
0001
0000
0100
0000
0010
0100
,
0010
0000
0000
0100
0000
0000
0001
0000
0101
0000
MMMM
0000
0000
0000
0001
0000
,
0011
0000
MMMM
0000
0101
0000
MMMM
0000
1001
0000
MMMM
0000
0001
0000
1000
0010
,
1000
0000
0000
0100
0000
0000
1000
0000
1100
0000
MMMM
0000
0100
0000
1000
0001
,
0010
0000
0001
0000
1000
0000
0010
0100
0010
0000
1000
0000
0001
0000
0010
0100
,
1000
0000
0000
MMMM
0000
0000
1010
0000
0000
MMMM
0000
0000
0010
0000
0000
0000
0110
0000
0000
0000
MMMM
0000
0000
0000
0000
0000
0000
0000
0100
0000
0000
0000
,
0101
0000
MMMM
0000
0011
0000
MMMM
0000
1001
0000
MMMM
0000
0001
0000
0010
0100
,
0010
0000
0000
0001
0000
0000
1000
0000
1100
0000
MMMM
0000
0001
0000
0100
0010
,
1000
0000
0001
0000
1000
0000
0100
1000
0100
0000
1000
0000
0010
0000
0100
0010
,
0100
0000
0000
0010
0000
0000
1000
0000
2020
0000
0000
0000
3030
0000
MMMM
0000
,
2000
0000
3200
0000
0320
0000
0000
0130
,
0001
0000
0000
0100
0000
0000
1000
0000
0020
0000
0000
0000
0030
0000
MMMM
0000
,
2002
0000
0000
0000
,
3003
0000
0000
0000
;
