#TITLE:Genie Jah;
#SUBTITLE:;
#ARTIST:2002 RATREE;
#TITLETRANSLIT:;
#SUBTITLETRANSLIT:;
#ARTISTTRANSLIT:;
#GENRE:;
#CREDIT:Destrier75;
#MUSIC:Genie Jah.ogg;
#BANNER:Genie Jah.png;
#BACKGROUND:Genie Jah-bg.png;
#CDTITLE:;
#SAMPLESTART:67.977;
#SAMPLELENGTH:15.000;
#SELECTABLE:YES;
#OFFSET:0.000;
#BPMS:0.000=140.000;
#STOPS:;
#BGCHANGES:0.000=Genie Jah.avi=1.000=1=0=0=StretchNoLoop==CrossFade==,
99999.000=-nosongbg-=1.000=0=0=0=StretchNoLoop====
;
#FGCHANGES:;

//--------------- dance-single - Destrier75 ----------------
#NOTES:
     dance-single:
     Destrier75:
     Beginner:
     2:
     0,0,0,0,0:
0000
0000
0000
0000
,
0000
0000
0000
0000
,
0000
0000
0000
0000
,
0000
0000
0000
0000
,
0100
0000
0100
0000
,
0010
0000
0010
0000
,
1000
0000
1000
0000
,
0001
0000
0001
0000
,
1000
0000
1000
0000
,
1000
1000
1000
0000
,
0001
0000
0001
0000
,
0001
0001
0001
0000
,
0100
0000
0100
0000
,
0100
0100
0100
0000
,
0010
0000
0010
0000
,
0010
0010
0010
0000
,
1000
0000
1000
0000
,
1000
1000
1000
0000
,
0001
0000
0001
0000
,
0001
0001
0001
0000
,
0100
0000
0100
0000
,
0100
0100
0100
0000
,
0010
0000
0010
0000
,
0010
0010
0010
0000
,
1000
0000
1000
0000
,
1000
1000
1000
0000
,
0001
0000
0001
0000
,
0001
0001
0001
0000
,
0100
0000
0100
0000
,
0100
0100
0100
0000
,
0010
0000
0010
0000
,
0010
0010
0010
0000
,
1000
0000
1000
0000
,
1000
1000
1000
0000
,
0001
0000
0001
0000
,
0001
0001
0001
0000
,
0100
0100
0100
0000
,
0010
0010
0010
0000
,
1000
1000
1000
0000
,
0001
0001
0001
0000
,
0100
0100
0100
0000
,
0010
0010
0010
0000
,
1000
0000
1000
0000
,
1000
1000
1000
0000
,
0001
0001
0001
0000
,
0100
0100
0100
0000
,
0010
0000
0010
0000
,
0010
0010
0010
0000
,
1000
1000
1000
0000
,
0001
0001
0001
0000
,
0100
0000
0100
0000
,
0100
0100
0100
0000
,
0010
0010
0010
0000
,
1000
1000
1000
0000
,
0001
0000
0001
0000
,
0001
0001
0001
0000
,
0100
0000
0100
0000
,
0100
0100
0100
0000
,
0010
0000
0010
0000
,
0010
0010
0010
0000
,
1000
0000
1000
0000
,
1000
1000
1000
0000
,
0001
0000
0001
0000
,
0001
0001
0001
0000
;

//--------------- dance-single - Destrier75 ----------------
#NOTES:
     dance-single:
     Destrier75:
     Easy:
     5:
     0,0,0,0,0:
0000
0000
0000
0000
,
0000
0000
0000
0000
,
0000
0000
0000
0000
,
0000
0000
0000
0000
,
0100
0010
0100
0010
,
1000
0001
1000
0001
,
0100
0000
0101
0000
,
1000
0000
1010
0000
,
1000
0001
1000
0001
,
0100
0100
0020
0000
,
1030
0001
1000
0001
,
0100
0010
0200
0000
,
0301
1000
0001
1000
,
0010
0100
0020
0000
,
1030
0001
1000
0001
,
0100
0010
0200
0000
,
0301
0100
0001
0000
,
1000
1000
1000
0000
,
0010
0100
0010
0000
,
0001
0001
0001
0000
,
1000
0010
1000
0000
,
0010
0010
0010
0000
,
0100
0001
0100
0000
,
1000
1000
1000
0000
,
0001
0100
0001
0100
,
1000
0010
2000
0000
,
3001
0100
0001
0100
,
1000
0010
2000
0000
,
3001
0100
0001
0000
,
0010
0010
0010
0000
,
1000
0010
1000
0000
,
0001
0001
0001
0000
,
0100
0010
0100
0000
,
1000
1000
1000
0000
,
0001
0100
0001
0000
,
0010
0010
0010
0000
,
2000
0000
3002
0000
,
2003
0000
3001
1000
,
0002
0000
2003
0000
,
3002
0000
0003
0000
,
1000
0010
1000
0010
,
0100
0001
0100
0001
,
1000
1000
0010
0010
,
0100
0100
0001
0001
,
1000
0010
1000
0010
,
0100
0001
0100
0001
,
0010
0010
0100
0100
,
1000
1000
0001
0001
,
1000
0010
1000
0010
,
0100
0001
0100
0001
,
1000
1000
0010
0010
,
0100
0100
0001
0001
,
1000
0100
1000
0100
,
0001
0010
0001
0010
,
1000
1000
0010
0010
,
0100
0100
0001
0001
,
1000
0010
1000
0010
,
0100
0100
0200
0000
,
0301
1000
0001
1000
,
0010
0010
0020
0000
,
1030
0001
1000
0001
,
0100
0010
0200
0000
,
0301
1000
0001
1000
,
0010
1000
1001
0000
;

//--------------- dance-single - Destrier75 ----------------
#NOTES:
     dance-single:
     Destrier75:
     Medium:
     8:
     0,0,0,0,0:
0000
0000
0000
0000
,
0000
0000
0000
0000
,
0000
0000
0000
0000
,
0000
0000
0000
0000
,
1000
0010
1000
0010
1000
0000
0010
0000
,
0100
0001
0100
0001
0100
0000
0001
0000
,
1000
1001
0001
0101
,
0100
0110
0010
1010
,
1000
0100
0010
0001
,
1000
0010
1000
0010
1000
0000
0010
0000
,
1000
0010
0100
0001
,
1000
0010
1000
0010
1000
0000
0100
0000
,
0001
0100
0010
1000
,
0001
0100
0001
0100
0001
0000
0010
0000
,
1000
0010
0100
0001
,
1000
0001
1000
0001
1000
0000
0010
0000
,
1000
0010
1000
0010
1000
0000
0100
0000
,
0001
1000
0001
0000
0100
0001
0100
0000
,
1000
0001
1000
0001
1000
0000
0010
0000
,
1000
0010
1000
0000
0001
0100
0001
0000
,
1000
0010
1000
0010
1000
0000
0010
0000
,
1000
0001
1000
0000
0001
0100
0001
0000
,
1000
0001
1000
0001
1000
0000
0010
0000
,
0100
0001
0100
0000
1000
0010
1000
0000
,
1000
0001
0100
0001
,
1000
0010
1000
0010
1000
0000
0001
0000
,
1000
0010
0100
0001
,
1000
0010
1000
0010
1000
0000
0001
0000
,
1000
0010
1000
0010
1000
0000
0100
0000
,
0001
0100
0001
0000
1000
0010
1000
0000
,
1000
0001
1000
0001
1000
0000
0001
0000
,
1000
0010
1000
0000
0001
0100
0001
0000
,
0001
0100
0001
0100
0001
0000
0010
0000
,
1000
0010
1000
0010
1000
0000
0010
0000
,
1000
0010
1000
0010
1000
0000
0001
0000
,
1000
0001
1000
0001
1000
0000
0010
0000
,
2000
0000
3020
0000
,
0230
0000
0301
1000
,
0002
0000
0203
0000
,
0320
0000
1030
0000
,
1000
0010
1000
0010
1000
0000
0010
0000
,
0100
0001
0100
0001
0100
0000
0010
0000
,
1000
0001
1000
0000
0001
0100
0001
0000
,
2000
0000
3002
0000
,
1003
0010
1000
0010
1000
0000
0010
0000
,
0100
0001
0100
0001
0100
0000
0010
0000
,
1000
0010
1000
0000
0001
0100
0001
0000
,
0200
0000
0320
0000
,
0130
0001
0100
0001
0100
0000
0010
0000
,
1000
0010
1000
0010
1000
0000
0010
0000
,
1000
0010
1000
0000
0001
0100
0001
0000
,
2000
0000
3002
0000
,
1003
0010
1000
0010
1000
0000
0100
0000
,
0001
0100
0001
0100
0001
0000
0010
0000
,
1000
0001
1000
0000
0001
0100
0001
0000
,
0200
0000
0320
0000
,
1030
0010
0100
0001
,
1000
0001
1000
0001
1000
0000
0010
0000
,
0100
0010
1000
0001
,
1000
0010
1000
0010
1000
0000
0100
0000
,
0001
0100
0010
1000
,
0001
1000
0001
1000
0001
0000
0100
0000
,
1000
0100
0010
0001
,
1000
0001
1000
0001
1000
0000
0000
0000
;

//--------------- dance-single - Destrier75 ----------------
#NOTES:
     dance-single:
     Destrier75:
     Hard:
     12:
     0.62,0.587,0.264,0.537,0.084:
0000
0000
0000
0000
,
0000
0000
0000
0000
,
0000
0000
0000
0000
,
0000
0000
0000
0000
,
1001
0100
0100
1000
0010
0001
1000
0100
,
1001
0100
0010
1000
0001
0010
1000
0001
,
1001
0100
0001
1000
1001
0010
1000
0001
,
1001
0010
0100
1000
0001
0010
2000
0000
,
3001
0000
0000
0100
0000
0000
0010
0000
2000
0000
3001
0000
0100
0000
0010
0000
,
1000
0000
0000
0001
0000
0000
0100
0000
0200
0000
0301
0000
0101
0000
0000
0000
,
0100
0000
0000
0001
0000
0000
1000
0000
0020
0000
1030
0000
0100
0000
0010
0000
,
0001
0000
0000
0100
0000
0000
0010
0000
2000
0000
3001
0000
1001
0000
0000
0000
,
0001
0000
0000
0100
0000
0000
0010
0000
2000
0000
3001
0000
0010
0000
0100
0000
,
1000
0000
0000
0001
0000
0000
0100
0000
0020
0000
1030
0000
1010
0000
0000
0000
,
0001
0000
0000
1000
0000
0000
0010
0000
0200
0000
0301
0000
0010
0000
0100
0000
,
1000
0000
0000
0001
0000
0000
0100
0000
0020
0000
1030
0000
1010
0000
0000
0000
,
2000
0000
3001
0100
0002
0000
1003
0010
,
1000
0100
0010
0001
2000
3001
1001
0000
,
0001
0010
0100
1000
0001
0100
0010
1000
,
1000
0010
0100
0001
1000
0001
1001
0000
,
2000
0000
3001
1000
0002
0000
1003
0010
,
1000
0010
0100
0001
2000
3001
1001
0000
,
0001
0010
0100
1000
0001
0100
0010
1000
,
0001
0100
0100
0010
1000
0010
0100
0001
,
1000
0000
0000
0001
0000
0000
0100
0000
0020
0000
1030
0000
0100
0000
0010
0000
,
0001
0000
0000
0100
0000
0000
0010
0000
2000
0000
3001
0000
1001
0000
0000
0000
,
0001
0000
0000
0100
0000
0000
0010
0000
2000
0000
3001
0000
0010
0000
0100
0000
,
1000
0000
0000
0010
0000
0000
0100
0000
0002
0000
1003
0000
1001
0000
0000
0000
,
2000
0000
3010
1000
0020
0000
0130
0001
,
1000
0010
0100
0001
2000
3001
1001
0000
,
1000
0010
0100
0001
1000
0100
0010
0001
,
0100
0001
1000
0010
0100
0001
1000
0010
,
2000
0000
3001
0100
0002
0000
1003
0010
,
1000
0010
0100
0001
2000
3001
1001
0000
,
1000
0100
0010
0001
1000
0010
0100
0001
,
0100
0001
0010
0100
2000
0000
3002
0000
,
2003
0000
3010
0100
0002
0000
1003
0010
,
0200
0000
0301
1000
0010
0100
0001
1000
,
0200
0000
0301
1000
0020
0000
1030
0010
,
0200
0301
1001
2000
,
3001
1000
0010
0100
1002
0000
2003
0000
,
3010
0100
0001
1000
2001
0000
3010
0001
,
0100
0002
0000
1003
0010
2000
0000
3001
,
0010
0100
1000
0001
0100
0001
0200
0000
,
0301
0010
0100
1000
2010
0000
3020
0000
,
0130
0001
1000
0010
2001
0000
3001
1000
,
0001
0100
0010
0001
1000
0010
0100
0001
,
1000
0001
0100
0010
1000
0001
2000
0000
,
3001
0100
0010
1000
2001
0000
3002
0000
,
1003
0010
0100
0001
0102
0000
1003
0001
,
1000
0002
0000
1003
0010
2000
0000
3001
,
0100
0010
1000
0001
0100
0010
2000
0000
,
3002
1003
0010
0100
1002
0000
2003
0000
,
3002
1003
0100
0010
1002
0000
1003
0010
,
1000
0001
0100
0001
1000
0001
0100
0010
,
1000
0001
0100
0010
1000
0100
0010
0001
,
0100
0000
0000
0010
0000
0000
1000
0000
0001
0000
0010
0000
0100
0000
1000
0000
,
0001
0000
0000
1000
0000
0000
0010
0000
0200
0000
0301
0000
0101
0000
0000
0000
,
1000
0000
0000
0100
0000
0000
0010
0000
0001
0000
1000
0000
0010
0000
0100
0000
,
0001
0000
0000
0010
0000
0000
0100
0000
2000
0000
0001
0000
3001
0000
0010
0000
,
1001
0000
0000
0010
0000
0000
1000
0000
0001
0000
0010
0000
0100
0000
1000
0000
,
0001
0000
0000
1000
0000
0000
0010
0000
0200
0000
0301
0000
0101
0000
0000
0000
,
1001
0000
0000
0001
0000
0000
0100
0000
1001
0000
0010
0000
1000
0000
0001
0000
,
1001
1010
0101
0000
;
