#TITLE:GOODDRILL;
#SUBTITLE:;
#ARTIST:EBIMAYO;
#TITLETRANSLIT:;
#SUBTITLETRANSLIT:;
#ARTISTTRANSLIT:;
#GENRE:;
#CREDIT:;
#BANNER:GOODDRILL.png;
#BACKGROUND:GOODDRILL-bg.png;
#LYRICSPATH:;
#CDTITLE:CDtitle.png;
#MUSIC:GOODDRILL.ogg;
#OFFSET:-0.173000;
#SAMPLESTART:35.056999;
#SAMPLELENGTH:22.355000;
#SELECTABLE:YES;
#BPMS:0.000000=172.000000
;
#STOPS:
;
#BGCHANGES:;
#KEYSOUNDS:;
#ATTACKS:;

//---------------dance-single - ----------------
#NOTES:
     dance-single:
     :
     Beginner:
     5:
     0.157899,0.274906,0.106278,0.000000,0.000000,156.000000,141.000000,15.000000,0.000000,0.000000,0.000000,0.157899,0.274906,0.106278,0.000000,0.000000,156.000000,141.000000,15.000000,0.000000,0.000000,0.000000:
// measure 0
0000
0000
0000
0000
,  // measure 1
0000
0000
0000
0000
,  // measure 2
0000
0000
0000
0000
,  // measure 3
0000
0000
0000
0000
,  // measure 4
0000
0000
0000
0000
,  // measure 5
0000
0000
0000
0000
,  // measure 6
0000
0000
0000
0000
,  // measure 7
0000
0000
0000
0000
,  // measure 8
0000
0000
0000
0000
,  // measure 9
0001
0000
0000
0000
,  // measure 10
0100
0000
0010
0000
,  // measure 11
0100
0000
0000
0000
,  // measure 12
0001
0000
0000
0000
,  // measure 13
1000
0000
0000
0000
,  // measure 14
0100
0000
0010
0000
,  // measure 15
0100
0000
0000
0000
,  // measure 16
1000
0000
0000
0000
,  // measure 17
0110
0000
0000
0000
,  // measure 18
0001
0000
0000
0000
,  // measure 19
1000
0000
0000
0000
,  // measure 20
1000
0000
0000
0000
,  // measure 21
0100
0000
0000
0000
,  // measure 22
0010
0000
0001
0000
,  // measure 23
0100
0000
0010
0000
,  // measure 24
1000
1000
1000
0000
,  // measure 25
0010
1001
0000
0001
,  // measure 26
0000
0001
0000
0000
,  // measure 27
1000
0001
0000
0100
,  // measure 28
0000
0010
1000
0000
,  // measure 29
0100
1000
0000
0100
,  // measure 30
0000
1000
0000
0000
,  // measure 31
0010
0000
0100
0000
,  // measure 32
0010
0000
1001
0000
,  // measure 33
0110
0100
0000
0010
,  // measure 34
0000
1000
0000
0000
,  // measure 35
0001
0000
1000
0000
,  // measure 36
0100
0000
0000
0000
,  // measure 37
0110
0010
0000
0001
,  // measure 38
0000
0100
0000
0000
,  // measure 39
0010
0000
0100
0000
,  // measure 40
0001
0000
0000
0000
,  // measure 41
1100
0000
0000
0000
,  // measure 42
0101
0000
0000
0000
,  // measure 43
1100
0000
0000
0000
,  // measure 44
0101
0000
0000
0000
,  // measure 45
0001
0000
0000
0000
,  // measure 46
1000
0000
0000
0000
,  // measure 47
0010
0000
0000
0000
,  // measure 48
0100
0000
0000
0000
,  // measure 49
1010
0000
0000
0000
,  // measure 50
0011
0000
0000
0000
,  // measure 51
1010
0000
0000
0000
,  // measure 52
0011
0000
0000
0000
,  // measure 53
1000
0000
0001
0000
,  // measure 54
0100
0000
0000
0000
,  // measure 55
0010
0000
1000
0000
,  // measure 56
0100
0000
0000
0000
,  // measure 57
0010
0000
0000
0000
,  // measure 58
0001
0000
0000
0000
,  // measure 59
0100
0000
0000
0000
,  // measure 60
0010
0000
0100
0000
,  // measure 61
0010
0000
0000
0000
,  // measure 62
1000
0000
0000
0000
,  // measure 63
0001
0000
0000
0000
,  // measure 64
0001
0000
0000
0000
,  // measure 65
1000
0000
0001
0000
,  // measure 66
0010
0000
0000
0000
,  // measure 67
0100
0000
0010
0000
,  // measure 68
0001
0000
0000
0000
,  // measure 69
0100
0000
0010
0000
,  // measure 70
1000
0000
0000
0000
,  // measure 71
0001
0000
0000
0000
,  // measure 72
0001
0000
0000
0000
,  // measure 73
0110
0000
0000
0000
,  // measure 74
0000
0000
0000
0000
,  // measure 75
0000
0000
0000
0000
,  // measure 76
0000
0000
0000
0000
,  // measure 77
1000
0000
0000
0000
,  // measure 78
0100
0000
0000
0000
,  // measure 79
0010
0000
0001
0000
,  // measure 80
0100
0100
0100
0000
,  // measure 81
0010
1000
0001
1000
,  // measure 82
0100
0000
0010
0000
,  // measure 83
0100
0000
1000
0000
,  // measure 84
0001
0000
0100
0000
,  // measure 85
0010
0000
0100
0000
,  // measure 86
0001
1000
0001
0000
,  // measure 87
1000
0000
0000
1000
0000
0000
0000
0000
,  // measure 88
0001
0000
0000
0001
0000
0000
0000
0000
,  // measure 89
0100
0000
0010
0000
,  // measure 90
1000
0010
1000
0000
,  // measure 91
0001
0000
0010
0010
,  // measure 92
0100
0000
0010
0001
,  // measure 93
0100
0000
0010
0000
,  // measure 94
1000
0001
1000
0000
,  // measure 95
0001
0000
0100
0000
,  // measure 96
0010
0100
0001
1000
,  // measure 97
0110
0000
0000
0000
;

//---------------dance-single - ----------------
#NOTES:
     dance-single:
     :
     Easy:
     9:
     0.368431,0.572485,0.184216,0.049596,0.028341,364.000000,338.000000,26.000000,7.000000,0.000000,0.000000,0.368431,0.572485,0.184216,0.049596,0.028341,364.000000,338.000000,26.000000,7.000000,0.000000,0.000000:
// measure 0
0000
0000
0000
0000
,  // measure 1
0000
0000
0000
0000
,  // measure 2
0000
0000
0000
0000
,  // measure 3
0000
0000
0000
0000
,  // measure 4
0000
0000
0000
0000
,  // measure 5
0000
0000
0000
0000
,  // measure 6
0000
0000
0000
0000
,  // measure 7
0000
0000
0000
0000
,  // measure 8
0000
0000
0000
0000
,  // measure 9
1001
0000
1000
0000
,  // measure 10
0100
0000
0010
0000
,  // measure 11
0100
0000
0000
0000
,  // measure 12
0000
0000
1000
0010
,  // measure 13
0100
0000
0000
0010
0000
0000
1000
0000
,  // measure 14
0001
0000
1000
0000
,  // measure 15
0001
0000
0100
0000
,  // measure 16
0010
0000
0100
0000
,  // measure 17
1001
0000
0000
0000
,  // measure 18
0001
0000
0000
0010
0000
0000
0001
0000
,  // measure 19
0100
0000
0000
0010
0000
0010
0000
0000
,  // measure 20
0100
0000
0000
0010
0000
0010
0000
0000
,  // measure 21
1001
0000
0000
0000
0000
0000
1000
0100
,  // measure 22
0010
0100
1000
0020
,  // measure 23
0130
0010
1000
0001
,  // measure 24
1000
0100
0010
0002
2000
0000
3003
0000
,  // measure 25
0000
0001
0100
0001
,  // measure 26
0010
0001
0100
0001
,  // measure 27
1000
0100
0010
0100
,  // measure 28
1000
0010
0100
0010
,  // measure 29
1001
1000
0100
1000
,  // measure 30
0010
1000
0100
1000
,  // measure 31
0001
0100
0001
0010
,  // measure 32
0100
0010
0011
0000
,  // measure 33
1100
0001
0100
1000
,  // measure 34
0100
0001
1000
0100
,  // measure 35
0010
0001
0010
1000
,  // measure 36
0010
0001
0100
0010
,  // measure 37
1001
0001
1000
0010
,  // measure 38
0001
0010
1000
0001
,  // measure 39
0100
1000
0100
0001
,  // measure 40
0100
0010
1001
0000
,  // measure 41
0001
0000
0000
1000
0000
0000
0001
0000
1000
0000
0000
0000
0000
0000
0000
0000
,  // measure 42
1000
0000
0000
0001
0000
0000
1000
0000
0001
0000
0000
0000
0000
0000
0000
0000
,  // measure 43
1000
0000
0000
0001
0000
0000
1000
0000
0001
0000
0000
0000
0000
0000
0000
0000
,  // measure 44
0001
0000
0000
1000
0000
0000
0001
0000
1000
0000
0000
0000
0110
0000
0000
0000
,  // measure 45
1000
0010
0100
0001
,  // measure 46
0010
0100
0010
0001
,  // measure 47
0100
0001
1000
0100
,  // measure 48
0010
0100
1000
0001
,  // measure 49
0100
0000
0000
0010
0000
0000
1000
0000
0001
0000
0000
0000
0000
0000
0000
0000
,  // measure 50
0001
0000
0000
0100
0000
0000
0010
0000
1000
0000
0000
0000
0000
0000
0000
0000
,  // measure 51
0010
0000
0000
0100
0000
0000
0001
0000
1000
0000
0000
0000
0000
0000
0000
0000
,  // measure 52
0001
0000
0000
0100
0000
0000
0010
0000
1000
0000
0000
0000
0000
0000
0000
0000
,  // measure 53
0001
1000
0100
0010
,  // measure 54
0100
1000
0010
0100
,  // measure 55
0001
0010
0100
0010
,  // measure 56
0001
0100
0010
2000
,  // measure 57
3001
1000
0100
1000
,  // measure 58
0010
0000
0100
0000
0001
0010
0000
0100
,  // measure 59
0000
0010
0001
0100
,  // measure 60
0010
1000
0001
0010
,  // measure 61
0100
0000
0010
0000
0001
0100
0000
0010
,  // measure 62
0000
1000
0000
0100
0000
0001
0000
0100
,  // measure 63
0000
1000
0100
0010
0001
0000
0010
0010
,  // measure 64
0000
0001
0010
0100
1000
0000
0001
0000
,  // measure 65
1000
0100
1000
0010
,  // measure 66
0100
0000
0010
0000
1000
0001
0000
0011
,  // measure 67
0000
0010
0001
0000
0100
0000
0010
0000
,  // measure 68
1000
0001
0010
0100
,  // measure 69
0010
0001
0100
0000
0001
0000
1000
0010
,  // measure 70
0000
0100
0000
0010
0000
1000
0000
0001
,  // measure 71
0000
0010
0100
1000
0100
0000
0010
0001
,  // measure 72
0000
0010
0100
0010
0001
0000
0000
0000
,  // measure 73
1001
0000
0000
0000
,  // measure 74
0001
0000
0000
0100
0000
0000
0010
0000
,  // measure 75
1001
0000
1100
0000
,  // measure 76
1001
0000
0000
0001
0000
0000
0100
0000
,  // measure 77
0110
0000
0000
0000
0000
0000
0100
0010
,  // measure 78
1000
0001
0010
0200
,  // measure 79
0310
0001
0100
0010
,  // measure 80
1001
0000
0000
0000
,  // measure 81
0002
0000
1003
0001
0010
0000
0100
0000
,  // measure 82
0010
0001
0100
0010
,  // measure 83
1000
1000
0001
0001
,  // measure 84
1000
0000
0100
0000
0010
0100
0000
0100
,  // measure 85
0010
0000
0001
0010
0000
0100
0000
1000
,  // measure 86
0000
0100
0000
1000
0000
0010
0000
0100
,  // measure 87
0010
0000
0100
0001
0000
0100
0010
0000
,  // measure 88
0100
0000
0010
1000
0000
0010
0100
0000
,  // measure 89
0010
0000
1000
0001
0010
0000
0100
0000
,  // measure 90
0010
0000
0001
0100
0001
0000
1000
0000
,  // measure 91
0011
0000
0000
0001
0100
0000
0001
0000
,  // measure 92
1000
0000
0100
0000
1000
0000
0010
1000
,  // measure 93
0001
0000
0001
0010
0000
0011
0000
1100
,  // measure 94
0000
0101
0000
1001
0000
1000
0010
0000
,  // measure 95
0101
0000
0001
0100
0000
0101
0000
1010
,  // measure 96
0000
1100
0000
0110
0000
0100
0010
0001
,  // measure 97
2000
0000
0000
0000
,  // measure 98
0000
0000
0000
0000
,  // measure 99
0000
0000
0000
0000
,  // measure 100
0000
0000
0000
0000
,  // measure 101
3000
0000
0000
0000
;

//---------------dance-single - ----------------
#NOTES:
     dance-single:
     :
     Medium:
     13:
     0.537464,0.644046,0.368431,0.283409,0.318835,531.000000,479.000000,52.000000,40.000000,8.000000,0.000000,0.537464,0.644046,0.368431,0.283409,0.318835,531.000000,479.000000,52.000000,40.000000,8.000000,0.000000:
// measure 0
0000
0000
0000
0000
,  // measure 1
0000
0000
0000
0000
,  // measure 2
0000
0000
0000
0000
,  // measure 3
0000
0000
0000
0000
,  // measure 4
0000
0000
0000
0000
,  // measure 5
0000
0000
0000
0000
,  // measure 6
0000
0000
0000
0000
,  // measure 7
0000
0000
0000
0000
,  // measure 8
0000
0000
0000
0000
,  // measure 9
1000
0010
0100
0000
0010
0000
1010
0000
,  // measure 10
0001
0010
0100
0000
0010
0000
0011
0000
,  // measure 11
1000
0010
0100
0000
1000
0000
0101
0000
,  // measure 12
0001
0100
0010
0000
0001
0000
1100
0000
,  // measure 13
1001
1000
0200
0000
0310
0000
0110
0000
,  // measure 14
0010
0001
1000
0000
0010
0000
0200
0000
,  // measure 15
0301
0010
0100
0000
0100
1000
0010
0000
,  // measure 16
0100
0010
1000
0001
0100
0010
1000
0000
,  // measure 17
1001
0000
0000
0000
,  // measure 18
1000
0000
0000
0100
0000
0000
0001
0000
,  // measure 19
0200
0000
0000
1000
0000
1300
0000
0000
,  // measure 20
0020
0000
0000
0100
0000
0130
0000
0000
,  // measure 21
1001
0000
0000
0000
0000
0000
1000
0001
,  // measure 22
0100
0001
0010
0200
,  // measure 23
0310
0001
0100
0010
1000
0100
0010
0001
,  // measure 24
1000
0001
1000
0001
0020
0000
0130
0000
,  // measure 25
2001
0000
0000
0000
3001
0000
0000
0001
0000
0000
0001
0000
1000
0000
0000
0100
,  // measure 26
0000
0000
1000
0000
0010
0000
0000
0100
0000
0010
0000
1000
0000
0001
1000
0000
,  // measure 27
0100
0000
0000
0000
0010
0000
0000
0010
0000
0000
0001
0000
1000
0000
0000
0010
,  // measure 28
0000
0000
1000
0000
0001
0100
0000
0100
0010
0000
0000
0100
0000
0000
0001
0000
,  // measure 29
2001
0000
0000
0000
3100
0000
0000
0100
0000
0000
0010
0000
0100
0000
0000
1000
,  // measure 30
0000
0000
0001
0000
0100
0000
0000
0001
0000
0010
0000
0100
0000
0010
0001
0000
,  // measure 31
1000
0000
0000
0000
0001
0000
0000
0001
0000
0000
0010
0000
0100
0000
0000
0010
,  // measure 32
0000
0000
0001
0000
1000
0001
0000
0001
0020
0000
0000
0000
0030
0000
0000
0000
,  // measure 33
0210
0000
0000
0000
1300
0000
0000
0001
0000
0000
0010
0000
0100
0000
0000
0010
,  // measure 34
0000
0000
0001
0000
0100
0000
0000
0010
0000
1000
0000
0100
0000
1000
0001
0000
,  // measure 35
0100
0000
0000
0000
0001
0000
0000
0010
0000
0000
0001
0000
1000
0000
0000
0100
,  // measure 36
0000
0000
0010
0000
0100
1000
0000
1000
0010
0000
0000
0100
0000
0000
0001
0000
,  // measure 37
1002
0000
0000
0000
0013
0000
0000
0100
0000
0000
0010
0000
0001
0000
0000
1000
,  // measure 38
0000
0000
0001
0000
0100
0000
0000
0010
0000
0100
0000
0001
0000
0010
0100
0000
,  // measure 39
0010
0000
0000
0000
0001
0000
0000
0010
0000
0000
0100
0000
0010
0000
0000
0001
,  // measure 40
0000
0000
1000
0000
0010
1000
0000
1000
0100
0000
0000
0000
0000
0000
0000
0000
,  // measure 41
2001
0000
0000
0001
0000
0000
3001
0000
1001
0000
0000
0000
0000
0000
0000
0000
,  // measure 42
1002
0000
0000
1000
0000
0000
1003
0000
1001
0000
0000
0000
0000
0000
0000
0000
,  // measure 43
0210
0000
0000
0010
0000
0000
0310
0000
0110
0000
0000
0000
0000
0000
0000
0000
,  // measure 44
0120
0000
0000
0100
0000
0000
0130
0000
0110
0000
0000
0000
MMMM
0000
0000
0000
,  // measure 45
1000
0000
0000
1000
0000
0000
1000
0000
0001
0000
0000
0001
0000
0000
0001
0000
,  // measure 46
0100
0000
0000
0100
0000
0000
0100
0000
0010
0000
0000
1000
0000
0000
0001
0000
,  // measure 47
0010
0000
0000
0010
0000
0000
0010
0000
0100
0000
0000
0100
0000
0000
0100
0000
,  // measure 48
1000
0000
0000
1000
0000
0000
1000
0000
0100
0000
0000
0010
0000
0000
0001
0000
,  // measure 49
2001
0000
0000
0100
0000
0000
3001
0000
1001
0000
0000
0000
0000
0000
0000
0000
,  // measure 50
1002
0000
0000
0100
0000
0000
1003
0000
1001
0000
0000
0000
0000
0000
0000
0000
,  // measure 51
1002
0000
0000
0010
0000
0000
1003
0000
1001
0000
0000
0000
0000
0000
0000
0000
,  // measure 52
2001
0000
0000
0010
0000
0000
3001
0000
0000
0000
0000
0000
MMMM
0000
0000
0000
,  // measure 53
1100
0000
0000
0100
0000
0000
0100
0000
1000
0000
0000
1000
0000
0000
1000
0000
,  // measure 54
0010
0000
0000
0010
0000
0000
0010
0000
0100
0000
0000
0001
0000
0000
0010
0000
,  // measure 55
0001
0000
0000
0001
0000
0000
0001
0000
1000
0000
0000
1000
0000
0000
1000
0000
,  // measure 56
0100
0000
0000
0100
0000
0000
0100
0000
0010
0000
0100
0000
0000
0000
0000
0000
,  // measure 57
1000
0000
0010
0000
0010
0000
0000
0000
0100
0000
0001
0000
0010
0000
0000
0100
,  // measure 58
0000
0000
0010
0000
0001
0000
0000
1000
0001
0000
0100
0000
0000
0000
1010
0000
,  // measure 59
0000
0000
1000
0000
0010
0000
0010
0000
1000
0000
0001
0000
0000
0000
0010
0100
,  // measure 60
0000
0100
1000
0000
0001
0000
1000
0000
0100
0000
0010
0000
0100
0000
0100
0000
,  // measure 61
0000
1000
0001
0100
0001
0010
0000
0110
,  // measure 62
0000
1100
0000
0110
0000
0110
0000
1001
,  // measure 63
0000
0001
0100
0100
0002
0000
1003
0020
,  // measure 64
0000
0130
0001
0001
2000
0000
3020
0000
,  // measure 65
0130
0000
0001
0000
0001
0000
0000
0010
0100
0000
0010
0000
0000
0000
0010
0001
,  // measure 66
0000
0001
1000
0000
0001
0000
0100
0000
0001
0000
0010
0000
0000
0000
1100
0000
,  // measure 67
0000
0000
0100
0000
0100
0000
0010
0000
0100
0000
0000
1000
0000
0000
0001
0000
,  // measure 68
1000
0010
0000
1000
0010
0000
0100
0000
0001
0000
0000
0010
0000
0000
0001
0000
,  // measure 69
1000
1000
0001
0010
0001
0100
0000
0101
,  // measure 70
0000
1010
0000
0110
0000
0110
0000
2010
,  // measure 71
0000
0100
3100
0010
0001
0000
0010
0210
,  // measure 72
0000
0010
0310
0100
2000
0000
3000
0000
,  // measure 73
1001
0000
0000
0000
,  // measure 74
0001
0000
0000
0010
0000
0000
1000
0000
,  // measure 75
0011
0000
0001
0000
,  // measure 76
0100
0000
0000
0010
0000
0000
1000
0000
,  // measure 77
1001
0000
0000
0000
0000
0000
0001
0100
,  // measure 78
0010
1000
0100
0010
0001
0010
0200
0000
,  // measure 79
0310
0001
0100
0010
1000
0100
0010
0001
,  // measure 80
2002
0000
0000
3000
,  // measure 81
0023
0000
0000
0000
0130
1000
0100
1000
0100
0000
0000
0010
0100
0000
0000
1000
,  // measure 82
0000
0000
0001
0000
0100
0000
0001
0000
0010
0000
0000
0010
0000
0000
0100
0000
,  // measure 83
0010
0000
0000
0001
0000
0000
0001
0000
1000
0000
0000
0100
0000
0000
0100
0000
,  // measure 84
0010
0000
0000
0100
0000
0000
1000
0000
0100
0000
0010
0000
0000
0000
0100
0000
,  // measure 85
2000
0000
3001
0100
0001
0010
0000
0100
,  // measure 86
0000
0010
0001
0100
0001
0010
0100
1000
,  // measure 87
0002
0000
1003
0020
0000
1030
0001
0001
,  // measure 88
2000
0000
3100
2000
0000
3010
0200
0000
,  // measure 89
0301
0000
0000
0000
0010
0100
0010
0100
1000
0000
0001
0000
0100
0001
0000
0010
,  // measure 90
0000
0000
0100
0000
0010
0000
0100
0000
1000
0000
0000
0010
0000
0000
0100
0000
,  // measure 91
0201
0000
0000
0000
0000
0000
0301
1000
0001
0000
0000
0000
0010
0000
0000
0000
,  // measure 92
0100
0000
0010
0001
0100
0001
1000
0100
,  // measure 93
0020
0000
0130
1000
0000
0100
0000
0011
,  // measure 94
0000
1100
0000
1001
0000
0001
0010
0100
,  // measure 95
0020
0000
0130
1000
0000
0001
0000
0101
,  // measure 96
0000
1010
0000
1100
0000
0001
0010
0100
,  // measure 97
2000
0000
0000
0000
,  // measure 98
0000
0000
0000
0000
,  // measure 99
0000
0000
0000
0000
,  // measure 100
0000
0000
0000
0000
,  // measure 101
3000
0000
0000
0000
;

//---------------dance-single - ----------------
#NOTES:
     dance-single:
     :
     Hard:
     16:
     0.680180,1.144971,0.368431,0.382602,0.701436,672.000000,620.000000,52.000000,54.000000,32.000000,0.000000,0.680180,1.144971,0.368431,0.382602,0.701436,672.000000,620.000000,52.000000,54.000000,32.000000,0.000000:
// measure 0
0000
0000
0000
0000
,  // measure 1
0000
0000
0000
0000
,  // measure 2
0000
0000
0000
0000
,  // measure 3
0000
0000
0000
0000
,  // measure 4
0000
0000
0000
0000
,  // measure 5
0000
0000
0000
0000
,  // measure 6
0000
0000
0000
0000
,  // measure 7
0000
0000
0000
0000
,  // measure 8
0000
0000
0000
0000
,  // measure 9
1000
0000
1000
0000
0010
0000
0000
0100
0001
0000
0010
0000
0100
0000
0000
0000
,  // measure 10
0010
0000
0010
0000
0001
0000
0000
1000
0010
0000
1000
0000
0001
0000
0010
0000
,  // measure 11
0100
0000
0100
0000
0010
0000
0000
0001
1000
0000
0010
0000
0100
0000
0000
0000
,  // measure 12
0001
0000
0001
0000
0010
0000
0000
0100
1000
0000
0100
0000
0010
0000
0100
0000
,  // measure 13
0010
0000
0010
0000
0100
0000
0000
1000
0010
0000
0100
0000
0010
0000
0000
0000
,  // measure 14
1000
0000
1000
0000
0001
0000
0000
0100
0001
0000
0010
0000
0001
0000
1000
0000
,  // measure 15
0100
0000
0100
0000
0010
0000
0000
0001
0010
0000
0100
0000
1000
0000
0000
0000
,  // measure 16
0001
1000
0001
1000
0001
1000
0001
1000
0001
1000
0001
1000
0001
0000
0000
0000
,  // measure 17
2001
0000
0000
3000
,  // measure 18
0010
0000
0000
0100
0000
0000
0001
0000
,  // measure 19
0010
0000
0000
2000
0000
0020
0000
3030
,  // measure 20
0001
0000
0000
0200
0000
2000
0000
3300
,  // measure 21
0120
0000
0000
0000
0000
0000
0130
0001
,  // measure 22
1000
0000
0100
0010
0001
1000
0001
0010
0100
1000
0100
0010
0001
1000
0100
0010
,  // measure 23
0001
1000
0001
1000
0001
1000
0001
1000
0001
1000
0001
1000
0001
1000
0001
1000
,  // measure 24
0020
0230
0302
2003
0002
0000
3003
0000
,  // measure 25
MMMM
0000
0000
0000
1001
0000
0000
1000
0000
1000
0100
0000
1000
0000
0000
1000
,  // measure 26
0000
0000
1000
0000
1000
0100
0000
0100
0000
1000
0000
0010
0000
0100
0010
0000
,  // measure 27
1001
0000
0000
0000
0001
0000
0000
0001
0000
0001
0010
0000
0001
0000
0000
0010
,  // measure 28
0000
0000
0001
0000
0001
0010
0000
0010
0100
0000
0000
1000
0000
0000
0001
0000
,  // measure 29
2100
0000
0000
0000
3010
0000
0000
0010
0000
0010
0100
0000
0010
0000
0000
0100
,  // measure 30
0000
0000
0010
0000
0010
0100
0000
0100
0000
0010
0000
1000
0000
0001
0100
0000
,  // measure 31
0010
0000
0000
0000
1000
0000
0000
0001
0000
1000
0001
0000
1000
0000
0000
0001
,  // measure 32
0000
0000
0001
0000
0010
0100
0000
0100
2000
0000
0000
0000
3010
0000
0100
0000
,  // measure 33
1002
0000
0000
0000
0103
0000
0000
0010
0000
1000
0100
0000
0010
0000
0000
0100
,  // measure 34
0000
0000
1000
0000
0010
0100
0000
0100
0000
0010
0000
1000
0000
1000
0001
0000
,  // measure 35
0010
0000
0000
0000
0100
0000
0000
1000
0000
0010
0100
0000
0001
0000
0010
0100
,  // measure 36
0000
0000
0010
0000
0001
0100
0000
0100
0010
0000
0000
0100
0000
0000
0001
0000
,  // measure 37
2001
0000
0000
0000
3100
0000
0000
1000
0000
0100
0010
0000
0100
0000
0000
1000
,  // measure 38
0000
0000
0010
0000
0100
0001
0000
1000
0000
1000
0000
0010
0000
0100
0010
0000
,  // measure 39
1000
0000
0000
0000
0010
0000
0000
0100
0000
0100
0010
0000
0100
0000
0000
0001
,  // measure 40
0000
0000
0010
0000
0100
1000
0000
1000
0010
0000
0100
0000
0010
0100
0000
0001
,  // measure 41
2000
0000
0000
0010
0000
0000
3001
0000
1001
0000
0000
0000
MMMM
0000
0000
0000
,  // measure 42
1002
0000
0000
0010
0000
0000
1003
0000
1001
0000
0000
0000
MMMM
0000
0000
0000
,  // measure 43
2001
0000
0000
0010
0000
0000
3001
0000
1001
0000
0000
0000
MMMM
0000
0000
0000
,  // measure 44
1002
0000
0000
0010
0000
0000
1003
0000
1001
0000
0000
0000
MMMM
0000
0000
0000
,  // measure 45
0001
0100
0000
0100
0000
0100
0010
0000
1000
0001
0000
0001
0000
0001
0010
0000
,  // measure 46
0010
0100
0000
0100
0000
0100
1000
0000
0100
0010
0000
0100
0000
1000
0010
0000
,  // measure 47
0100
0001
0000
0001
0000
0001
1000
0000
0100
0010
0000
0010
0000
0010
0100
0000
,  // measure 48
1000
0010
0000
0010
0000
0010
0100
0000
0010
1000
0000
0001
0000
0010
0001
0000
,  // measure 49
2010
0000
0000
0100
0000
0000
3001
0000
1001
0000
0000
0000
MMMM
0000
0000
0000
,  // measure 50
0012
0000
0000
0100
0000
0000
1003
0000
1001
0000
0000
0000
MMMM
0000
0000
0000
,  // measure 51
2010
0000
0000
0001
0000
0000
3100
0000
1001
0000
0000
0000
MMMM
0000
0000
0000
,  // measure 52
0012
0000
0000
1000
0000
0000
0103
0000
0010
0000
0100
0000
1001
0000
0000
0000
,  // measure 53
0001
0100
0000
0010
0000
0100
0001
0000
1000
0100
0000
0010
0000
0100
1000
0000
,  // measure 54
0001
1000
0000
0010
0000
1000
0001
0000
1000
0000
0001
0010
0000
0010
0100
0000
,  // measure 55
1000
0100
0000
0010
0000
0100
1000
0000
0001
0100
0000
0010
0000
0100
0001
0000
,  // measure 56
1000
0000
0100
0000
0010
0000
0001
0000
1000
0001
1000
0001
1000
0000
0000
0000
,  // measure 57
0001
0000
0010
0000
0010
0000
0000
0100
0010
0000
0010
0000
0100
0010
0100
1000
,  // measure 58
0000
0001
1000
0000
0001
0000
0000
1000
0010
0000
0100
0000
0000
0000
0011
0000
,  // measure 59
0000
0000
0001
0000
0010
0000
0001
0000
0100
0000
0010
0000
0000
1000
0001
0010
,  // measure 60
0000
0010
0100
0000
1000
0000
0100
0000
0010
0000
1000
0000
0010
0000
0001
0000
,  // measure 61
1000
0010
0010
1000
0001
1000
0000
0201
,  // measure 62
0000
0310
0000
1001
0000
0100
0000
1002
,  // measure 63
0000
0010
0013
0100
1000
0010
0100
2001
,  // measure 64
0000
0010
3010
1000
0002
0000
0023
0000
,  // measure 65
0130
0000
0010
0000
0010
0000
0000
0100
0010
0000
0010
0000
0001
0010
0001
1000
,  // measure 66
0000
0001
0100
0000
0010
0000
1000
0000
0100
0000
0010
0000
0000
0000
1100
0000
,  // measure 67
0000
0000
1000
0000
0001
0000
0001
0000
0100
0000
0000
0010
0000
0000
0100
0000
,  // measure 68
0001
0010
0000
0010
0001
0000
1000
0000
0100
0000
0000
1000
0000
0000
0010
0000
,  // measure 69
0100
0010
0010
1000
0100
0010
0000
0002
,  // measure 70
0000
0013
0000
1001
0000
0010
0000
2001
,  // measure 71
0000
0100
3100
0010
0200
0000
1300
1002
,  // measure 72
0000
0010
0013
0100
0020
0000
0030
0000
,  // measure 73
1001
0000
0000
0000
,  // measure 74
0001
0000
0000
0100
0000
0000
0001
0000
,  // measure 75
2000
0000
3200
0000
,  // measure 76
0302
0000
0000
0203
0000
0000
1300
0000
,  // measure 77
0021
0000
0000
0000
0000
0000
0031
0100
,  // measure 78
0010
0000
1000
0001
1000
0100
0010
0001
0010
0100
0010
0001
0200
0000
0000
0000
,  // measure 79
0301
1000
0001
1000
0001
1000
0001
1000
0001
1000
0001
1000
0001
1000
0001
1000
,  // measure 80
0200
0000
0000
0000
,  // measure 81
0320
0000
0000
0130
1000
0100
1000
0010
0100
0001
1000
0001
0010
0100
0000
1000
,  // measure 82
0000
0000
0100
0000
1000
0000
1000
0000
1001
0000
0000
0101
0000
0000
1001
0000
,  // measure 83
0001
0000
1000
0010
0000
0100
0010
0000
1000
0000
0001
0010
0000
0100
0010
0000
,  // measure 84
0011
0000
0000
0110
0000
0000
1000
0000
0100
0000
2001
0000
0000
0000
3001
0000
,  // measure 85
0100
0000
1000
0100
0010
1000
0000
0011
,  // measure 86
0000
0010
0100
0100
1000
0001
0010
0010
,  // measure 87
0012
0000
0000
0000
1003
0000
2001
0000
0000
0000
3001
0000
0100
0010
0100
0010
,  // measure 88
2000
0000
0000
0000
3100
0000
1002
0000
0000
0000
0103
0000
0010
1000
0010
1000
,  // measure 89
0100
0000
0000
0010
0001
1000
0001
1000
0001
0100
0000
0010
1000
0100
0000
0010
,  // measure 90
0000
0000
0010
0000
0001
0000
0010
0000
1100
0000
0000
1001
0000
0000
0001
0000
,  // measure 91
0210
0000
0000
0000
0300
0000
0001
1000
0100
0000
0000
0000
1100
0000
0000
0000
,  // measure 92
0101
0000
0001
0100
0010
0001
0010
1000
,  // measure 93
0002
0000
0013
0210
0000
1300
0000
0201
,  // measure 94
0000
0010
0000
0302
0000
1003
0100
0010
,  // measure 95
0021
0000
0130
1200
0000
0001
0000
1300
,  // measure 96
0001
1000
0001
1000
0001
1000
0001
1000
0001
1000
0001
1000
0001
1000
0001
1000
,  // measure 97
0020
0000
0000
0000
,  // measure 98
0000
0000
0000
0000
,  // measure 99
0000
0000
0000
0000
,  // measure 100
0000
0000
0000
0000
,  // measure 101
0030
0000
0000
0000
;
