#TITLE:Freaks;
#SUBTITLE:;
#ARTIST:ATARASHII GAKKO! & Warren Hue;
#TITLETRANSLIT:;
#SUBTITLETRANSLIT:;
#ARTISTTRANSLIT:;
#GENRE:;
#CREDIT:;
#MUSIC:Freaks.ogg;
#BANNER:Freaks.png;
#BACKGROUND:Freaks-bg.png;
#CDTITLE:;
#SAMPLESTART:0.104;
#SAMPLELENGTH:13.226;
#SELECTABLE:YES;
#OFFSET:0.841;
#BPMS:0.000=127.018;
#STOPS:;
#DISPLAYBPM:127.000;
#BGCHANGES:1.500=freaks.avi=1.000=1=0=0=StretchNoLoop==CrossFade==,
99999.000=-nosongbg-=1.000=0=0=0=StretchNoLoop====
;
#FGCHANGES:;

//--------------- dance-single - NOWHERE Dance Club ----------------
#NOTES:
     dance-single:
     NOWHERE Dance Club:
     Challenge:
     14:
     0,0,0,0,0:
0000
0000
0000
0000
,
0000
0000
0000
0000
,
0000
0000
0000
0000
,
0000
0000
0000
0000
,
0000
0000
0000
0000
0000
0000
0000
2000
0000
0000
0000
0000
0000
0000
0000
3002
,
0000
0000
0000
0000
0000
0000
0000
0000
1003
0000
0100
0000
0010
0000
0000
0001
,
0000
0000
1000
0000
0010
0000
0000
0100
0000
0000
0010
0000
1000
0000
0000
0100
,
0000
0000
0010
0000
0001
0000
0100
0000
1000
0000
0100
0000
0001
0000
0000
1000
,
0000
0000
0001
0000
0010
0000
0000
0100
0000
0000
0010
0000
0001
0000
0000
0100
,
0000
0010
1000
0001
0011
0010
0001
0000
,
0010
0100
0000
0010
0000
0000
0001
0000
0000
1000
0000
0001
0100
0000
0001
0000
,
0010
0000
0001
0100
0000
0001
0010
0000
0000
0000
0001
0000
0100
0000
0010
0000
,
1000
0000
0000
0100
0000
1000
0001
0000
0010
0000
0002
0000
0103
0000
0000
0010
,
0000
2000
3100
0010
0000
0001
0100
0001
,
0010
0000
0001
0100
0000
0100
0010
0000
0000
1000
0000
0001
0100
0000
0001
0000
,
0001
1000
0000
0020
0000
0000
1030
0000
0000
0100
0010
0000
0001
0000
0010
0000
,
0001
0000
0100
0010
0000
0000
1000
0000
1000
0000
0000
0000
0100
0000
0000
0000
,
0010
0000
0000
0000
0001
0000
0001
0000
2000
0000
0000
3100
0020
0000
0000
0000
,
0031
0001
0100
0010
0200
0000
0320
0000
,
1030
0000
1000
0000
0001
0000
0010
0000
0200
0000
0000
0310
0000
0000
0001
0000
,
1000
0010
0200
0000
0301
0100
1000
0100
,
0020
0000
1030
0000
0001
0010
1000
0010
,
0001
0010
0011
0001
1000
0001
0010
0001
,
0100
0000
0010
0000
0110
0000
0100
0000
0020
0000
0000
0130
0000
0000
0010
1000
,
0020
0000
0000
0130
0000
0000
0010
0000
1000
0000
0100
0000
0001
0000
0100
0000
,
1000
0000
0000
0001
0000
0000
0000
0000
1000
0000
0000
0000
0001
0000
0000
0000
,
0011
0000
1000
0100
,
0110
0000
0001
1000
,
1010
0000
0000
0000
0000
0000
0000
0000
0001
0000
0010
0000
1000
0010
0000
0000
,
0001
0000
0100
0000
1000
0100
0000
0000
0001
0000
0001
0000
0000
0100
0000
0000
,
0010
0000
0000
1000
0000
0000
1000
0000
0200
0000
0310
0000
0010
0001
0000
0000
,
0101
0000
0000
0110
0000
0000
0010
0000
2000
0000
0010
0000
3010
0000
0000
0000
,
1000
0001
0000
0010
0000
0000
1000
0000
1000
0010
1000
0010
1000
0100
0000
0000
,
0010
0100
0010
0001
0010
0002
0000
0000
0203
0000
0000
0000
0010
0310
0000
0000
,
1000
0000
0000
0001
0000
0000
1000
0000
1100
0000
0010
0000
0001
1000
0000
0000
,
0001
0000
0000
0101
0000
0000
0001
0000
0010
0000
0001
0000
0100
0010
0000
0000
,
1000
0100
0000
0010
0000
0000
0001
0000
0100
0000
0000
0000
0010
0000
0000
0000
,
0020
0000
0000
0000
1030
0000
0000
0000
0001
0010
0100
0000
1000
0001
0000
1000
,
0100
0010
0011
0000
0101
0000
0110
0000
,
0100
0000
0001
0000
0011
0000
0000
0000
1001
0000
0000
0000
1010
0000
0000
1000
,
0100
0000
1000
0000
1010
0000
0000
0000
1100
0000
0000
0000
0010
0000
0000
0001
,
0010
0000
0001
0000
1001
0000
1000
0000
0002
0000
0000
0000
0103
0000
0000
0001
,
0100
0000
0010
0000
1010
0000
0000
0000
0011
0000
0000
0000
0101
0000
0000
0010
,
1000
0000
0010
0000
1001
0000
0000
0000
0011
0000
0000
0000
1001
0000
0000
1000
,
0100
0010
0110
0000
0001
0000
0100
0000
,
0010
0000
1000
0100
0000
1000
0001
1000
,
0010
0000
0100
0000
0010
0000
0020
0000
1030
0000
0001
0000
1000
0000
0001
0010
,
0001
0000
0100
0000
0100
0000
0001
0000
0100
0000
0010
0000
0100
0000
0001
1000
,
0001
0000
0010
0001
0010
0000
0100
0000
0110
0000
0010
0000
0010
0000
0001
0100
,
0010
0000
1000
0000
1000
0000
0002
0000
1003
0000
1000
0100
0000
0010
0001
0000
,
0010
0000
0001
0100
0000
1000
0100
0000
0001
0000
0100
0010
0000
1000
0100
0000
,
0010
0000
0001
0010
0000
1000
0010
0000
0001
0000
0100
0000
0010
0000
1000
0000
,
0002
0000
1003
1000
0002
0000
1003
0000
0100
0000
0100
0000
1000
0000
0010
0000
,
0100
0000
0010
0100
0010
0000
0100
0000
0101
0000
0000
0000
0001
0000
1000
0000
,
0010
0000
0010
0000
0001
0000
1000
0000
1100
0000
1000
0000
0001
0000
1000
0010
,
0100
0010
1000
0000
1001
0000
0010
0000
1000
0000
0001
1000
0001
1000
0001
0000
,
0000
0001
0010
0001
0100
1000
0100
0001
,
1000
0000
0001
0100
0010
1000
0001
0000
0110
0000
0020
0000
0000
0000
0001
0000
,
0031
0000
1002
0000
0003
1000
0010
0100
,
0002
0000
0000
0000
0103
0000
0000
0000
0001
1000
0001
0000
0001
0100
0001
0000
,
1000
0001
1000
0000
0100
1000
0100
0000
0010
0000
0000
0000
0001
0000
0000
0000
,
0200
0000
0010
0310
0000
0000
0000
0000
;
