#TITLE:Forgotten;
#SUBTITLE:;
#ARTIST:Paul Bazooka;
#TITLETRANSLIT:;
#SUBTITLETRANSLIT:;
#ARTISTTRANSLIT:;
#GENRE:;
#CREDIT:;
#BANNER:Forgotten.png;
#BACKGROUND:Forgotten-bg.png;
#LYRICSPATH:;
#CDTITLE:;
#MUSIC:Forgotten.ogg;
#OFFSET:-0.073000;
#SAMPLESTART:116.473000;
#SAMPLELENGTH:11.142000;
#SELECTABLE:YES;
#BPMS:0.000000=150.000000
;
#STOPS:
;
#BGCHANGES:0.000=Forgotten.avi=1.000=0=0=0=StretchNoLoop====,
99999=-nosongbg-=1.000=0=0=0 // don't automatically add -songbackground-
;
#KEYSOUNDS:;
#ATTACKS:;

//---------------dance-single - ----------------
#NOTES:
     dance-single:
     :
     Beginner:
     6:
     0.181612,0.298380,0.094670,0.081146,0.000000,188.000000,174.000000,14.000000,12.000000,0.000000,0.000000,0.181612,0.298380,0.094670,0.081146,0.000000,188.000000,174.000000,14.000000,12.000000,0.000000,0.000000:
0000
0000
0000
0000
,
0000
0000
0000
0000
,
0000
0000
0000
0000
,
0000
0000
0000
0000
,
0000
0000
0000
0000
,
0000
0000
0000
0000
,
0000
0000
0000
0000
,
0000
0000
0000
0000
,
0000
0010
0000
0000
,
0000
0100
0000
0000
,
0000
0001
0000
0000
,
0000
1000
0000
0000
,
0000
0001
0000
1000
,
0000
0010
0000
0000
,
0000
0100
0000
0001
,
0000
0010
0000
0000
,
0000
0100
0000
1000
,
0000
0010
0000
0100
,
0000
0001
0000
1000
,
0000
0001
0000
0100
,
0000
1001
0000
0001
,
0000
1000
0000
0010
,
0000
0110
0000
0000
,
0000
1001
0000
0002
,
0000
1003
0000
1000
,
1000
0001
0001
1001
,
0000
0010
0000
1000
,
0000
0100
0000
0010
,
0000
0001
0000
0100
,
0000
0010
0000
1000
,
0000
0002
0000
0000
,
0003
2000
0000
0000
,
3000
0001
0000
0100
,
0000
0010
0000
1000
,
0000
0100
0000
1000
,
0000
0001
0000
0100
,
0000
0010
0010
1000
,
0000
0001
0001
0010
,
0100
1000
0000
0001
,
0000
0100
0010
1001
,
0000
0110
0000
0001
,
0000
1000
0001
1000
,
0000
1001
0000
0010
,
0000
0100
0100
0001
,
0000
0011
0000
0010
,
0000
0100
0100
0100
,
1000
0001
0000
1000
,
0000
0001
1000
0110
,
0000
0002
0000
0000
,
0003
2000
0000
0000
,
3000
0020
0000
0000
,
0030
0200
0000
0320
,
0000
0130
0000
0001
,
0000
0010
0000
0100
,
1000
0010
0000
0100
,
0000
0001
0000
0000
,
0000
1000
0000
0001
,
0200
0310
0000
0100
,
0002
0013
0000
0100
,
2000
3010
0000
0100
,
0020
1030
1000
1000
,
1000
0001
0001
0001
,
0000
0100
0000
0010
,
0000
1001
0000
0000
,
0000
0001
0000
1000
,
0000
0010
0000
1000
,
0100
1000
0000
0001
,
0000
0100
0000
0010
,
0100
1001
0000
0000
,
0000
0001
0000
0000
,
0000
0010
0000
0000
,
0000
0100
0000
1000
,
0000
0000
0000
0110
,
0000
0100
0000
0010
,
0000
1000
0001
1000
,
0000
1000
1000
1000
,
0000
0001
0000
0010
,
0000
0001
0000
0100
,
0000
0010
0000
0100
,
0000
0001
0001
1001
,
0000
0001
0000
1000
,
0000
0010
0000
1000
,
0000
0100
0000
0010
,
0100
1000
0000
0100
,
0000
0010
0001
1000
,
0000
0001
0100
0010
,
0000
1000
1000
1000
,
1000
0001
0100
0010
,
1000
1001
0000
0000
;

//---------------dance-single - ----------------
#NOTES:
     dance-single:
     :
     Easy:
     9:
     0.343904,0.543170,0.202864,0.263724,0.000000,356.000000,326.000000,30.000000,39.000000,0.000000,0.000000,0.343904,0.543170,0.202864,0.263724,0.000000,356.000000,326.000000,30.000000,39.000000,0.000000,0.000000:
0000
0000
0000
0000
,
0000
0000
0000
0000
,
0000
0000
0000
0000
,
0000
0000
0000
0000
,
0000
0000
0000
0000
,
0000
0000
0000
0000
,
0000
0000
0000
0000
,
0000
0000
0000
0000
,
0000
0001
0000
0000
,
0000
0100
0000
0000
,
0000
0010
0000
0000
,
0000
1000
0000
0000
,
0000
0001
1000
0000
0000
0000
0100
0000
,
0000
1000
0000
0010
,
0100
0001
0000
0010
,
0000
0100
0000
0010
,
0000
0001
0010
0100
,
1000
0100
0010
0100
,
1000
0001
0000
0100
,
0001
0010
0000
0100
,
0000
1000
0000
0001
,
0100
0001
1000
0100
,
0010
0011
0000
0001
,
0100
1010
0000
0200
,
0000
0300
1001
0000
0000
0000
0002
0000
,
0203
0320
2030
0002
,
0000
3003
0011
0000
0100
0000
0120
0000
,
0030
1100
1000
2010
,
3000
0110
0100
0201
,
0300
0011
0010
0210
,
0300
1000
0100
0010
,
0001
0010
0200
0000
2300
0000
3020
0000
,
0230
0302
0013
0002
,
1003
0002
0103
0002
,
1003
2000
3001
2000
,
3010
2000
3100
2000
,
3001
0000
1000
0010
1000
0100
1000
0000
,
1010
0000
0001
0100
0001
0010
0100
0000
,
0110
0100
1000
0010
,
0100
0002
0023
0230
,
0310
0001
1000
0000
0001
0100
0001
0000
,
1000
0100
1000
0000
0001
0100
0001
0000
,
1000
0000
1001
0000
0001
0010
0001
0000
,
1000
0010
1000
0000
0001
0000
1000
0000
,
1001
0000
0001
0000
1000
0100
1000
0000
,
0001
0100
0001
0000
1000
0100
1000
0000
,
0001
1000
0100
0010
,
0001
0000
0010
0001
0100
0010
1000
0000
,
1001
0002
0000
0100
,
0103
0020
0000
1000
,
1030
0200
0000
0010
,
0310
2000
0000
0001
,
3001
1001
1000
0010
,
1000
0000
0001
0000
0010
0000
0100
1000
,
0100
1000
0100
0000
0010
0000
1000
0000
,
0001
1020
0000
0000
,
0030
1000
0001
0100
,
1020
0130
0001
0010
,
0210
1300
0010
0100
,
0102
0013
0100
1000
,
2001
0000
3001
0100
0001
0000
1000
0010
,
1000
0000
0001
1000
0001
0000
0010
0001
,
2000
3001
0010
0100
,
1000
0000
0001
0000
0100
0000
0010
0100
,
0001
1000
1001
0000
0001
0000
1000
0000
,
0010
0000
1000
0000
0100
0000
0010
0100
,
1000
0100
1000
0010
,
0100
0000
0001
0000
0010
0000
0100
0010
,
0001
1000
0010
1000
,
0001
0010
0100
0010
,
0001
0100
0001
1000
,
0100
0001
0100
1000
,
0010
0000
1000
0100
0010
0001
1000
0000
,
0001
0100
0001
0010
,
1000
0000
0010
0000
0001
0000
1000
0001
,
0000
1000
0001
0001
1000
0000
0001
0000
,
0100
0001
0010
0100
,
0010
0001
1000
0010
,
0001
0010
0100
0001
,
1000
0000
0001
0100
0010
0000
2002
0000
,
3000
0003
1000
0000
0100
0000
0010
0000
,
0001
0010
0001
0000
0010
0100
0000
0100
,
1000
0000
0100
0000
1000
0000
0010
0100
,
0010
0000
0100
0000
0001
0000
1000
1000
,
1000
0000
0001
1000
0001
0100
0100
0000
,
0110
0000
0010
0100
0010
1000
1000
0001
,
1000
1010
0101
1010
,
0101
0000
1000
0001
0100
0010
1000
0001
,
0100
0010
2002
0000
0000
0000
0000
0000
,
0000
3003
0000
0000
;

//---------------dance-single - ----------------
#NOTES:
     dance-single:
     :
     Medium:
     13:
     0.477214,0.633698,0.202864,0.324583,0.081146,494.000000,464.000000,30.000000,48.000000,0.000000,0.000000,0.477214,0.633698,0.202864,0.324583,0.081146,494.000000,464.000000,30.000000,48.000000,0.000000,0.000000:
0000
0000
0000
0000
,
0000
0000
0000
0000
,
0000
0000
0000
0000
,
0000
0000
0000
0000
,
0000
0000
0000
0000
,
0000
0000
0000
0000
,
0000
0000
0000
0000
,
0000
0000
0000
0000
,
0000
0000
1001
0000
0001
0100
0000
0001
,
0000
0010
0000
0001
1000
0000
0000
0000
,
0000
0100
0010
0000
0000
0000
0000
0000
,
0000
0100
0000
0000
,
0000
1000
0001
0000
0000
0000
1000
0000
,
0000
0000
0010
0000
0000
0000
1000
0100
,
0010
0001
1000
0000
0000
0000
0001
0000
,
0000
0100
0000
0001
,
0000
0000
0010
0001
0010
0000
0100
1000
,
0100
0000
1000
0010
1000
0000
0001
0100
,
0001
0010
0100
0000
0000
0000
0010
0001
,
1000
0100
0010
0000
0000
0100
1000
0000
,
0000
0100
0010
0000
0100
0000
1000
0000
,
0010
0001
0010
1000
,
0001
1020
0000
1030
,
0100
0000
0201
0000
0000
0000
0301
0010
,
1000
0010
0012
0000
0000
0003
1001
0000
,
0110
1001
0110
2002
,
0000
3003
0110
0000
0001
0100
0010
0000
,
0100
0010
1000
0000
1000
0000
1100
0000
,
0100
0010
0001
0000
0001
0010
0100
0000
,
0010
0001
0100
0000
0010
1000
1001
0000
,
1100
0000
0001
0001
1000
1000
0001
0001
,
1000
0100
1000
0100
2000
0000
0000
0000
3200
0000
0000
0000
0320
0000
0000
0000
,
0032
0000
0103
0010
1000
0000
0010
1000
,
0100
0000
0010
0001
1000
0001
0010
0100
,
1000
0100
0010
0100
1000
0000
0100
1000
,
0010
0200
0320
2030
,
3002
0000
1003
1000
0001
1000
1000
0001
,
1000
0000
0010
0010
0100
0010
0100
0000
,
1020
0000
0000
0000
0130
0000
0000
0000
0010
0000
0010
0000
0100
0010
0100
0000
,
0010
1000
0002
0000
0023
0000
0130
1000
,
0100
0010
0012
0000
0013
0100
1100
0000
,
0100
0010
0011
0000
0201
0000
0320
0000
,
1030
0000
1001
0000
0001
0100
1100
0000
,
1000
0100
0101
0001
0010
0010
0100
0000
,
0011
0000
1100
0000
0100
0010
0011
0000
,
0010
0000
0100
0000
1100
0000
1000
0001
1000
0000
0001
1000
0001
0000
1000
0001
,
1000
0000
0001
0100
1000
0100
0001
0010
,
1000
0010
0001
0001
0001
0001
0002
0000
,
0003
0000
0000
0000
1000
0000
0000
1000
0000
0000
1000
0000
0001
0000
0000
0000
,
0200
0000
0000
0000
0310
0000
0000
0010
0000
0000
0010
0000
1000
0000
0000
0000
,
0200
0000
0000
0000
1300
0000
0000
1000
0000
0000
1000
0000
0001
0000
0000
0000
,
0020
0000
0000
0000
0130
0000
0000
0100
0000
0000
0100
0000
0010
0000
0000
0010
,
0000
0000
0010
0000
0001
0000
0000
0100
0000
0000
0010
0000
1000
0000
0000
0000
,
2001
0000
0000
0000
3100
0000
0000
1000
0000
0000
0010
0000
0100
0000
0001
0000
,
0100
0000
0010
0000
1000
0000
0000
1000
0000
0000
1000
0000
0000
0000
0001
0000
,
0000
1000
0200
0000
0320
0000
0130
0100
,
0100
0000
0010
0001
0100
0010
1000
0001
,
0020
0000
0130
0010
0001
0100
0010
1000
,
0200
0000
0310
0001
0100
0010
1000
0100
,
0020
0000
0130
0010
0001
0010
0100
1000
,
0200
0000
0310
0100
0010
0100
1000
0001
,
1000
0001
0100
0010
0100
0010
1000
0001
,
2000
0000
3001
0010
0100
1000
0001
0010
,
0100
1000
0002
0000
0000
0000
1003
0100
,
0001
0000
0100
0000
1100
0000
0000
0000
0100
0000
0000
1000
0010
0000
0010
0000
,
0000
0000
0000
0000
0100
0000
0000
0000
0001
0000
0000
1000
0001
0000
0010
0000
,
0100
0000
0000
0000
0010
0000
0000
0000
0100
0000
0000
1000
0010
0000
0010
0000
,
0000
0010
0000
0000
0100
0000
0000
0000
0001
0000
0000
0010
0001
0000
0010
0000
,
0100
1000
0010
0000
0100
0001
0010
0001
,
1000
0100
0010
0100
1000
0001
0000
1000
,
0100
0010
0100
0000
1000
0000
0010
0000
,
0001
0000
0010
0100
0001
1000
0002
2003
,
3020
0030
2100
3200
0320
0032
0013
0100
,
0010
0001
0000
0000
0000
0000
1000
0100
,
1000
0000
0010
0000
0100
0000
0000
0000
0200
0000
0000
0000
0301
1000
0001
0000
,
0000
0000
1000
0001
1000
0000
0001
0000
0001
0000
0000
0000
1000
0000
0000
0000
,
0100
1000
0010
0001
0010
1000
0001
0010
,
0100
1000
0000
0000
0000
0000
0100
1000
,
0010
0100
0001
0000
0010
0000
0001
0000
,
1000
0000
0001
0100
0010
0000
2002
0000
,
0003
3000
0001
1000
0001
0010
0001
1000
,
0001
0010
1000
0010
0001
0100
0010
1000
,
0100
0001
0100
1000
0010
0100
0001
0010
,
1000
0010
0001
0010
0010
0001
0010
0010
,
0200
0000
0000
0000
0310
0000
0000
0000
0001
0000
0100
0001
0100
0000
0000
0000
,
0010
0000
1000
0000
0001
0000
0000
0000
1000
0000
0100
1000
0100
0000
0000
0000
,
0010
0001
1000
0001
1000
0001
1000
0001
,
1000
0000
0001
0000
1000
0000
1000
0000
0001
0000
0001
0000
0100
0000
0010
0100
,
0010
0100
1002
0000
0000
0000
2003
3200
,
0320
0032
0003
0000
0000
0000
0000
0000
;

//---------------dance-single - ----------------
#NOTES:
     dance-single:
     :
     Hard:
     15:
     0.597001,0.814184,0.270486,0.351632,0.324583,618.000000,578.000000,40.000000,52.000000,0.000000,0.000000,0.597001,0.814184,0.270486,0.351632,0.324583,618.000000,578.000000,40.000000,52.000000,0.000000,0.000000:
0000
0000
0000
0000
,
0000
0000
0000
0000
,
0000
0000
0000
0000
,
0000
0000
0000
0000
,
0000
0000
0000
0000
,
0000
0000
0000
0000
,
0000
0000
0000
0000
,
0000
0000
0000
0000
,
0000
0000
1001
0000
0001
0100
0000
0100
,
0000
0010
0000
1000
0001
0000
0000
0000
,
0000
0010
0110
0000
0000
0000
0000
0000
,
0000
0000
0000
0000
1100
0000
0000
0000
0000
0000
0000
0000
0001
0100
0001
0100
,
0010
1000
0010
1000
0001
0000
0000
0000
0000
0000
0000
0000
1000
0000
0000
0000
,
0000
0000
0110
0000
0000
0000
0001
0100
,
0010
1000
0001
0000
0000
0000
0001
0000
,
0000
0010
0000
0010
,
0000
0000
0100
0001
0100
1000
0010
0001
,
0010
1000
0010
0001
0010
1000
0100
0001
,
0100
1000
0010
0000
0000
0000
0100
0001
,
1000
0001
0010
0000
0000
0010
0100
0000
,
0000
0100
1000
0000
0001
0000
1000
0000
,
0010
0000
1000
0100
0010
0100
1000
0001
,
0010
0100
1100
0000
0000
0000
0001
0000
,
0100
0000
0000
0000
0010
0000
0000
0000
0000
0000
0000
0000
1000
0100
0010
0001
,
0010
0100
1000
0001
1000
0000
0000
0000
0000
0000
0000
0000
0101
0000
0000
0000
,
1100
0101
1100
2002
,
0000
0000
3003
0000
0101
0000
0000
0000
0100
0000
0100
0000
0010
1000
0010
0000
,
0100
0001
0100
0000
0002
0000
0000
0000
0013
0000
0000
0000
2000
0000
0000
0000
,
3010
0000
0100
0000
0010
0000
0000
0000
1000
0000
0100
0010
0100
0000
1000
0000
,
0010
0000
0001
0000
0010
0100
0010
0100
0001
0100
0001
0100
0010
0000
0000
0000
,
1000
0000
0000
0000
0100
0010
0100
0010
0001
0010
0001
0010
0100
1000
0100
1000
,
0010
0100
0001
1000
0200
0000
0000
0000
1300
0000
0000
0000
0002
0000
0000
0000
,
0103
0010
1000
0100
1000
0001
0100
0010
,
1000
0100
0010
0001
0010
1000
0010
0001
,
0100
0001
1002
0000
0013
0000
0021
0001
,
0031
0000
0000
0000
1001
0000
0001
0000
0100
0000
0000
0000
0010
1000
0010
0100
,
0010
0000
1000
1000
1000
0010
1000
1000
,
0100
0000
0010
0010
0001
0010
2000
0000
,
3020
0000
0000
0000
0031
0000
0000
0000
0100
0000
0100
0000
0100
0010
0100
0000
,
0100
0100
0020
0000
2030
0000
3002
0000
,
0103
0000
0001
0000
2100
0000
0000
0000
3001
0000
0010
0100
1000
0000
0000
0000
,
0100
0010
0001
1000
0001
0000
0000
0000
0200
0000
0010
0000
0302
0000
0000
0000
,
1003
0000
0000
0000
1010
0000
0000
0000
0100
0000
0001
0000
0010
0000
0100
0010
,
0001
0001
2000
3010
0002
0013
0200
0000
,
0310
0000
0000
0000
1100
0000
0000
0000
0001
0000
0100
0000
0010
0000
0100
0001
,
0010
0000
0100
0000
1000
0000
0100
0010
0001
0000
0001
0010
0100
0000
0100
1000
,
0010
0000
2000
3100
0020
0031
0200
0310
,
2000
3001
2000
3200
0320
0032
2000
0000
,
3003
0000
0000
0000
0001
0000
0000
0100
0000
0000
0010
0000
1000
0000
0000
0000
,
0201
0000
0000
0000
0301
0000
0000
0010
0000
0000
0100
0000
1000
0000
0000
0000
,
2100
0000
0000
0000
3001
0000
0000
0100
0000
0000
0010
0000
1000
0000
0000
0000
,
0120
0000
0000
0000
1030
0000
0000
0010
0000
0000
0100
0000
0001
0000
0000
1000
,
0000
0000
0010
0000
1001
0000
0000
0011
0000
0000
0100
0000
0110
0000
0000
0000
,
1001
0000
0000
0000
0011
0000
0000
0110
0000
0000
1100
0000
1000
0010
1000
0010
,
1000
0000
0000
0000
1001
0000
0000
1010
0000
0000
0110
0000
0000
0000
0101
0000
,
0000
0000
0001
0000
0010
0100
0010
0100
0010
0001
1000
0000
0100
0010
0100
0010
,
0001
0000
1000
0001
0010
0001
1000
0010
,
0201
0000
0310
1000
0001
0010
0001
1000
,
0012
0000
0103
0001
0010
0100
0010
0001
,
1200
0000
0310
0100
1000
0010
0100
0001
,
1020
0000
0130
0001
0100
0001
1000
0010
,
1000
0010
1000
0100
1000
0100
0010
0001
,
0020
0000
0130
1000
0100
0001
0200
2300
,
3020
0000
0230
0000
0301
1000
0000
0100
0010
0000
0001
0010
0002
0000
0023
0000
,
0032
0000
1003
0000
0100
0000
0010
0000
0001
0000
0100
0001
0000
0010
0100
0000
,
1000
0000
0001
0100
0010
0000
1000
0000
0100
0000
0010
0000
0100
1000
0000
0100
,
1000
0000
0000
0000
0100
0000
0010
0000
0001
0000
0010
0000
0001
0000
0000
0001
,
0000
0010
0000
0000
1100
0000
0000
0000
0100
0000
0010
0000
0001
0000
0000
0000
,
1000
0100
0010
0000
0100
1000
0010
0100
,
0010
0010
1000
0100
0010
0100
0000
1000
,
0001
0100
0001
0000
0100
0000
0001
0000
,
0010
0000
0100
1000
0001
0100
0020
2030
,
3001
0000
1000
1000
0010
0100
0001
0001
,
1000
1000
0100
0010
0001
0010
0001
0001
,
0100
0000
0001
0000
0010
0000
0100
0000
0010
0000
0001
0000
0100
0010
0100
0000
,
0010
0000
1000
0001
1000
0000
1000
0000
0001
0000
0000
0000
1001
0000
0000
0000
,
0001
0100
0001
0010
0100
0000
1000
0100
0010
0000
0100
0000
1000
0000
0010
0000
,
0001
0000
0010
0000
1000
0000
0010
0000
0100
0001
0010
0001
1000
0000
0100
0000
,
0100
1000
0001
1000
0001
0000
1000
0000
0001
0000
1000
0000
0010
0100
0010
0100
,
0010
0100
0001
0000
1000
0000
1000
0000
1000
0000
0000
0000
0202
0000
0000
0000
,
0300
0000
0003
0000
1010
0000
1000
0010
1000
0000
0001
0010
0001
0000
1000
0010
,
0100
0000
0001
0000
1000
0000
0001
0100
0001
0000
1000
0100
1000
0000
0001
0100
,
0010
0100
0010
0000
1000
0000
1000
0100
0010
0000
0010
0000
0010
0001
0100
0010
,
1000
0001
0100
0000
0001
0000
0001
0000
0010
0000
0100
0000
0010
0000
0010
0000
,
0100
0000
0000
0000
0010
0000
0010
0001
0100
0000
0100
0010
1000
0000
0100
0000
,
0010
0000
0100
0000
1000
0000
0001
0000
0100
0000
0001
0010
0100
0000
0010
0000
,
0001
0100
0010
1000
0010
1000
0010
1000
,
0010
0000
1000
0000
0001
0010
0001
0010
0100
1000
0100
1000
0001
0100
0010
0100
,
0001
1000
0001
0000
2001
0000
0000
0000
0000
0000
0000
0000
0002
0003
0002
0003
,
0002
0003
0002
3003
0000
0000
0000
0000
0000
0000
0000
0000
0000
0000
0000
0000
;

//---------------dance-double - ----------------
#NOTES:
     dance-double:
     :
     Easy:
     8:
     0.319753,0.543170,0.189340,0.338107,0.000000,331.000000,303.000000,28.000000,50.000000,0.000000,0.000000,0.319753,0.543170,0.189340,0.338107,0.000000,331.000000,303.000000,28.000000,50.000000,0.000000,0.000000:
// measure 0
00000000
00000000
00000000
00000000
,  // measure 1
00000000
00000000
00000000
00000000
,  // measure 2
00000000
00000000
00000000
00000000
,  // measure 3
00000000
00000000
00000000
00000000
,  // measure 4
00000000
00000000
00000000
00000000
,  // measure 5
00000000
00000000
00000000
00000000
,  // measure 6
00000000
00000000
00000000
00000000
,  // measure 7
00000000
00000000
00000000
00000000
,  // measure 8
00000000
10010000
00000000
00000000
,  // measure 9
00000000
01010000
00000000
00000000
,  // measure 10
00000000
00110000
00000000
00000000
,  // measure 11
00000000
00011000
00000000
00000000
,  // measure 12
00000000
00010100
00000000
00000100
,  // measure 13
00000000
00001010
00000000
00000010
,  // measure 14
00000000
00000110
00000000
00000100
,  // measure 15
00000000
00000001
00000000
00000001
,  // measure 16
00000000
00001000
00000000
00000100
,  // measure 17
00000000
00010000
00000000
00001000
,  // measure 18
00000000
01000000
00000000
00100000
,  // measure 19
00000000
10000000
00000000
00010000
,  // measure 20
00000000
01100000
01100000
01000000
,  // measure 21
00010000
00100000
00001000
00010000
,  // measure 22
00000100
00002000
00000000
00000000
,  // measure 23
00003000
00000000
00000020
00000000
00000000
00000000
00000130
00000001
,  // measure 24
00000010
00000100
00001000
00000000
00000000
00000000
00011000
00000000
,  // measure 25
00011000
00011000
00011000
00021000
,  // measure 26
00000000
00032000
00000000
02003000
,  // measure 27
00000000
03200000
20300000
32000000
,  // measure 28
00000000
03200000
00000000
00302000
,  // measure 29
00000000
00023000
00030200
00002300
,  // measure 30
00000000
00003010
00000100
00000001
,  // measure 31
00001000
00000100
00000020
00000000
00000230
00000000
00002300
00000000
,  // measure 32
00003200
00010300
00000100
00010000
,  // measure 33
00000000
00001000
01000000
00100000
,  // measure 34
00000000
10000000
01000000
00010000
,  // measure 35
01000000
10000000
00010000
00100000
,  // measure 36
00001000
00000000
00010000
00000100
00010000
00000100
00010000
00000100
,  // measure 37
00001000
00000000
00000100
00000000
00001000
00000010
00000100
00000000
,  // measure 38
00000001
00000000
00000011
00000000
00000001
00000000
00000010
00000010
,  // measure 39
00000010
00000002
00000023
00000230
,  // measure 40
00002300
00000000
00003100
00000000
00010000
00001000
00010000
00000000
,  // measure 41
00001000
00010000
00001000
00000000
00010000
00001000
00010000
00000000
,  // measure 42
00001000
00000000
01010000
00000000
10000000
00100000
10000000
00000000
,  // measure 43
00100000
10000000
00100000
00100000
10000000
10000000
00100000
00000000
,  // measure 44
10000000
00000000
00010000
00000000
00100000
00001000
00100000
00000000
,  // measure 45
00100000
00001000
00100000
00000000
00100000
00001000
00100000
00000000
,  // measure 46
00001000
00010000
00000100
00001000
,  // measure 47
00000010
00000000
00000100
00000010
00001000
00000001
00001001
00000000
,  // measure 48
00000000
00000002
00000000
00000200
,  // measure 49
00000303
00000020
00000000
00002000
,  // measure 50
00003030
00000200
00000000
00020000
,  // measure 51
00030300
00002000
00000000
02000000
,  // measure 52
03003000
00100000
10000000
01000000
,  // measure 53
10000000
00000000
00010000
00000000
00100000
00000000
00001000
00010000
,  // measure 54
00001000
00010000
00000100
00001000
,  // measure 55
00000010
00000200
00000000
00000020
,  // measure 56
00000330
00000000
00000100
00000001
00000000
00000001
00000000
00000001
,  // measure 57
00002000
00000000
00003100
00001000
00000000
00001000
00000000
00001000
,  // measure 58
00000020
00000000
00010030
00001000
00000000
00001000
00000000
00001000
,  // measure 59
02000000
00000000
03100000
10000000
00000000
10000000
00000000
10000000
,  // measure 60
02000000
13000000
01000000
00100000
,  // measure 61
00010000
00100000
00001000
00010000
,  // measure 62
00000200
00001300
00000010
00000100
,  // measure 63
00000001
00000000
00001001
00000000
00000000
00000000
00000001
00000100
,  // measure 64
00000010
00001000
00000100
00000000
00010000
00000000
00001000
00000000
,  // measure 65
01000000
00100000
10000000
01000000
,  // measure 66
01000000
10000000
00010000
00100000
,  // measure 67
00001000
00010000
00000100
00001000
,  // measure 68
00000010
00000100
00000001
00000000
00000010
00000000
00001000
00000000
,  // measure 69
00000010
00000001
00000100
00000010
,  // measure 70
00001000
00000100
00010000
00000100
,  // measure 71
00001000
00000100
00010000
00001000
,  // measure 72
00010000
00000000
00001000
01000000
00100000
10000000
02000000
00000000
,  // measure 73
03200000
00310000
00100000
02000000
,  // measure 74
23000000
30020000
02030000
03010000
,  // measure 75
00000000
00000000
00010000
00100000
00010000
00000000
00100000
00000000
,  // measure 76
00001000
00010000
00000100
00002000
,  // measure 77
00003020
00000130
00000001
00000020
,  // measure 78
00000230
00000310
00000001
00000100
,  // measure 79
00000010
00000000
00001000
00000010
00001000
00000000
00000202
00000000
,  // measure 80
00000303
00000001
00001000
00000100
,  // measure 81
00010000
00001000
00010000
00000000
00001000
00000000
01000000
00000000
,  // measure 82
00100000
10000000
00100000
00000000
01000000
00000000
00010000
00000000
,  // measure 83
00100000
00001000
00100000
00000000
00001000
00000000
00010000
00010000
,  // measure 84
00010000
00000000
00000100
00000000
00001000
00001000
00001000
00000000
,  // measure 85
00000100
00000000
00001000
00000000
00000010
00000010
00000010
00000000
,  // measure 86
00000100
00000101
00000101
00001100
,  // measure 87
00001100
00001001
00000110
00001010
,  // measure 88
00001100
00000022
00000000
00000000
,  // measure 89
00000000
00000033
00000000
00000000
;

//---------------dance-double - ----------------
#NOTES:
     dance-double:
     :
     Medium:
     12:
     0.460792,0.573346,0.277248,0.236675,0.047335,477.000000,436.000000,41.000000,35.000000,0.000000,0.000000,0.460792,0.573346,0.277248,0.236675,0.047335,477.000000,436.000000,41.000000,35.000000,0.000000,0.000000:
// measure 0
00000000
00000000
00000000
00000000
,  // measure 1
00000000
00000000
00000000
00000000
,  // measure 2
00000000
00000000
00000000
00000000
,  // measure 3
00000000
00000000
00000000
00000000
,  // measure 4
00000000
00000000
00000000
00000000
,  // measure 5
00000000
00000000
00000000
00000000
,  // measure 6
00000000
00000000
00000000
00000000
,  // measure 7
00000000
00000000
00000000
00000000
,  // measure 8
00000000
00000000
10100000
00000000
01000000
00010000
00000000
00100000
,  // measure 9
00000000
00001000
00000000
00010000
00000100
00000000
00000000
00000000
,  // measure 10
00000000
00001000
00001100
00000000
00000000
00000000
00000000
00000000
,  // measure 11
00000000
00000101
00000000
00000000
,  // measure 12
00000000
00000001
00001001
00000000
00000000
00000000
00000010
00000000
,  // measure 13
00000000
00000000
00010000
00000000
00000000
00000000
00001000
01000000
,  // measure 14
00100000
10000000
11000000
00000000
00000000
00000000
10000000
00000000
,  // measure 15
00000000
00100000
00000000
01000000
,  // measure 16
00000000
00000000
00010000
00100000
00001000
00000000
00010000
00000100
,  // measure 17
00001000
00000000
00001000
00000100
00000010
00000000
00000010
00000100
,  // measure 18
00001000
00000001
00000100
00000000
00000000
00000000
00000010
00000100
,  // measure 19
00000001
00001000
00000100
00000000
00000000
00000100
00010000
00000000
,  // measure 20
00000000
00010000
00001000
00000000
00001000
00000000
01000000
00000000
,  // measure 21
01000000
00100000
01000000
00010000
,  // measure 22
00100000
00201000
00000000
00302000
,  // measure 23
00023000
00000000
00032000
00000000
00000000
00000000
00013000
00000100
,  // measure 24
00001000
00000010
00000110
00000000
00000000
00000000
00000101
00000000
,  // measure 25
00001010
00001100
00000011
00002002
,  // measure 26
00000000
00003003
00000101
00000000
00000001
00000100
00000010
00000000
,  // measure 27
00000100
00000010
00001000
00000000
00001000
00000000
00001100
00000000
,  // measure 28
00000010
00000100
00000001
00000000
00001000
00000100
00001000
00000000
,  // measure 29
00000010
00010000
00001000
00000000
00001000
00000000
00010000
00000000
,  // measure 30
00010000
00000000
00001000
01000000
00100000
10000000
01000000
00100000
,  // measure 31
00020000
00230000
01300000
20000000
,  // measure 32
30100000
00000000
01000000
00010000
00100000
00000000
01000000
10000000
,  // measure 33
00010000
00000000
00100000
00001000
00010000
00000000
00000100
00001000
,  // measure 34
00000010
00000000
00000100
00000001
00000010
00000000
00000100
00000010
,  // measure 35
00000001
00000000
00000010
00000100
00001000
00000000
00000100
00010000
,  // measure 36
00001000
00000000
00010000
00010000
00001000
00010000
00001000
00001000
,  // measure 37
00010000
00000000
00000100
00000100
00010000
00001000
00010000
00000000
,  // measure 38
00002000
00000000
01003000
00000000
00100000
00100000
00100000
00100000
,  // measure 39
01000000
00010000
00110000
00000000
00011000
00000000
00001010
00000000
,  // measure 40
00000010
00000100
00000201
00000000
00000310
00001000
00001010
00000000
,  // measure 41
00001000
00000010
00001010
00000000
00000010
00001000
00001010
00000000
,  // measure 42
00010100
00000000
00011000
00000000
00001000
01000000
01001000
00000000
,  // measure 43
01000000
00001000
01000000
01000000
00001000
00001000
00010000
00000000
,  // measure 44
00011000
00000000
01010000
00000000
01000000
00100000
01100000
00000000
,  // measure 45
00100000
01000000
01100000
00100000
10000000
00100000
00010000
00100000
,  // measure 46
10000000
01000000
00100000
00001000
,  // measure 47
00010000
00000000
00000100
00001000
00000010
00000100
00000001
00000000
,  // measure 48
00001010
00000000
00000000
00000000
00000100
00000000
00000000
00000100
00000000
00000000
00000100
00000000
00000020
00000000
00000000
00000000
,  // measure 49
00020030
00000000
00000000
00000000
00031000
00000000
00000000
00001000
00000000
00000000
00001000
00000000
02000000
00000000
00000000
00000000
,  // measure 50
03200000
00000000
00000000
00000000
10300000
00000000
00000000
10000000
00000000
00000000
10000000
00000000
02000000
00000000
00000000
00000000
,  // measure 51
03200000
00000000
00000000
00000000
00310000
00000000
00000000
00010000
00000000
00000000
00010000
00000000
00100000
00000000
00000000
00100000
,  // measure 52
00000000
00000000
00100000
00000000
00001000
00000000
00000000
00010000
00000000
00000000
00000100
00000000
00001000
00000000
00000000
00000000
,  // measure 53
00000011
00000000
00000000
00000000
00000010
00000000
00000000
00000100
00000000
00000000
00000010
00000000
00000001
00000000
00001000
00000000
,  // measure 54
00000010
00000000
00001000
00000000
00000001
00000000
00000000
00000001
00000000
00000000
00000001
00000000
00000000
00000000
00000100
00000000
,  // measure 55
00000000
00000010
00002000
00000000
00003200
00000000
00010300
00001000
,  // measure 56
00011000
00000000
00010000
00001000
01000000
00100000
10000000
01000000
,  // measure 57
00200000
00000000
01300000
10000000
00010000
00100000
00001000
00010000
,  // measure 58
00000200
00000000
00001300
00000010
00000100
00000001
00000010
00000100
,  // measure 59
00002000
00000000
00003100
00010000
00001000
01000000
00001000
00010000
,  // measure 60
00000200
00000000
00001300
00001000
00000001
00000100
00000010
00000010
,  // measure 61
00001000
00000100
00010000
00010000
00001000
01000000
00100000
00100000
,  // measure 62
20000000
00000000
31000000
00100000
00010000
00100000
00001000
00010000
,  // measure 63
00000100
00000000
00001000
00000000
00000010
00000100
00000000
00000100
00000010
00000000
00000100
00000000
00000001
00000000
00000010
00000000
,  // measure 64
00000100
00001000
00021000
00000000
00030010
00000000
00000100
00000001
,  // measure 65
00000011
00000000
00000000
00000000
00000210
00000000
00000000
00000000
00001300
00000000
00000100
00000000
00000000
00000100
00000000
00000000
,  // measure 66
00000100
00000000
00010000
00000000
00011000
00000000
00001000
01000000
,  // measure 67
01100000
00000000
10000000
00000000
11000000
01000000
00000000
00000000
,  // measure 68
01000000
00100000
00010000
00000000
00100000
00001000
00010000
00010000
,  // measure 69
00001000
00100000
00001000
00010000
00000100
00001000
00000000
00000100
,  // measure 70
00001000
00000010
00000100
00000000
00001000
00000000
00000100
00000000
,  // measure 71
00000001
00000000
00001000
00000100
00001000
00000100
00010000
00001000
,  // measure 72
00101000
00000000
00020000
00032000
00203000
00302000
00013000
00000100
,  // measure 73
00001000
00000010
00000000
00000000
00000000
00000000
00000010
00001000
,  // measure 74
00000100
00000010
00000001
00000000
00001000
00000000
00000100
00000100
,  // measure 75
00000000
00000100
00010000
00010000
00010000
00000000
00011000
00000000
,  // measure 76
00001000
01000000
00100000
00010000
00100000
10000000
00010000
00010000
,  // measure 77
10000000
01000000
00100000
00000000
00000000
00000000
01000000
10000000
,  // measure 78
00100000
01000000
00010000
00000000
00100000
00001000
00010000
00000000
,  // measure 79
00001000
00000000
00010000
00010000
00010000
00000000
00011000
00000000
,  // measure 80
00000000
00000100
00010000
00000100
,  // measure 81
00001000
00000010
00000100
00000000
00000001
00000010
00000000
00000100
,  // measure 82
00000010
00000000
00000001
00000000
00000100
00000010
00000000
00001000
,  // measure 83
00000100
00000000
00010000
00000000
00001000
00000000
01000000
00001000
,  // measure 84
01000000
00000000
00000000
00000000
01000000
00000000
00000000
00000000
00100000
00000000
01000000
00100000
01000000
00000000
00000000
00000000
,  // measure 85
00010000
00000000
00000000
00000000
00100000
00000000
00000000
00000000
00001000
00000000
00010000
00001000
00010000
00000000
00000000
00000000
,  // measure 86
00001000
00010000
00000100
00000010
,  // measure 87
00000001
00000000
00000000
00000000
00001000
00000000
00000010
00000000
00010000
00000000
00001000
00000000
01000000
00000000
00100000
10000000
,  // measure 88
00100000
01000000
02010000
00000000
00000000
00000000
03002000
00023000
,  // measure 89
00032000
00203000
00300000
00000000
00000000
00000000
00000000
00000000
;

//---------------dance-double - ----------------
#NOTES:
     dance-double:
     :
     Hard:
     15:
     0.600865,0.844930,0.297535,0.344870,0.307678,622.000000,578.000000,44.000000,51.000000,0.000000,0.000000,0.600865,0.844930,0.297535,0.344870,0.307678,622.000000,578.000000,44.000000,51.000000,0.000000,0.000000:
// measure 0
00000000
00000000
00000000
00000000
,  // measure 1
00000000
00000000
00000000
00000000
,  // measure 2
00000000
00000000
00000000
00000000
,  // measure 3
00000000
00000000
00000000
00000000
,  // measure 4
00000000
00000000
00000000
00000000
,  // measure 5
00000000
00000000
00000000
00000000
,  // measure 6
00000000
00000000
00000000
00000000
,  // measure 7
00000000
00000000
00000000
00000000
,  // measure 8
00000000
00000000
11000000
00000000
00010000
01000000
00000000
00010000
,  // measure 9
00000000
00100000
00000000
00001000
00010000
00000000
00000000
00000000
,  // measure 10
00000000
00010000
00010100
00000000
00000000
00000000
00000000
00000000
,  // measure 11
00000000
00000000
00000000
00000000
00001010
00000000
00000000
00000000
00000000
00000000
00000000
00000000
00000001
00000010
00000001
00000010
,  // measure 12
00000100
00001000
00000100
00010000
00001000
00000000
00000000
00000000
00000000
00000000
00000000
00000000
00100000
00000000
00000000
00000000
,  // measure 13
00000000
00000000
00001000
00000000
00000000
00000000
00010000
00000100
,  // measure 14
00001000
00000010
00000001
00000000
00000000
00000000
00000010
00000000
,  // measure 15
00000000
00001000
00000000
00000100
,  // measure 16
00000000
00000000
00010000
00001000
01000000
10000000
01000000
00010000
,  // measure 17
00100000
10000000
00100000
00001000
00010000
00000100
00001000
00000010
,  // measure 18
00000100
00000001
00000010
00000000
00000000
00000000
00000100
00000100
,  // measure 19
00000010
00000001
00001000
00000000
00000000
00000001
00000100
00000000
,  // measure 20
00000000
00000001
00000011
00000000
00000011
00000000
00000101
00000000
,  // measure 21
00000110
00000000
00001000
00000100
00010000
00001000
00100000
00001000
,  // measure 22
00010000
00000100
00021000
00000000
00000000
00000000
00030200
00000000
,  // measure 23
00020300
00000000
00000000
00000000
00032000
00000000
00000000
00000000
00000000
00000000
00000000
00000000
01003000
00100000
10000000
01000000
,  // measure 24
00100000
00010000
00100000
00001000
00010000
00000000
00000000
00000000
00000000
00000000
00000000
00000000
00110000
00000000
00000000
00000000
,  // measure 25
00001010
00110000
00001010
00022000
,  // measure 26
00000000
00000000
00033000
00000000
00110000
00000000
00000000
00000000
01000000
00000000
10000000
00000000
00100000
01000000
00010000
00000000
,  // measure 27
00100000
01000000
10000000
00000000
00020000
00000000
00000000
00000000
01000000
00000000
00000000
00000000
00130000
00000000
00000000
00000000
,  // measure 28
00010000
00000000
00100000
00000000
00002000
00000000
00000000
00000000
00013000
00000000
00001000
00010000
00000100
00000000
00001000
00000000
,  // measure 29
00000010
00000000
00000100
00000000
00000010
00001000
00000010
00000100
00000010
00000000
00001000
00000000
00000200
00000000
00000000
00000000
,  // measure 30
00000310
00000000
00000001
00000000
00001000
00000001
00001000
00000001
00000100
00000010
00000100
00000010
00001000
00000001
00000100
00000010
,  // measure 31
00001000
00000100
00001000
00000100
00001000
00000100
00002000
00000000
00000000
00000000
00000000
00000000
00003010
00000000
00000000
00000000
00000000
00000000
00000020
00000000
00000000
00000000
00000000
00000000
,  // measure 32
00010030
00001000
00010000
00000100
00001000
00000100
00010000
00001000
,  // measure 33
01000000
00001000
01000000
00100000
10000000
00100000
10000000
00010000
,  // measure 34
00100000
00010000
00100000
00001000
00010000
00001000
00010000
00000100
,  // measure 35
00001000
00000000
00000100
00000000
00001000
00000000
00000001
00000000
00000100
00000000
00000001
00000000
00000100
00000010
00000100
00000010
,  // measure 36
00001000
00000010
00000100
00000100
00000010
00010000
00001000
00001000
,  // measure 37
00001000
00000000
00010000
00000100
00010000
00001000
01000000
00000000
,  // measure 38
10100000
00000000
00000000
00000000
11000000
00000000
00000000
00000000
01000000
00000000
01000000
00000000
01000000
00100000
01000000
00000000
,  // measure 39
00100000
00000000
00100000
00000000
00010000
00000000
00001000
00000000
00000100
00000000
00000010
00000000
00001001
00000000
00001000
00000010
,  // measure 40
00000100
00000000
00001001
00000000
00000101
00000000
00000000
00000000
00001010
00000000
00000001
00000100
00000020
00000000
00000000
00000000
,  // measure 41
00000130
00000000
00000001
00001000
00000200
00000000
00000000
00000000
00010300
00000000
00001000
01000000
00200000
00000000
00000000
00000000
,  // measure 42
20300000
00000000
00000000
00000000
31000000
00000000
00000000
00000000
00110000
00000000
01000000
10000000
00200000
00000000
01300000
00000000
,  // measure 43
00020000
00000000
01030000
00100000
10000000
00000000
00010000
00000000
00100000
00000000
00001000
00000000
00021000
00000000
00000000
00000000
,  // measure 44
00030020
00000000
00000000
00000000
00000130
00000000
00000000
00000000
00000010
00000000
00000100
00000001
00000020
00000000
00000000
00000000
,  // measure 45
00000130
00000000
00000100
00001000
00000010
00000000
00000010
00001000
00000010
00000000
00000010
00010000
00000010
00000000
00000010
00001000
,  // measure 46
00000010
00000000
00000100
00000100
00000010
00000010
00010000
00010000
,  // measure 47
00000100
00000100
00011000
00001000
00011000
00010000
00022000
00000000
,  // measure 48
00033000
00000000
00000000
00000000
00001000
00000000
00000000
01000000
00000000
00000000
00100000
00000000
10000000
00000000
00000000
00000000
,  // measure 49
02010000
00000000
00000000
00000000
03010000
00000000
00000000
00100000
00000000
00000000
00001000
00000000
00010000
00000000
00000000
00000000
,  // measure 50
00020100
00000000
00000000
00000000
00030100
00000000
00000000
00001000
00000000
00000000
00000010
00000000
00000100
00000000
00000000
00000000
,  // measure 51
00000021
00000000
00000000
00000000
00000031
00000000
00000000
00000100
00000000
00000000
00000010
00000000
00001000
00000000
00000000
00000100
,  // measure 52
00000000
00000000
00010000
00000000
00011000
00000000
00000000
00110000
00000000
00000000
11000000
00000000
10100000
00000000
00000000
00000000
,  // measure 53
01100000
00000000
00000000
00000000
10100000
00000000
00000000
01010000
00000000
00000000
00110000
00000000
00100000
00001000
00100000
00001000
,  // measure 54
00100000
00010000
00100000
00001000
00010000
00000000
00000000
00010000
00000000
00000000
00010000
00000000
00000000
00000000
00010100
00000000
,  // measure 55
00000000
00000000
00010000
00000000
00000010
00000100
00000010
00000100
00000010
00000100
00000010
00000000
00001000
00000100
00000010
00000100
,  // measure 56
00000010
00000000
00000010
00000100
00001000
00000100
00010000
00001000
,  // measure 57
00020100
00000000
00031000
00100000
00010000
01000000
00100000
10000000
,  // measure 58
12000000
00000000
03100000
00001000
00010000
00000100
00001000
00000010
,  // measure 59
00000210
00000000
00000310
00010000
00001000
01000000
00100000
10000000
,  // measure 60
20010000
00000000
31000000
01000000
00100000
00100000
00001000
00001000
,  // measure 61
00010000
00010000
00000100
00000100
00000010
00000010
00000001
00000001
,  // measure 62
00000200
00000000
00000310
00010000
00001000
01000000
00010000
00100000
,  // measure 63
00001000
00000000
00010000
00000000
00000100
00010000
00000000
00010000
00001000
00000000
00100000
00000000
00001000
00000000
00010000
00000000
,  // measure 64
00000100
00000000
00001000
00000000
00000010
00000000
00000100
00000000
00000001
00000000
00000010
00000000
00000100
00001000
00000000
00001000
,  // measure 65
00000001
00000000
00000100
00000000
00000010
00000000
00001000
00000000
00000100
00000000
00010000
00000100
00000000
00010000
00000100
00000000
,  // measure 66
00001000
00000000
00000000
00000000
00000010
00000000
00000100
00000000
00000001
00000000
00000010
00000000
00000100
00000000
00001000
00000100
,  // measure 67
00000000
00000100
00010000
00000000
00001000
00000000
00100000
00000000
00001000
00000000
00010000
00000000
00000000
00000000
00000000
00000000
,  // measure 68
00000100
00001000
00000100
00000000
00010000
00000100
00010000
00001000
,  // measure 69
01000000
00100000
01000000
00100000
10000000
00010000
00000000
00100000
,  // measure 70
01000000
10000000
00010000
00000000
00100000
00000000
00001000
00000000
,  // measure 71
00010000
00000000
00000100
00001000
00000010
00000100
00000001
00000001
,  // measure 72
00001001
00000000
00000002
00000203
00002300
00023000
00031000
00010000
,  // measure 73
00010000
00000010
00010000
00000100
00010000
00001000
01000000
01000000
,  // measure 74
00100000
00000000
10000000
00000000
02000000
00000000
00000000
00000000
03200000
00000000
00000000
00000000
01300000
10000000
00010000
00000000
,  // measure 75
00000000
00000000
00100000
00010000
01000000
00000000
01000000
00000000
01000000
00000000
00000000
00000000
20010000
00000000
00000000
00000000
,  // measure 76
31000000
00100000
01000000
10000000
00010000
00000000
00100000
00001000
00000000
00010000
00000100
00000000
00001000
00000000
00000010
00000000
,  // measure 77
00000001
00000000
00000010
00000000
00001000
00000000
00000010
00000100
00000000
00000001
00000010
00000000
00000100
00000000
00000010
00000000
,  // measure 78
00000001
00001000
00000010
00000010
00000100
00000100
00000001
00000001
,  // measure 79
00001000
00001000
00000100
00010000
00002000
00000000
00020000
00000000
,  // measure 80
00003000
00000000
00030000
00000000
00000100
00000000
00010000
00001000
01000000
00000000
01000000
00001000
00010000
00000000
00010000
00000100
,  // measure 81
00001000
00000000
00000010
00000000
00000100
00000000
00000001
00000100
00000010
00000000
00000010
00000000
00000100
00000000
00000001
00000000
,  // measure 82
00001000
00000010
00000100
00000000
00000001
00000000
00000100
00000010
00001000
00000000
00000100
00000000
00001000
00000100
00010000
00000100
,  // measure 83
00010000
00001000
00010000
00001000
00010000
00000000
00001000
00000000
00001000
00000000
01000000
00000000
00001000
00000000
00001000
00000000
,  // measure 84
00002000
00000000
00000000
00000000
00103000
00000000
01000000
10000000
00100000
00000000
02000000
03020000
02030000
03000000
00100000
00000000
,  // measure 85
10000000
00000000
00010000
00100000
01000000
00000000
00100000
00001000
00010000
00000000
00000200
00002300
00003200
00000300
00001000
00000000
,  // measure 86
00000010
00000100
00000001
00000100
00000010
00001000
00000001
00000100
,  // measure 87
00000010
00000000
00001000
00000000
00000100
00000000
00010000
00000000
00001000
00000000
01000000
00000000
00100000
00000000
10000000
01000000
,  // measure 88
00100000
00000000
00010000
00000000
00021000
00000000
00000000
00000000
00000000
00000000
00000000
00000000
00002000
00003000
00002000
00003000
,  // measure 89
00002000
00003000
00002000
00000000
00033000
00000000
00000000
00000000
00000000
00000000
00000000
00000000
00000000
00000000
00000000
00000000
;
