#TITLE:Fly of Beelzebub;
#SUBTITLE:;
#ARTIST:DM DOKURO;
#TITLETRANSLIT:;
#SUBTITLETRANSLIT:;
#ARTISTTRANSLIT:;
#GENRE:;
#CREDIT:;
#BANNER:;
#BACKGROUND:;
#LYRICSPATH:;
#CDTITLE:;
#MUSIC:Fly of Beelzebub.ogg;
#OFFSET:0.000000;
#SAMPLESTART:14.666667;
#SAMPLELENGTH:15.000000;
#SELECTABLE:YES;
#DISPLAYBPM:90.000000:180.000000;
#BPMS:0.000000=180.000000
,169.500000=360.000000
,171.000000=90.000000
,194.000000=180.000000
;
#STOPS:169.500000=0.042000,
169.750000=0.042000,
170.000000=0.042000,
170.250000=0.042000,
170.500000=0.042000,
170.750000=0.042000,
256.500000=0.333000
;
#BGCHANGES:;
#KEYSOUNDS:;
#ATTACKS:;

//---------------dance-single - ----------------
#NOTES:
     dance-single:
     :
     Hard:
     17:
     0.786583,0.911284,0.399445,0.407278,0.575671,703.000000,652.000000,51.000000,52.000000,0.000000,0.000000,0.786583,0.911284,0.399445,0.407278,0.575671,703.000000,652.000000,51.000000,52.000000,0.000000,0.000000:
0000
0000
0000
0000
,
0000
0000
0000
0000
,
0000
0000
0000
0000
,
0000
0000
0000
0000
,
0000
0000
0000
0000
,
0000
0000
0000
0000
,
1001
0000
0000
2200
0000
0000
0000
0000
,
3300
0000
1001
0000
0000
0202
0000
0000
,
0000
0000
0303
0000
1001
0000
0000
2020
,
0000
0000
3030
1001
,
0000
0000
0022
0000
0000
0000
0000
0000
0033
0000
0000
0000
0001
1000
0001
1000
,
0100
0010
0001
0010
0001
1000
0000
0001
0100
0000
0010
0000
0001
0000
0010
0000
,
1000
0000
0001
0000
0100
0010
1000
0010
1000
0001
0000
1000
0100
0000
0010
0100
,
0001
0000
0100
0000
0010
0000
0001
0000
1000
0001
0010
0001
0010
0100
0000
1000
,
0001
0000
0100
0000
1000
0000
0100
0000
0010
0000
1000
0000
0001
0100
0010
0100
,
0010
1000
0000
0001
0010
0000
0100
0010
1000
0000
0010
0000
0001
0000
0100
0001
,
1000
0100
0010
0100
1000
0001
0000
1000
0010
0000
0100
0000
1000
0000
0100
0000
,
0001
0000
1000
0000
0100
0010
0001
0010
0100
1000
0000
0001
0100
0000
0010
0100
,
1000
0000
0100
0000
0001
0000
1000
0000
0010
1000
0001
1000
0100
0010
0000
0001
,
1000
0000
0010
0000
0001
0000
0010
0000
0100
0000
0001
0000
1000
0100
0010
0001
,
0010
0100
0000
1000
0001
0000
0100
0010
0001
0010
1000
0001
0010
0100
1000
0001
,
1000
0010
0001
0000
0000
0000
1000
0100
0001
0000
0000
0000
1000
0100
0001
0100
,
0010
0000
0110
0000
0100
1000
0001
0100
,
2000
0000
3200
0000
0302
0100
0000
1000
,
0000
0010
0013
0000
0001
0001
1000
0000
,
0010
1000
0001
0010
2000
0000
3020
0000
,
0032
0010
0000
1000
0000
0100
0103
0000
,
0010
0000
0010
1000
0002
0000
0000
0000
1003
0000
0100
0000
0001
0000
0100
0000
,
0020
0000
0032
0000
2003
0000
3001
0100
,
1000
0100
0020
0000
1030
1000
0002
0000
,
0013
0100
0001
0100
2000
0000
0001
0000
,
3020
1000
0000
0130
0001
1000
0100
0100
,
0010
0001
1000
0001
0100
0000
0010
1000
0010
1000
0001
0000
0010
0001
0010
0001
,
1000
0000
0001
0100
0010
0000
1000
0100
0010
0000
0001
2000
0001
0000
0010
0000
,
0000
0000
3001
0010
0100
0000
1000
0001
0100
0000
0010
0000
0010
0000
0100
0001
,
0100
0001
1000
0000
0100
1000
0100
1000
0001
0000
1000
0100
0010
0000
0001
0100
,
0010
0000
1000
0002
1000
0000
0010
0000
0000
0000
1003
0010
0100
0000
0001
1000
,
0100
0000
0010
0100
0020
0000
0000
0000
0031
0000
1000
0000
0010
0000
0100
0010
,
1000
0000
0100
0010
0001
0000
1000
0000
0020
0000
0000
0000
0130
0000
0001
0000
,
1000
0000
0100
0010
0001
0000
0100
0010
1000
0000
0001
0000
2001
0000
0000
0000
,
3100
0001
0100
1000
1002
0000
0103
1000
,
0100
0001
1001
0000
0110
0000
1001
0000
,
0011
0000
1001
0000
1010
0000
0010
0100
0001
1000
0100
0010
0002
0000
0000
0000
,
0000
0000
0103
0000
0010
0000
2000
0000
0000
0000
0000
0000
3001
0010
1000
0010
,
0002
0000
0000
0000
0000
1003
0010
0100
1000
0100
0002
0000
2003
0000
3200
0000
,
0310
0001
1000
0010
0200
0000
0000
0301
0000
0001
1000
0000
0001
1000
0200
0000
,
0000
0310
0000
0010
0001
0000
1000
0000
0020
0000
0000
0230
0000
0000
0301
0000
,
1000
0000
0200
0000
0000
0320
0000
0000
0031
0000
2000
0000
0002
0000
0000
0000
,
0000
0000
3003
0000
,
0000
0000
0000
0000
0000
0000
0000
0000
1001
0000
0000
0000
0001
0000
0000
1010
,
0000
0000
1001
0000
0000
0000
1000
0000
0000
0011
0000
0000
1001
0000
0000
0000
,
0001
0000
0000
1100
0000
0000
1001
0000
0000
0000
1000
0000
0000
0101
0000
0000
,
1001
0000
0000
0000
0001
0000
0000
1010
0000
0000
0101
0000
0000
0000
1000
0000
,
0000
0011
0000
0000
1100
0000
0000
0000
0001
0000
0000
1100
0000
0000
0011
0000
,
0000
0000
1000
0000
0001
0100
0010
1000
0002
0000
0000
0000
1003
0000
0001
0100
,
0010
1000
0001
0000
0100
0000
0001
0000
1000
0100
0010
0001
1000
0000
0100
0000
,
1000
0000
0001
0010
0100
1000
0001
0000
0010
0000
0001
0000
1000
0010
0100
0001
,
1000
0000
0001
0000
0010
0000
0100
0010
0001
1000
0010
0000
0100
0000
0001
0000
,
0100
0010
1000
0001
0010
0000
0001
0000
0010
0000
0100
1000
0001
0100
0010
0000
,
0100
0001
1000
0000
0000
0101
0000
0000
1100
0000
0100
0000
0010
0000
2000
0000
,
0010
0000
3001
0000
0100
0000
0010
0000
0100
1000
0001
1000
0010
0000
0100
0000
,
0010
0000
0002
0000
0010
0000
1003
0000
0100
0000
0010
0000
0100
0001
1000
0001
,
0010
0100
0010
2000
0010
3001
0100
0010
,
0100
1000
0001
1000
0010
0000
0100
0000
0010
0000
0002
0000
0010
0000
1003
0000
,
0100
0001
2001
0000
3100
0002
0100
1003
,
0010
0000
0001
0000
1000
0010
0100
0010
0001
0000
0010
0000
0100
0000
2000
0000
,
0100
0000
3001
0000
0010
0000
1000
0000
0001
0010
0100
0010
1000
0000
0010
0000
,
0001
0000
1000
0000
0010
0000
0110
0000
0100
0000
0001
0000
1000
0100
0010
0100
,
0001
0000
0100
0000
1000
0000
0001
0100
0000
0010
0001
0000
0010
0000
1000
0000
,
0001
0010
0100
1000
0020
0000
0000
0000
0000
0000
0000
0000
0000
0000
0000
0000
,
0000
0000
0000
0000
0130
0000
0001
1000
,
0000
0100
0001
0100
1000
0000
0001
0000
,
0100
0010
0000
0100
1000
0100
0001
0000
,
1000
0000
0100
0010
0000
0100
0001
0100
,
1000
0000
1001
0000
0001
1010
0000
1000
,
1100
0000
0101
0000
1001
0000
1000
0011
,
0000
0001
0101
0000
1100
0000
0110
0000
,
0010
1001
0000
1000
1100
0000
0011
0000
,
0110
0000
0100
1001
0000
0001
0101
0000
,
0100
0000
0100
0001
1000
0000
0100
0000
0001
0000
0100
0000
0010
0000
0001
0000
,
1000
0010
0100
0001
1000
0100
1000
0001
,
0100
0010
0001
0010
1000
0000
0001
0100
,
1000
0100
0010
1000
0001
0010
0100
1000
,
0001
0100
0001
1000
0100
0010
1000
0010
,
0001
0000
0000
0000
1000
0000
0010
1000
0010
1000
0001
0000
0010
0001
0010
0001
,
1000
0000
0001
0100
0010
0000
1000
0100
0010
0000
0001
0000
0010
0000
0100
0000
,
1000
0000
0010
0000
0001
0000
0010
0000
0100
0000
0000
0000
0001
0000
1000
0100
,
0010
0100
1000
0000
0001
0100
0010
0100
0001
0000
1000
0100
0010
0000
0001
0100
,
0010
0000
1000
0000
0010
0000
0100
0000
0001
0000
1000
0000
0100
0000
0010
0001
,
1000
0010
0100
2000
0000
0000
0000
0000
3000
0000
0000
0000
0000
0000
0000
0000
;

//---------------dance-double - ----------------
#NOTES:
     dance-double:
     :
     Hard:
     17:
     0.773156,0.911284,0.383781,0.422942,0.563923,691.000000,642.000000,49.000000,54.000000,0.000000,0.000000,0.773156,0.911284,0.383781,0.422942,0.563923,691.000000,642.000000,49.000000,54.000000,0.000000,0.000000:
00000000
00000000
00000000
00000000
,
00000000
00000000
00000000
00000000
,
00000000
00000000
00000000
00000000
,
00000000
00000000
00000000
00000000
,
00000000
00000000
00000000
00000000
,
00000000
00000000
00000000
00000000
,
00011000
00000000
00000000
02002000
00000000
00000000
00000000
00000000
,
03003000
00000000
00011000
00000000
00000000
00020200
00000000
00000000
,
00000000
00000000
00030300
00000000
00011000
00000000
00000000
00202000
,
00000000
00000000
00303000
00011000
,
00000000
00000000
00020020
00000000
00000000
00000000
00000000
00000000
00030030
00000000
00000000
00000000
00000010
00010000
00000010
00010000
,
00001000
00100000
00001000
00100000
00010000
10000000
00000000
00010000
01000000
00000000
00100000
00000000
00010000
00000000
00001000
00000000
,
00100000
00000000
00001000
00000000
00010000
00000010
00010000
00000010
00001000
00000001
00000000
00001000
00000010
00000000
00000100
00001000
,
00010000
00000000
00000010
00000000
00010000
00000000
00001000
00000000
00100000
00010000
00100000
00010000
10000000
00100000
00000000
01000000
,
00001000
00000000
00010000
00000000
00000100
00000000
00010000
00000000
00001000
00000000
00000010
00000000
00000001
00001000
00000001
00001000
,
00000010
00000100
00000000
00000010
00010000
00000000
00000010
00000100
00001000
00000000
00010000
00000000
01000000
00000000
00100000
00000000
,
00010000
10000000
00100000
01000000
00100000
10000000
00000000
00010000
00100000
00000000
00001000
00000000
00010000
00000000
00001000
00000000
,
00000100
00000000
00000010
00000000
00001000
00000010
00000100
00000010
00001000
00000001
00000000
00000010
00000100
00000000
00000010
00001000
,
00010000
00000000
00000100
00000000
00001000
00000000
00000100
00000000
00010000
00001000
00100000
00001000
00010000
00100000
00000000
10000000
,
00010000
00000000
01000000
00000000
00100000
00000000
10000000
00000000
00010000
00000000
00100000
00000000
00001000
00010000
00000100
00010000
,
00001000
00000100
00000000
00000001
00001000
00000000
00000100
00000010
00001000
00010000
00001000
00010000
01000000
00100000
00010000
00000000
,
10000000
00100000
00010000
00000000
00000000
00000000
00001000
00000100
00000001
00000000
00000000
00000000
00001000
00000100
00000001
00000100
,
00001000
00000000
00001001
00000000
00000001
00000100
00001000
00000100
,
00000020
00000000
00020030
00000000
00032000
00010000
00000000
01000000
,
00000000
00010000
00013000
00000000
01000000
10000000
10000000
00000000
,
00010000
01000000
10000000
01000000
00020000
00000000
02030000
00000000
,
03002000
00010000
00000000
00100000
00000000
00010000
00013000
00000000
,
00000100
00000000
00000100
00001000
00000002
00000000
00000000
00000000
00000103
00000000
00001000
00000000
00010000
00000000
00100000
00000000
,
02000000
00000000
03020000
00000000
20030000
00000000
31000000
00010000
,
00001000
00000010
00000200
00000000
00002300
00000000
00003002
00000000
,
00000103
00001000
00010000
00000010
00020000
00000000
00032000
00000000
,
00203000
00000000
00310000
10000000
00100000
00010000
00001000
00001000
,
00100000
00001000
00010000
00000010
00001000
00000000
00000001
00000100
00000001
00000100
00000010
00000000
00001000
00000010
00001000
00000010
,
00010000
00000000
00001000
00100000
00010000
00000000
00100000
00010000
10000000
00000000
00010000
00200000
01000000
00000000
00001000
00000000
,
00000000
00000000
00310000
10000000
00100000
00000000
01000000
00001000
00010000
00000000
00001000
00000000
00001000
00000000
00010000
00000100
,
00010000
00000100
00000010
00000000
00000001
00001000
00000001
00001000
00000010
00000000
00000100
00000010
00010000
00000000
00000010
00010000
,
00001000
00000000
00010000
00002000
00100000
00000000
00010000
00000000
00000000
00000000
01003000
00100000
10000000
00000000
00010000
00100000
,
01000000
00000000
00010000
00001000
00020000
00000000
00000000
00000000
00030010
00000000
00001000
00000000
00000001
00000000
00000010
00000100
,
00001000
00000000
00000010
00000100
00001000
00000000
00010000
00000000
00002000
00000000
00000000
00000000
00103000
00000000
00010000
00000000
,
10000000
00000000
00100000
01000000
00010000
00000000
00100000
01000000
00010000
00000000
00001000
00000000
00021000
00000000
00000000
00000000
,
00030010
00000001
00000010
00010000
00012000
00000000
00103000
10000000
,
00100000
00001000
00011000
00000000
00010010
00000000
00101000
00000000
,
00001000
00000000
00010000
00000000
00000100
00000000
00000010
00000001
00001000
00000010
00010000
00001000
00200000
00000000
00000000
00000000
,
00000000
00000000
00310000
00000000
10000000
00000000
00200000
00000000
00000000
00000000
00000000
00000000
00310000
00001000
00000100
00001000
,
00020000
00000000
00000000
00000000
00000000
00030100
00000010
00000001
00001000
00000010
00000200
00000000
00002300
00000000
00023000
00000000
,
00130000
10000000
00010000
00100000
02000000
00000000
00000000
03100000
00000000
00100000
00001000
00000000
00010000
00000010
00002000
00000000
,
00000000
00003001
00000000
00000001
00000100
00000000
00000010
00000000
00020000
00000000
00000000
00032000
00000000
00000000
00103000
00000000
,
01000000
00000000
00020000
00000000
00000000
00032000
00000000
00000000
00003010
00000000
00000002
00000000
00002000
00000000
00000000
00000000
,
00000000
00000000
00003003
00000000
,
00000000
00000000
00000000
00000000
00000000
00000000
00000000
00000000
00001001
00000000
00000000
00000000
00000001
00000000
00000000
00001010
,
00000000
00000000
00010010
00000000
00000000
00000000
00000010
00000000
00000000
00011000
00000000
00000000
00101000
00000000
00000000
00000000
,
00100000
00000000
00000000
10010000
00000000
00000000
01010000
00000000
00000000
00000000
00010000
00000000
00000000
01001000
00000000
00000000
,
00011000
00000000
00000000
00000000
00010000
00000000
00000000
00001100
00000000
00000000
00001001
00000000
00000000
00000000
00000001
00000000
,
00000000
00001100
00000000
00000000
00010100
00000000
00000000
00000000
00010000
00000000
00000000
01001000
00000000
00000000
01100000
00000000
,
00000000
00000000
00100000
00000000
10000000
00010000
00100000
00001000
00020000
00000000
00000000
00000000
00030010
00000000
00001000
00000001
,
00000100
00000010
00001000
00000000
00000001
00000000
00000010
00000000
00000100
00010000
00001000
00100000
00010000
00000000
10000000
00000000
,
00100000
00000000
01000000
00010000
10000000
01000000
00100000
00000000
00010000
00000000
10000000
00000000
00100000
01000000
00001000
00010000
,
00000100
00000000
00001000
00000000
00000001
00000000
00000100
00000010
00001000
00000001
00000010
00000000
00000100
00000000
00010000
00000000
,
00001000
01000000
00100000
10000000
00010000
00000000
10000000
00000000
01000000
00000000
00100000
00010000
10000000
00100000
01000000
00000000
,
00001000
00000000
00011000
00000000
00000000
00010100
00000000
00000000
00000210
00000000
00000000
00000000
00001300
00000000
00000001
00000000
,
00000100
00000000
00000010
00000000
00000100
00000000
00001000
00000000
00010000
00100000
01000000
00100000
02000000
00000000
00000000
00000000
,
03010000
00000000
10000000
00000000
01000000
00000000
00100000
00000000
01000000
00000000
00010000
00000000
00001000
00000010
00000100
00000010
,
00000200
00000000
00001300
00000001
00000010
00000100
00000010
00001000
,
00010000
01000000
00100000
01000000
00200000
00000000
00000000
00000000
00310000
00000000
10000000
00000000
00100000
00000000
01000000
00000000
,
00100000
00010000
00012000
00000000
00003010
00000001
00001000
00000010
,
00000100
00000000
00001000
00000000
00010000
00100000
01000000
00100000
20000000
00000000
00000000
00000000
30010000
00000000
10000000
00000000
,
01000000
00000000
00100000
00000000
01000000
00000000
00010000
00000000
00001000
00000010
00000100
00000010
00000002
00000000
00000000
00000000
,
00001003
00000000
00000010
00000000
00010000
00000000
00011000
00000000
00001000
00000000
00100000
00000000
00010000
00100000
01000000
00100000
,
10000000
00000000
00100000
00000000
00010000
00000000
10000000
00100000
00000000
00010000
00001000
00000000
00010000
00000000
00100000
00000000
,
01000000
00001000
00010000
00000100
00002000
00000000
00000000
00000000
00000000
00000000
00000000
00000000
00000000
00000000
00000000
00000000
,
00000000
00000000
00000000
00000000
00003001
00000000
00000010
00001000
,
00000000
00010000
00001000
00000010
00001000
00000000
00010000
00000000
,
00001000
00010000
00000000
00100000
00010000
00100000
10000000
00000000
,
00010000
00000000
00100000
01000000
00000000
00010000
01000000
00010000
,
00001000
00000000
00011000
00000000
00010000
00001010
00000000
00000010
,
00001001
00000000
00010100
00000000
00011000
00000000
00001000
00110000
,
00000000
00100000
10010000
00000000
01001000
00000000
00011000
00000000
,
00010000
00001100
00000000
00000100
00001001
00000000
00010010
00000000
,
00011000
00000000
00001000
01010000
00000000
01000000
10010000
00000000
,
00010000
00000000
00010000
10000000
01000000
00000000
00010000
00000000
00001000
00000000
00010000
00000000
01000000
00000000
00100000
00000000
,
00010000
10000000
00100000
01000000
00100000
00010000
00001000
00100000
,
00010000
00001000
00000100
00000010
00000001
00000000
00000100
00001000
,
00010000
00001000
00000100
00000010
00001000
00000001
00000010
00000100
,
00000010
00001000
00010000
00000010
00001000
00010000
01000000
00100000
,
10000000
00000000
00000000
00000000
00010000
00000000
00100000
00010000
00100000
00010000
10000000
00000000
00010000
01000000
00010000
01000000
,
00001000
00000000
00010000
00000010
00001000
00000000
00000010
00001000
00000001
00000000
00000010
00000000
00001000
00000000
00010000
00000000
,
00000010
00000000
00000100
00000000
00000001
00000000
00000100
00000000
00000010
00000000
00000000
00000000
00001000
00000000
00000010
00001000
,
00000010
00001000
00000001
00000000
00001000
00000010
00001000
00000010
00010000
00000000
00001000
00100000
00010000
00000000
00100000
00010000
,
10000000
00000000
00100000
00000000
00010000
00000000
00001000
00000000
00100000
00000000
01000000
00000000
10000000
00000000
00010000
01000000
,
00100000
00010000
00001000
00020000
00000000
00000000
00000000
00000000
00030000
00000000
00000000
00000000
00000000
00000000
00000000
00000000
;

//---------------dance-single - ----------------
#NOTES:
     dance-single:
     :
     Medium:
     15:
     0.624343,0.771086,0.360284,0.469936,0.262381,558.000000,512.000000,46.000000,60.000000,0.000000,0.000000,0.624343,0.771086,0.360284,0.469936,0.262381,558.000000,512.000000,46.000000,60.000000,0.000000,0.000000:
0000
0000
0000
0000
,
0000
0000
0000
0000
,
0000
0000
0000
0000
,
0000
0000
0000
0000
,
0000
0000
0000
0000
,
0000
0000
0000
0000
,
1001
0000
0000
2002
0000
0000
0000
0000
,
3003
0000
0110
0000
0000
0220
0000
0000
,
0000
0000
0330
0000
1001
0000
0000
2002
,
0000
0000
3003
0110
,
0000
0220
0000
0000
0330
0000
0001
1000
,
0100
0010
0010
0001
1000
0010
0100
0010
,
0001
0000
0010
0000
1000
0000
0001
0000
0001
0000
0010
0000
0100
0000
1000
0001
,
1000
0010
0001
0010
1000
0001
0001
0010
,
0100
1000
0001
0100
1000
0100
0001
0100
,
0100
0000
0010
0000
1000
0000
0001
1000
0001
0000
0010
0000
1000
0000
0010
0000
,
0001
0100
0100
0010
1000
0010
0100
0010
,
0001
0000
0010
0000
1000
0000
0001
0000
0001
0000
0010
0000
0100
0000
1000
0001
,
0100
0010
0001
0010
1000
0010
0010
0100
,
0001
1000
0100
0010
1000
0010
0001
0100
,
0100
0000
0010
0000
1000
0000
0001
0000
0010
0100
0010
0001
1000
0001
1000
0000
,
0001
0100
0010
0000
0000
0000
1000
0100
0010
0000
0000
0000
0001
1000
0001
1000
,
0010
0000
0110
0000
0100
1000
0100
0001
,
0200
0000
0320
0000
2030
0000
0000
3002
,
0000
0000
0013
0000
0100
0010
0001
0000
,
0010
1000
0010
0001
0020
0000
0230
0000
,
2300
0000
3001
0100
,
0010
0000
1000
0001
2000
0000
0000
0000
0000
0000
3100
0000
0010
0000
0001
0000
,
2000
0000
3020
0000
0230
0000
0000
0301
,
1000
0100
0020
0000
0032
0000
2003
0000
,
0000
3010
0100
1000
0200
0000
0302
0000
,
2003
0000
0000
3100
0010
0001
1000
1000
,
0001
1000
0001
1000
0002
0000
0000
0000
0103
0000
0010
0000
1000
0000
0001
1000
,
0001
0000
1000
0100
1000
0000
0001
0000
0200
0000
0000
0000
0000
0000
0320
0000
,
0000
0000
0000
0000
1030
0000
0001
1000
0001
0000
0010
0000
0010
0000
0000
0000
,
0100
0000
1000
0000
0001
0000
0100
0010
0100
0000
0001
1000
0001
0000
0010
0000
,
2000
0000
0000
0000
3010
0001
1000
0010
,
0100
0000
0001
1000
0200
0000
0000
0000
0310
0000
0001
0000
1000
0000
0010
0000
,
0002
0000
0023
0000
0230
0000
0310
1000
,
0001
0010
2000
0000
3010
0000
0110
0000
,
0100
1000
0001
0100
0110
0000
0010
1000
,
0001
0010
0110
0000
1001
0000
0110
0000
,
0001
0000
0100
0000
0010
0000
1000
0001
1000
0001
1000
0001
2000
0000
0000
0000
,
0000
3001
0100
0020
0000
0000
1030
0100
,
0020
0000
0000
0031
1000
0010
0100
1000
,
0100
0010
0100
0000
0002
0000
0000
0000
1003
0000
0100
0000
0010
0001
0020
0000
,
0000
0000
0000
0000
0031
0000
1000
0000
0020
0000
0000
0130
0000
0000
0001
0000
,
1000
0000
0200
0000
0000
0310
0000
0000
0001
0000
1000
0000
0020
0000
0000
0000
,
0000
0000
0030
0000
,
0000
0000
0000
0000
0000
0000
0000
0000
1001
0000
0000
0000
0001
0000
0000
0010
,
0000
0000
0110
0000
0000
0000
0100
0000
0000
1000
0000
0000
1001
0000
0000
0000
,
0001
0000
0000
0100
0000
0000
0110
0000
0000
0000
0010
0000
0000
1000
0000
0000
,
1001
0000
0000
0000
0001
0000
0000
0010
0000
0000
1100
0000
0000
0000
1000
0000
,
0000
0010
0000
0000
0101
0000
0000
0000
0001
0000
0000
0100
0000
0000
1010
0000
,
0000
0000
1000
0000
0001
1000
0001
1000
0002
0000
0000
0000
0103
0000
0000
0110
,
0000
0000
1010
0000
0000
0000
1000
0000
0000
1001
0000
0000
0011
0000
0000
0000
,
0001
0000
0000
1001
0000
0000
1100
0000
0000
0000
0100
0000
0000
0110
0000
0000
,
0011
0000
0000
0000
0001
0000
0000
1010
0000
0000
0110
0000
0000
0000
1000
0000
,
0000
0011
0000
0000
0110
0000
0000
0000
0001
0000
0000
0110
0000
0000
1001
0000
,
0000
0000
2000
0000
0000
3020
0000
0000
0230
0000
0000
0000
0301
0000
1000
0000
,
0010
0000
0001
0000
0010
0000
0100
0000
0001
1000
0001
1000
0002
0000
0000
0000
,
1003
0000
0100
0000
0010
0000
1000
0000
0010
0000
0001
0000
1000
0001
1000
0001
,
2000
0000
3001
0010
0100
0001
0100
1000
,
0001
1000
0001
1000
0002
0000
0000
0000
1003
0000
0010
0000
0100
0000
1000
0000
,
0100
0001
2001
0000
3100
0010
1000
0001
,
0100
0000
0010
0000
0001
1000
0001
1000
0020
0000
0000
0000
0130
0000
1000
0000
,
0001
0000
0010
0000
0100
0000
0001
0000
1000
0001
1000
0001
0020
0000
0000
0000
,
0130
0000
1000
0000
0001
0000
2001
0000
0000
0000
3010
0000
0100
0001
1000
0001
,
0020
0000
0000
0000
0130
0000
1000
0001
0000
0001
0100
0000
0010
0000
1000
0000
,
0001
0010
0100
0010
0002
0000
0000
0000
0000
0000
0000
0000
0000
0000
0000
0000
,
0000
0000
0003
0000
,
0000
0000
0000
1000
,
0001
0000
0010
0000
0100
0010
0001
1000
,
0010
0000
0100
0000
0001
0000
1000
0001
,
1000
0000
1001
0000
0000
0101
0000
0000
,
0001
0000
1000
0000
1100
0000
0000
1001
,
0000
0001
0100
0110
,
0000
1001
0000
0000
1000
0000
0100
0000
,
0110
0000
0000
1001
0000
0000
0001
0000
,
0100
0000
0010
0100
0010
0000
0100
0000
2000
0000
0000
0000
3200
0000
0000
0000
,
0301
1000
0100
0010
0100
1000
0001
0100
,
0001
0010
1000
0010
0100
0000
1000
0001
,
0200
0000
0320
0000
1030
0001
0010
0100
,
1000
0001
0100
0010
1000
0010
0001
0010
,
0100
0000
0010
1000
0001
0010
1000
0010
,
0001
1000
0010
0100
0001
1000
0100
0010
,
0001
0000
0010
0000
1000
0000
0010
0000
0100
0000
0000
0000
1000
0000
0001
1000
,
0001
0000
0100
0000
0010
0100
0010
0000
1000
0000
0001
0000
0010
0000
0100
0000
,
1000
0000
0001
0100
0001
0000
1000
0000
0100
1000
0100
0000
1000
0000
0001
1000
,
0001
1000
0010
0200
0000
0000
0000
0000
0300
0000
0000
0000
0000
0000
0000
0000
;

//---------------dance-double - ----------------
#NOTES:
     dance-double:
     :
     Medium:
     15:
     0.603084,0.771086,0.250632,0.454271,0.262381,539.000000,507.000000,32.000000,58.000000,0.000000,0.000000,0.603084,0.771086,0.250632,0.454271,0.262381,539.000000,507.000000,32.000000,58.000000,0.000000,0.000000:
00000000
00000000
00000000
00000000
,
00000000
00000000
00000000
00000000
,
00000000
00000000
00000000
00000000
,
00000000
00000000
00000000
00000000
,
00000000
00000000
00000000
00000000
,
00000000
00000000
00000000
00000000
,
00001001
00000000
00000000
00002002
00000000
00000000
00000000
00000000
,
00003003
00000000
00010010
00000000
00000000
00020020
00000000
00000000
,
00000000
00000000
00030030
00000000
00101000
00000000
00000000
00202000
,
00000000
00000000
00303000
10010000
,
00000000
20020000
00000000
00000000
30030000
00000000
10000000
00100000
,
01000000
00010000
00010000
00000000
10000000
01000000
00010000
00001000
,
00000010
00000000
00000001
00000000
00001000
00000000
00000010
00000000
00000010
00000000
00000000
00000000
00000100
00000000
00000001
00001000
,
00000001
00000100
00001000
00010000
00100000
01000000
01000000
00000000
,
00010000
10000000
00100000
00010000
00001000
00000100
00000001
00001000
,
00001000
00000000
00000000
00000000
00000100
00000000
00010000
00001000
00010000
00000000
00000100
00000000
00000010
00000000
00000001
00000000
,
00001001
00001000
00001000
00000010
00010000
00001000
00000100
00001000
,
00010000
00000000
00100000
00000000
10000000
00000000
00010000
00000000
00010000
00000000
00100000
00000000
00001000
00000000
00100000
00010000
,
00100000
01000000
10000000
00010000
01000000
00100000
00100000
10000000
,
00010000
00100000
01000000
00010000
00001000
00000010
00000001
00001000
,
00001000
00000000
00000010
00000000
00000100
00000000
00000001
00001000
00000001
00000000
00000100
00000000
00000010
00010000
00000010
00010000
,
00001000
00100000
00010000
00000000
00000000
00000000
00100000
00010000
10000000
00000000
00000000
00000000
00010000
10000000
00010000
10000000
,
00100000
00000000
01100000
00000000
01000000
10000000
01000000
00010000
,
02000000
00000000
03002000
00000000
00023000
00000000
00000000
00030200
,
00000000
00000000
00000310
00000000
00000001
00001000
00000010
00000000
,
00000100
00001000
00000100
00000001
00000200
00000000
00000320
00000000
,
00020030
00000000
00031000
00100000
,
00010000
00000000
10000000
00010000
20000000
00000000
00000000
00000000
00000000
00000000
30100000
00000000
00010000
00000000
00001000
00000000
,
00200000
00000000
00302000
00000000
00023000
00000000
00000000
00030100
,
00000010
00000100
00000002
00000000
00000203
00000000
00002300
00000000
,
00000000
00003001
00000100
00000010
00010000
00000000
00001000
00000000
,
00200000
00000000
00000000
00310000
10000000
00100000
01000000
01000000
,
00001000
00010000
00001000
00010000
00002000
00000000
00000000
00000000
00103000
00000000
00010000
00000000
10000000
00000000
00010000
01000000
,
00010000
00000000
10000000
00010000
10000000
00000000
01000000
00000000
00200000
00000000
00000000
00000000
00000000
00000000
00302000
00000000
,
00000000
00000000
00000000
00000000
00013000
00000000
00000010
00000100
00000010
00000000
00001000
00000000
00001000
00000000
00000000
00000000
,
00000001
00000000
00001000
00000000
00000100
00000000
00000010
00000001
00000010
00000000
00000001
00001000
00000001
00000000
00000100
00000000
,
00002000
00000000
00000000
00000000
00013000
00100000
10000000
00010000
,
00100000
00000000
01000000
10000000
00020000
00000000
00000000
00000000
01030000
00000000
00100000
00000000
00010000
00000000
00001000
00000000
,
00000200
00000000
00000302
00000000
00002003
00000000
00003100
00000010
,
00001000
00010000
02000000
00000000
03100000
00000000
01100000
00000000
,
01000000
10000000
00010000
01000000
01001000
00000000
00001000
00010000
,
00000100
00000010
00000011
00000000
00001001
00000000
00001010
00000000
,
00000010
00000000
00000100
00000000
00001000
00000000
00010000
00001000
00010000
00001000
00010000
00001000
00020000
00000000
00000000
00000000
,
00000000
00130000
10000000
00020000
00000000
00000000
00130000
01000000
,
00020000
00000000
00000000
00031000
00000010
00000001
00001000
00000010
,
00010000
00000010
00010000
00000000
00002000
00000000
00000000
00000000
00000000
00000000
01003000
00000000
00010000
10000000
00020000
00000000
,
00000000
00000000
00000000
00000000
00230000
00000000
00000000
00000000
02300000
00000000
00000000
03010000
00000000
00000000
00001000
00000000
,
00000010
00000000
00000002
00000000
00000000
00001003
00000000
00000000
00000010
00000000
00010000
00000000
00002000
00000000
00000000
00000000
,
00000000
00000000
00003000
00000000
,
00000000
00000000
00000000
00000000
00000000
00000000
00000000
00000000
00011000
00000000
00000000
00000000
00010000
00000000
00000000
00100000
,
00000000
00000000
10000000
00000000
00000000
00000000
01000000
00000000
00000000
00010000
00000000
00000000
00001000
00000000
00000000
00000000
,
00000010
00000000
00000000
00000001
00000000
00000000
00001000
00000000
00000000
00000000
00000010
00000000
00000000
00000100
00000000
00000000
,
00010000
00000000
00000000
00000000
01000000
00000000
00000000
00001000
00000000
00000000
00010000
00000000
00000000
00000000
01000000
00000000
,
00000000
10000000
00000000
00000000
00010000
00000000
00000000
00000000
01000000
00000000
00000000
00001000
00000000
00000000
00000100
00000000
,
00000000
00000000
00000001
00000000
00001000
00000001
00001000
00000001
00002000
00000000
00000000
00000000
00003010
00000000
00000000
00010000
,
00000000
00000000
00011000
00000000
00000000
00000000
00001000
00000000
00000000
00100000
00000000
00000000
01100000
00000000
00000000
00000000
,
01000000
00000000
00000000
10000000
00000000
00000000
10010000
00000000
00000000
00000000
00010000
00000000
00000000
01000000
00000000
00000000
,
01001000
00000000
00000000
00000000
00001000
00000000
00000000
00010000
00000000
00000000
00010100
00000000
00000000
00000000
00000100
00000000
,
00000000
00000010
00000000
00000000
00000011
00000000
00000000
00000000
00000001
00000000
00000000
00001000
00000000
00000000
00001010
00000000
,
00000000
00000000
00000020
00000000
00000000
00020030
00000000
00000000
00032000
00000000
00000000
00000000
00013000
00000000
00100000
00000000
,
10000000
00000000
00010000
00000000
00100000
00000000
01000000
00000000
10000000
00010000
10000000
00010000
20000000
00000000
00000000
00000000
,
30100000
00000000
00010000
00000000
00001000
00000000
00100000
00000000
01000000
00000000
00010000
00000000
00001000
00010000
00001000
00010000
,
00002000
00000000
00003010
00000001
00000010
00001000
00000010
00000001
,
00001000
00000010
00001000
00000010
00002000
00000000
00000000
00000000
00003001
00000000
00000100
00000000
00001000
00000000
00010000
00000000
,
00100000
10000000
10020000
00000000
00130000
01000000
00010000
00001000
,
00000010
00000000
00000100
00000000
00001000
00000001
00001000
00000001
00000200
00000000
00000000
00000000
00000310
00000000
00000100
00000000
,
00001000
00000000
00010000
00000000
00100000
00000000
01000000
00000000
00010000
10000000
00010000
10000000
02000000
00000000
00000000
00000000
,
03100000
00000000
00010000
00000000
00100000
00000000
10000000
00000000
00100000
00000000
00010000
00000000
10000000
00100000
01000000
00010000
,
10000000
00000000
00010000
00000000
00100000
00000000
00001000
00100000
00000000
00010000
00200000
00000000
00000000
00000000
01300000
00000000
,
00100000
00001000
00010000
00001000
00020000
00000000
00000000
00000000
00000000
00000000
00000000
00000000
00000000
00000000
00000000
00000000
,
00000000
00000000
00030000
00000000
,
00000000
00000000
00000000
00001000
,
00000100
00000000
00000001
00000000
00001000
00000001
00000010
00000100
,
00000010
00000000
00000001
00000000
00001000
00000000
00000010
00000100
,
00000010
00000000
00001010
00000000
00000000
00010010
00000000
00000000
,
00010000
00000000
00001000
00000000
00101000
00000000
00000000
10010000
,
00000000
10000000
00100000
01100000
,
00000000
01001000
00000000
00000000
00001000
00000000
00010000
00000000
,
00010100
00000000
00000000
00001001
00000000
00000000
00001000
00000000
,
00000001
00000000
00000100
00000010
00000100
00000000
00000001
00000000
00002000
00000000
00000000
00000000
00003200
00000000
00000000
00000000
,
00000310
00001000
00010000
00000010
00010000
00001000
01000000
00100000
,
10000000
00100000
00010000
00100000
01000000
00000000
00010000
10000000
,
02000000
00000000
03020000
00000000
00031000
01000000
00100000
00010000
,
00001000
00000100
00000010
00001000
00000001
00000010
00001000
00000010
,
00000100
00000000
00010000
00001000
00000100
00001000
00010000
00000010
,
00001000
00000001
00000010
00000100
00001000
00000010
00000100
00001000
,
00010000
00000000
00100000
00000000
10000000
00000000
00100000
00000000
01000000
00000000
00000000
00000000
00010000
00000000
10000000
00010000
,
10000000
00000000
01000000
00000000
00100000
00010000
00100000
00000000
00001000
00000000
00010000
00000000
00000010
00000000
00000100
00000000
,
00000001
00000000
00001000
00000001
00001000
00000000
00000100
00000000
00000010
00000100
00000010
00000000
00001000
00000000
00010000
00001000
,
00010000
00001000
00010000
00000020
00000000
00000000
00000000
00000000
00000030
00000000
00000000
00000000
00000000
00000000
00000000
00000000
;

//---------------dance-single - ----------------
#NOTES:
     dance-single:
     :
     Easy:
     12:
     0.458747,0.595840,0.078323,0.242800,0.066574,410.000000,400.000000,10.000000,31.000000,0.000000,0.000000,0.458747,0.595840,0.078323,0.242800,0.066574,410.000000,400.000000,10.000000,31.000000,0.000000,0.000000:
0000
0000
0000
0000
,
0000
0000
0000
0000
,
0000
0000
0000
0000
,
0000
0000
0000
0000
,
0000
0000
0000
0000
,
0000
0000
0000
0000
,
2000
0000
0000
3020
0000
0000
0000
0000
,
0030
0000
0200
0000
0000
0302
0000
0000
,
0000
0000
0003
0000
0020
0000
0000
0230
,
0000
0000
0300
2000
,
0000
3002
0000
0000
0003
0000
0000
0000
,
0100
0010
1000
0000
0001
0010
0100
0010
,
0001
1000
0001
0100
0010
0000
1000
0010
,
0001
0010
0100
0001
1000
0001
0010
0000
,
0100
0010
0001
1000
0010
0100
0010
1000
,
0001
0000
0100
0010
0001
0010
1000
0001
,
0010
0100
1000
0000
0100
0010
1000
0010
,
0001
1000
0010
0100
0001
0000
0100
0010
,
0001
0010
0100
0001
1000
0100
0010
0000
,
0100
0010
1000
0010
0001
1000
0010
0100
,
0001
0000
0100
0010
0001
0010
1000
0001
,
0020
0000
0000
0230
0000
0000
1300
0000
,
1001
1001
0001
0100
,
0010
0000
0001
0000
0002
0000
0000
0023
,
0000
1030
0001
0001
,
1000
0100
0001
1000
,
0020
0000
0000
0031
,
1000
0020
0000
0130
,
0001
1000
0200
0000
,
0310
0001
1000
0020
,
0000
0130
1000
0100
,
0002
0000
1003
0100
,
0010
0001
1000
0000
0001
0100
0010
1000
,
0001
0000
0010
0000
0200
0000
0000
2300
,
0000
0000
3001
0000
0100
0010
1000
0000
,
0001
0010
0100
1000
0001
0000
0100
0000
,
2000
0000
0000
3100
,
0001
1000
0200
0000
0000
0000
0310
0000
,
0001
1000
0020
0000
,
0130
0001
1000
1001
,
0000
0001
1001
0000
,
1000
1001
0001
0100
,
0010
1000
0001
2000
0000
0000
3001
0000
,
0000
0010
0001
0010
0000
0000
0001
1000
,
0001
0000
0000
1000
0000
0010
0100
0010
,
1000
0001
0020
0000
0000
0130
1000
0002
,
0000
0000
0000
0000
0103
0000
0000
0000
0010
0000
0000
0010
0000
0000
1000
0000
,
0001
0000
0010
0000
0000
0010
0000
0000
0100
0000
1000
0000
0002
0000
0000
0000
,
0000
0000
0003
0000
,
0000
0000
0000
0000
0000
0000
0000
0000
1001
0000
0000
0000
0001
0000
0000
0001
,
0000
0000
0001
0000
0000
0000
1000
0000
0000
1000
0000
0000
1000
0000
0000
0000
,
0010
0000
0000
0010
0000
0000
0010
0000
0000
0000
0100
0000
0000
0100
0000
0000
,
0100
0000
0000
0000
0001
0000
0000
0001
0000
0000
0001
0000
0000
0000
1000
0000
,
0000
1000
0000
0000
1000
0000
0000
0000
0100
0000
0000
0100
0000
0000
0100
0000
,
0000
0000
0010
0000
0001
0000
0000
0000
2000
0000
0000
0000
3001
0000
0000
0001
,
0000
0000
1000
0000
0000
0000
1000
0000
0000
1000
0000
0000
0010
0000
0000
0000
,
0010
0000
0000
0010
0000
0000
0100
0000
0000
0000
0100
0000
0000
0100
0000
0000
,
0001
0000
0000
0000
0001
0000
0000
0001
0000
0000
1000
0000
0000
0000
1000
0000
,
0000
1000
0000
0000
0100
0000
0000
0000
0100
0000
0000
0100
0000
0000
0010
0000
,
0000
0000
0001
0000
0000
1000
0000
0000
0002
0000
0000
0000
0103
0000
0010
0000
,
0100
1000
0100
0001
0000
1000
0100
0000
,
0010
0100
0010
1000
0010
0001
0000
1000
,
0010
0000
0100
0010
0100
1000
0100
0001
,
0000
1000
0100
0000
0010
0001
0010
1000
,
0010
0001
2000
0000
3010
0100
0010
0001
,
0010
1000
0001
0010
0100
0000
1000
0001
,
0010
1000
0010
0100
1000
0001
0100
0000
,
0010
0100
0010
0001
0010
1000
0001
0010
,
1000
0000
0010
0100
0010
1000
0010
0001
,
1000
0010
0200
0000
0000
0000
0000
0000
,
0000
0000
0300
0000
,
0000
0000
0000
0001
,
1000
0001
0100
0010
,
1000
1000
0001
0010
,
0100
0000
1000
0000
0000
1001
0000
0000
,
0001
0000
0100
0000
0010
0000
0000
0110
,
0000
0100
0001
1000
,
0000
1001
0000
0000
0001
0000
1000
0000
,
0100
0000
0000
0110
0000
0000
0010
0000
,
0001
1000
0010
0000
0100
0000
0001
0000
,
1000
0001
0010
0100
0001
0100
0001
0100
,
1000
0001
0100
0010
1000
0000
0001
0000
,
1000
0000
0100
0000
0010
0001
1000
0010
,
0001
0010
0001
0010
1000
0001
0010
0100
,
1000
0000
0001
0100
0010
0000
1000
0010
,
0100
0001
1000
0100
0001
0100
0001
0100
,
1000
0001
0100
0010
1000
0001
1000
0100
,
0010
0000
0001
1000
0010
0100
0001
1000
,
0100
0001
0100
0001
0100
1000
0001
0100
,
0010
0002
0000
0000
0003
0000
0000
0000
;

//---------------dance-double - ----------------
#NOTES:
     dance-double:
     :
     Easy:
     12:
     0.463222,0.595840,0.101819,0.234968,0.066574,414.000000,401.000000,13.000000,30.000000,0.000000,0.000000,0.463222,0.595840,0.101819,0.234968,0.066574,414.000000,401.000000,13.000000,30.000000,0.000000,0.000000:
// measure 0
00000000
00000000
00000000
00000000
,  // measure 1
00000000
00000000
00000000
00000000
,  // measure 2
00000000
00000000
00000000
00000000
,  // measure 3
00000000
00000000
00000000
00000000
,  // measure 4
00000000
00000000
00000000
00000000
,  // measure 5
00000000
00000000
00000000
00000000
,  // measure 6
00000002
00000000
00000000
00000203
00000000
00000000
00000000
00000000
,  // measure 7
00000300
00000000
00000020
00000000
00000000
00020030
00000000
00000000
,  // measure 8
00000000
00000000
00030000
00000000
00002000
00000000
00000000
00203000
,  // measure 9
00000000
00000000
00300000
00020000
,  // measure 10
00000000
20030000
00000000
00000000
30000000
00000000
00000000
00000000
,  // measure 11
00010000
10000000
01000000
00000000
00100000
00010000
00100000
00001000
,  // measure 12
00010000
00000010
00001000
00000010
00000100
00000000
00000001
00000100
,  // measure 13
00001000
00000100
00000010
00001000
00000010
00010000
00001000
00000000
,  // measure 14
00010000
00001000
00100000
00010000
10000000
00100000
01000000
00100000
,  // measure 15
10000000
00000000
00010000
01000000
10000000
01000000
00100000
10000000
,  // measure 16
00010000
00100000
00001000
00100000
00010000
01000000
00001000
00010000
,  // measure 17
00000010
00001000
00000001
00000010
00000100
00000000
00000010
00000100
,  // measure 18
00000001
00000100
00001000
00000001
00000100
00000010
00010000
00001000
,  // measure 19
00010000
00000010
00010000
00001000
00100000
00010000
00100000
01000000
,  // measure 20
00100000
00000000
00010000
00100000
10000000
00100000
01000000
10000000
,  // measure 21
00020000
00000000
00000000
02030000
00000000
00000000
03001000
00000000
,  // measure 22
00011000
00011000
00010000
00000100
,  // measure 23
00000010
00000000
00000001
00000000
00002000
00000000
00000000
00003020
,  // measure 24
00000000
00000130
00001000
00010000
,  // measure 25
00001000
00100000
00010000
00100000
,  // measure 26
02000000
00000000
00000000
13000000
,  // measure 27
00010000
02000000
00000000
03100000
,  // measure 28
00010000
00001000
00200000
00000000
,  // measure 29
00301000
00010000
00000100
00000020
,  // measure 30
00000000
00000130
00000001
00000100
,  // measure 31
00002000
00000000
00003001
00000100
,  // measure 32
00000010
00010000
00001000
00000000
00010000
00001000
00100000
00010000
,  // measure 33
10000000
00000000
00100000
00000000
00020000
00000000
00000000
00230000
,  // measure 34
00000000
00000000
10300000
00000000
00010000
10000000
01000000
00000000
,  // measure 35
00100000
00001000
00010000
00000010
00001000
00000000
00000001
00000000
,  // measure 36
00000020
00000000
00000000
00001030
,  // measure 37
00010000
00000010
00002000
00000000
00000000
00000000
00003010
00010000
,  // measure 38
00001000
00100000
00020000
00000000
,  // measure 39
10030000
00100000
01000000
00000000
00010000
00000000
10010000
00000000
,  // measure 40
00000000
10000000
10010000
00000000
,  // measure 41
00010000
10010000
10000000
01000000
,  // measure 42
00010000
00001000
00100000
00002000
00000000
00000000
00013000
00000000
,  // measure 43
00000000
00000010
00000100
00000010
00000000
00000000
00001000
00000001
,  // measure 44
00001000
00000000
00000000
00000010
00000000
00010000
00000010
00010000
,  // measure 45
00001000
00100000
00020000
00000000
00000000
10030000
00100000
02000000
,  // measure 46
00000000
00000000
00000000
00000000
03001000
00000000
00000000
00000000
00010000
00000000
00000000
00010000
00000000
00000000
00000100
00000000
,  // measure 47
00000010
00000000
00000001
00000000
00000000
00000001
00000000
00000000
00001000
00000000
00000010
00000000
00020000
00000000
00000000
00000000
,  // measure 48
00000000
00000000
00030000
00000000
,  // measure 49
00000000
00000000
00000000
00000000
00000000
00000000
00000000
00000000
00011000
00000000
00000000
00000000
00001000
00000000
00000000
00001000
,  // measure 50
00000000
00000000
00001000
00000000
00000000
00000000
00100000
00000000
00000000
00100000
00000000
00000000
00100000
00000000
00000000
00000000
,  // measure 51
00010000
00000000
00000000
00010000
00000000
00000000
00010000
00000000
00000000
00000000
10000000
00000000
00000000
10000000
00000000
00000000
,  // measure 52
10000000
00000000
00000000
00000000
00100000
00000000
00000000
00100000
00000000
00000000
00100000
00000000
00000000
00000000
01000000
00000000
,  // measure 53
00000000
01000000
00000000
00000000
01000000
00000000
00000000
00000000
00001000
00000000
00000000
00001000
00000000
00000000
00001000
00000000
,  // measure 54
00000000
00000000
00010000
00000000
00000100
00000000
00000000
00000000
00000020
00000000
00000000
00000000
00000031
00000000
00000000
00000001
,  // measure 55
00000000
00000000
00001000
00000000
00000000
00000000
00001000
00000000
00000000
00001000
00000000
00000000
00000010
00000000
00000000
00000000
,  // measure 56
00000010
00000000
00000000
00000010
00000000
00000000
00010000
00000000
00000000
00000000
00010000
00000000
00000000
00010000
00000000
00000000
,  // measure 57
00001000
00000000
00000000
00000000
00001000
00000000
00000000
00001000
00000000
00000000
00100000
00000000
00000000
00000000
00100000
00000000
,  // measure 58
00000000
00100000
00000000
00000000
01000000
00000000
00000000
00000000
01000000
00000000
00000000
01000000
00000000
00000000
10000000
00000000
,  // measure 59
00000000
00000000
10000000
00000000
00000000
10010000
00000000
00000000
10020000
00000000
00000000
00000000
00000000
00000000
00130000
00000000
,  // measure 60
00001000
00010000
00000010
00001000
00000000
00000001
00000010
00000000
,  // measure 61
00000100
00001000
00000001
00000100
00000010
00010000
00000000
00001000
,  // measure 62
00100000
00000000
00010000
10000000
00100000
01000000
00010000
10000000
,  // measure 63
00000000
00010000
00100000
00000000
00001000
00010000
00000010
00000100
,  // measure 64
00000010
00001000
00001001
00000000
00000001
00000100
00000010
00000001
,  // measure 65
00000010
00000100
00000010
00010000
00001000
00000000
01000000
00010000
,  // measure 66
01000000
10000000
01000000
00010000
10000000
01000000
00100000
00000000
,  // measure 67
00001000
00010000
00001000
00000100
00000000
00000001
00001000
00000100
,  // measure 68
00000001
00000000
00000100
00010000
00001000
00000100
00001000
00010000
,  // measure 69
00100000
10000000
00020000
00000000
00000000
00000000
00000000
00000000
,  // measure 70
00000000
00000000
00030000
00000000
,  // measure 71
00000000
00000000
00000000
10000000
,  // measure 72
00010000
00100000
00001000
00010000
,  // measure 73
00000010
00000010
00000100
00000001
,  // measure 74
00001000
00000000
00000001
00000000
00000000
00001001
00000000
00000000
,  // measure 75
00001000
00000000
00000010
00000000
00010000
00000000
00000000
00011000
,  // measure 76
00000000
00001000
00100000
00010000
,  // measure 77
00000000
10010000
00000000
00000000
10000000
00000000
00100000
00000000
,  // measure 78
00010000
00000000
00000000
00011000
00000000
00000000
00001000
00000000
,  // measure 79
00000100
00000001
00001000
00000000
00000001
00000000
00000010
00000000
,  // measure 80
00000100
00010000
00001000
00000000
00100000
00010000
10000000
00100000
,  // measure 81
01000000
00100000
00010000
00100000
10000000
00000000
00010000
00000000
,  // measure 82
00100000
00000000
00001000
00000000
00010000
00000010
00001000
00000000
,  // measure 83
00000010
00001000
00000001
00000010
00000100
00000010
00001000
00000010
,  // measure 84
00000001
00000000
00001000
00000010
00000001
00000010
00001000
00000001
,  // measure 85
00000010
00000100
00010000
00001000
00000100
00001000
00000100
00001000
,  // measure 86
00010000
00100000
01000000
00010000
10000000
00000000
00010000
00100000
,  // measure 87
10000000
00100000
00010000
10000000
00100000
01000000
00001000
00010000
,  // measure 88
01000000
00010000
01000000
00010000
00001000
00000010
00000100
00001000
,  // measure 89
00000001
00000200
00000000
00000000
00000300
00000000
00000000
00000000
;

//---------------dance-single - ----------------
#NOTES:
     dance-single:
     :
     Beginner:
     9:
     0.314409,0.385543,0.031329,0.117484,0.000000,281.000000,277.000000,4.000000,15.000000,0.000000,0.000000,0.314409,0.385543,0.031329,0.117484,0.000000,281.000000,277.000000,4.000000,15.000000,0.000000,0.000000:
0000
0000
0000
0000
,
0000
0000
0000
0000
,
0000
0000
0000
0000
,
0000
0000
0000
0000
,
0000
0000
0000
0000
,
0000
0000
0000
0000
,
2000
0000
0000
3000
,
0000
0002
0000
0000
,
0003
0000
2000
0000
,
0000
3000
0000
0002
,
0000
0000
0003
0000
,
1000
0010
0100
0001
,
0001
0000
1000
0000
0100
0000
0010
0100
,
0010
0001
1000
0001
,
0100
0010
0010
0100
,
0001
0000
1000
0001
1000
0000
0001
0000
,
0010
0100
1000
0100
,
0100
0000
0010
0000
0001
0000
1000
0001
,
1000
0001
0100
0010
,
1000
0010
0010
1000
,
0001
0000
0010
0100
0010
0000
0001
0000
,
1000
0000
0000
1000
0000
0000
0001
0000
,
1000
1001
0001
0100
,
0010
0000
1000
0000
1000
0000
0000
1000
,
0000
0001
0010
0010
,
0001
1000
0010
0100
,
0002
0000
0000
1003
,
0001
0010
0000
0100
,
1000
0001
0100
0000
,
0010
1000
0001
0010
,
0000
0100
0100
1000
,
0001
0000
0100
0010
,
1000
1000
0001
0010
,
0100
0000
0001
0000
0100
0000
0000
0100
,
0000
0000
1000
0000
0001
1000
0001
0000
,
1000
0001
0100
0010
,
2000
0000
0000
3001
,
1000
0001
1000
0000
0000
0000
0100
0000
,
0010
0001
1000
0000
,
0010
0100
0001
1000
,
0000
0000
1001
0000
,
0000
1001
0001
0100
,
0020
0000
0000
0030
,
0000
0100
0000
0001
0000
0000
1000
0000
,
0100
0000
0000
0010
0000
0002
0000
0000
,
1003
0000
0020
0000
0000
0000
0000
0230
,
0000
0000
0301
0000
1000
0000
0000
0001
,
0000
0010
0000
0000
0100
0000
2000
0000
,
0000
0000
3000
0000
,
0000
0000
1001
0001
,
0000
0001
0000
1000
0000
0000
1000
0000
,
0100
0000
0000
0100
0000
0010
0000
0000
,
0010
0000
0001
0000
0000
0001
0000
1000
,
0000
0000
1000
0000
0010
0000
0000
0010
,
0000
0100
0000
0000
0100
0000
0001
0000
,
0000
1000
0000
0100
0000
0000
0010
0000
,
0001
0000
0000
1000
0000
0010
0000
0000
,
0100
0000
0001
0000
0000
1000
0000
0100
,
0000
0000
0010
0000
0001
0000
0000
0010
,
0000
0200
0000
0000
1300
0000
0001
0100
,
0000
0010
0000
0100
0000
0001
1000
0000
,
0001
0010
0000
0100
0000
0010
0000
0001
,
1000
0000
0010
0100
0000
0001
0000
1000
,
0000
0100
0010
0000
0001
0010
0000
0100
,
0000
2000
0000
0000
3001
0100
0000
1000
,
0000
0100
0000
0001
1000
0000
0001
0010
,
0000
1000
0000
0010
0000
0001
1000
0000
,
0010
0100
0000
1000
0000
0100
0000
0001
,
0010
0000
0100
0010
0000
1000
0000
0010
,
0000
0001
2000
0000
0000
0000
0000
0000
,
0000
0000
3000
0000
,
0000
0000
0000
0001
,
0000
0000
0100
0010
,
1000
0000
0000
0001
,
0010
0000
0100
0000
0000
0100
0000
0000
,
1000
0000
0000
0000
0001
0000
0000
0001
,
0000
0100
0000
0010
,
0000
0010
0000
0000
1000
0000
0000
0000
,
0001
0000
0000
0001
0000
0000
0010
0000
,
0100
0100
1000
0001
,
0100
0010
0001
0010
,
1000
0000
0001
1000
0001
0000
1000
0000
,
0100
0010
0001
0010
,
1000
0000
0010
0000
0100
0000
1000
0001
,
1000
0001
0100
0010
,
1000
0000
0010
0000
0100
0010
0100
0000
,
0010
0000
1000
0001
1000
0000
0001
0000
,
0010
0100
1000
0001
,
0100
0010
0100
0000
0001
0000
1000
0001
,
2000
0000
3000
0000
;
