#TITLE:Farewell to Marrakech;
#SUBTITLE:;
#ARTIST:Dirty Androids;
#TITLETRANSLIT:;
#SUBTITLETRANSLIT:;
#ARTISTTRANSLIT:;
#GENRE:;
#CREDIT:;
#MUSIC:Farewell to Marrakech.ogg;
#BANNER:;
#BACKGROUND:;
#CDTITLE:;
#SAMPLESTART:27.691;
#SAMPLELENGTH:13.333;
#SELECTABLE:YES;
#OFFSET:-1.024;
#BPMS:0.000=144.000;
#STOPS:;
#BGCHANGES:;
#FGCHANGES:;

//--------------- dance-single - eataninja ----------------
#NOTES:
     dance-single:
     eataninja:
     Beginner:
     3:
     0,0,0,0,0:
0000
0000
0000
0000
,
0000
0000
0000
0000
,
0000
0000
0000
0000
,
0000
0000
0000
0000
,
1001
0000
0000
0000
,
0010
0000
0000
0000
,
0100
0000
0000
0000
,
0001
0000
1000
0000
,
0200
0000
0300
0100
,
0000
0000
0020
0000
,
0030
0010
0000
0000
,
0002
0000
0003
0001
,
0000
0000
2000
0000
,
3000
1000
0000
0000
,
0020
0000
0030
0000
,
0200
0000
0300
0000
,
0001
0001
0001
0000
,
1000
1000
1000
0000
,
0100
0000
0010
0000
,
0002
0000
0003
0000
,
1000
1000
1000
0000
,
0010
0000
0000
0000
,
0100
0000
0001
0000
,
1000
1000
1000
0000
,
0100
0000
0001
0000
,
0100
0000
1000
0000
,
0001
0000
0100
0000
,
0020
0000
0030
0000
,
1001
0000
0000
0000
,
0110
0000
0000
0000
,
0100
0000
0010
0000
,
1000
0000
0000
0000
,
1001
0000
0000
0000
,
0110
0000
0000
0000
,
0100
0000
0010
0000
,
0001
0000
0000
0000
,
1000
1000
1000
0000
,
0010
0000
0000
0000
,
0100
0100
0100
0000
,
0200
0000
0300
0000
,
0001
0001
0001
0000
,
0020
0000
0030
0000
,
0100
0100
0100
0000
,
0100
0000
0000
0000
,
1000
0000
0000
0001
,
0000
0000
0100
0000
,
0000
0010
0000
0000
,
1000
0000
0000
0100
,
0000
0000
0010
0000
,
0000
0001
0000
0000
,
1000
0000
0000
0010
,
0000
0000
0200
0000
,
0000
0000
0000
0300
,
0000
0000
0000
1001
,
0000
0001
0001
0001
,
0000
1000
1000
1000
,
0000
0100
0000
0001
,
0000
0100
0000
0010
,
0000
0001
0001
0001
,
0000
1001
0000
0000
,
0000
0001
0000
0010
,
0000
0100
0000
1000
,
0000
0001
0000
1000
,
0000
0010
0000
1000
,
0000
0100
0000
0010
,
0000
0001
0000
0000
,
0000
0001
0000
1000
,
0000
0100
0000
1000
,
0000
0010
0000
0100
,
0000
1000
0000
0100
,
0000
0001
0000
0001
,
0001
0000
1000
1000
,
0000
0100
0100
0000
,
0000
0010
0000
0000
;

//--------------- dance-single - eataninja ----------------
#NOTES:
     dance-single:
     eataninja:
     Easy:
     6:
     0,0,0,0,0:
0000
0000
0000
0000
,
0000
0000
0000
0000
,
0000
0000
0000
0000
,
0000
0000
0000
0000
,
2002
0000
3003
0000
,
0202
0000
0303
0000
,
2200
0000
3300
0000
,
0110
0000
0100
1000
,
0001
0100
0010
1000
,
0100
0010
0001
0100
,
0010
1000
1000
1000
,
0001
0010
0100
1000
,
0010
0100
0001
0010
,
0100
1000
1000
0001
,
2000
0000
0000
0000
,
3020
0000
0130
0001
,
0010
0100
0010
0000
,
0010
0001
1000
0000
,
0010
0100
1000
0100
,
0001
1000
0100
0000
,
0010
0001
1000
0000
,
1000
0010
0100
0000
,
0002
0000
0000
0020
0000
0000
0033
0000
,
0010
0100
1000
0000
,
0001
0001
1000
1000
,
0010
0100
0001
1000
,
0100
0100
0010
0010
,
0001
1000
0010
0000
,
0110
0100
0001
0000
,
0011
1000
0001
0000
,
0110
0100
1000
0000
,
2010
0000
3001
0100
,
0101
0001
0010
0000
,
1100
0001
1000
0000
,
0020
0000
0000
0230
0000
0000
0301
0000
,
1000
0100
0010
0001
,
1000
0010
1000
0010
,
0100
0001
0100
0001
,
0010
0100
0001
0100
,
1000
0001
0100
0000
,
0001
0100
0001
0100
,
0010
1000
0010
1000
,
0100
0010
1000
0010
,
0001
0000
1000
0002
0000
0000
0003
0000
,
1000
0010
0100
0100
,
1000
0100
0001
0010
,
0100
0100
0001
0100
,
1000
0001
0100
0010
,
1000
0100
0010
0001
,
1000
0010
0100
0010
,
2000
0000
0000
3001
0000
0000
0002
0000
,
0000
0013
0000
0000
0100
0000
0000
0000
,
0000
2000
0000
0000
,
3000
0000
0000
1001
,
0110
0100
0001
1000
,
0001
0010
0100
1000
,
0001
0100
1000
0100
,
0001
0010
0100
1000
,
0000
1000
0001
0100
,
0010
0000
0010
0010
0000
0000
0000
0000
,
0110
0100
0001
0010
,
1000
0010
0001
1000
,
0000
1000
0010
0100
,
0000
1000
0100
0001
,
0000
0002
0010
1003
,
0100
0010
0001
0100
,
0010
1000
0001
0010
,
0000
1000
0010
0001
,
0000
2000
0010
3100
,
0001
0100
1000
0001
,
0000
0101
0000
0100
,
1100
0000
1000
1010
,
0000
0010
0011
0000
,
0001
0100
0000
0000
;

//--------------- dance-single - eataninja ----------------
#NOTES:
     dance-single:
     eataninja:
     Medium:
     11:
     0,0,0,0,0:
0000
0000
0000
0000
,
0000
0000
0000
0000
,
0000
0000
0000
0000
,
0000
0000
0000
0000
,
1000
0000
0000
0010
0000
0000
1000
0000
0000
0010
0000
0000
0000
0000
0000
0000
,
1000
0000
0000
0001
0000
0000
1000
0000
0000
0001
0000
0000
0000
0000
0000
0000
,
0010
0000
0000
0100
0000
0000
0010
0000
0000
0100
0000
0000
0000
0000
0000
0000
,
2100
0000
0000
0000
0000
0000
0000
0000
3001
0000
0000
0001
1000
0000
0010
0000
,
0100
0000
0001
0000
0010
0100
1000
0000
,
0001
0000
1000
0010
0100
0000
0010
0000
,
1000
0000
0100
0000
0001
0000
0000
0100
0000
0000
0010
0000
0000
0000
0001
0000
,
1000
0000
0010
0000
0100
0001
1000
0000
,
0100
0000
0010
0001
1000
0010
1000
0010
,
0100
0000
0001
0000
0010
0000
0000
0100
0000
0000
1000
0000
0000
0000
0001
0000
,
0200
0000
0000
0300
,
0102
0000
0000
0000
0000
0000
0000
0000
1003
0000
0000
1000
0100
0000
0010
0000
,
0001
0000
0000
1000
0000
0000
0010
0000
0100
0000
0000
0000
0010
0000
0000
0000
,
1000
0000
0000
0001
0000
0000
0010
0000
0100
0000
0000
0000
1000
0000
0000
0000
,
0001
0000
0000
1000
0000
0000
0010
0000
0100
0000
0000
1000
0000
0000
0100
0000
,
0001
1000
0100
0110
,
0001
0000
0000
1000
0000
0000
0010
0000
0100
0000
0000
0000
0100
0000
0000
0000
,
1000
0000
0100
0000
0001
0000
0000
0000
0010
0000
0000
0100
0000
0000
1000
0000
,
0001
0000
0010
2000
0000
3010
0100
0000
,
1000
0000
0000
0001
0000
0100
0000
0001
0000
0000
0100
0000
0010
0000
0000
0000
,
1000
0000
0000
0001
0000
0000
0010
0000
0100
0000
0000
0010
0000
0000
0001
0000
,
1000
0000
0000
0010
0000
0000
0200
0000
1000
0000
0000
0000
0301
0000
0000
0000
,
0010
0100
1000
0000
0001
0100
0001
0000
,
0101
0000
0000
0000
1100
0000
0000
0000
0001
0000
0000
0010
0000
0000
0100
0000
,
1000
0000
0000
1000
0001
0000
0000
0000
0100
0000
0010
0000
0100
0000
0000
0000
,
0001
0000
0000
0001
1000
0000
0000
0000
0100
0000
0010
0000
0001
0000
0000
0000
,
1000
0000
0000
1000
0010
0000
0000
0000
0001
0000
0010
0000
0100
0000
0000
0000
,
0102
0000
0010
1003
,
1000
0000
0001
0000
0100
0010
0000
0000
0010
0000
0100
0000
0001
0000
0000
0000
,
0001
0000
1000
0000
0100
0010
0000
0000
0010
0000
0001
0000
1000
0000
0000
0000
,
0020
0000
0031
2000
0000
3100
0001
0000
,
1000
0000
0000
0001
0000
0000
0010
0000
0100
0000
0000
1000
0000
0000
0010
0000
,
0100
0000
0000
0100
0001
0000
0000
0001
1000
0000
0000
1000
0100
0000
0000
0100
,
0010
0000
0001
1000
0001
0100
0010
0000
,
1000
0000
0000
1000
0001
0000
0000
0001
0010
0000
0000
0010
1000
0000
0000
1000
,
0010
0000
0010
0100
1000
0001
1000
0000
,
0001
0000
0000
0001
0100
0000
0000
0100
0010
0000
0000
0010
1000
0000
0000
1000
,
0001
0000
0010
0100
1000
0001
0010
0000
,
0001
0000
0000
0001
1000
0000
0000
1000
0010
0000
0000
0010
0100
0000
0000
0100
,
0001
0000
0010
0210
0000
1000
1300
0000
,
0001
0000
0000
1000
0000
0000
0001
0000
0010
0000
0000
0000
0100
0000
0000
1000
,
0000
0000
0001
0000
1000
0000
0000
0000
0010
0000
0000
0100
0000
0000
0001
0000
,
1000
0000
0000
0000
0100
0000
0000
0010
0000
0000
0001
0000
1000
0000
0000
0000
,
0010
0000
0000
0100
0000
0000
0010
0000
1000
0000
0000
0000
0001
0000
0000
0010
,
0000
0100
1000
0000
0100
0100
0010
0010
,
0001
0000
1000
0000
0010
0000
0000
0100
0000
0000
0001
0000
0001
0000
0000
0000
,
1000
0010
0001
1000
0100
0000
0001
0010
,
1000
0001
0100
0000
2000
0000
0000
3020
,
0000
0100
0230
0000
0000
0000
0000
0000
,
0000
0000
0000
0000
0300
0000
0000
0000
0000
0000
0000
0000
0001
0000
0000
0100
,
0000
0000
0010
0000
1000
0000
0000
0001
0000
0000
0010
0000
0100
0000
0000
0100
,
0000
0000
1000
0000
0001
0000
0000
1000
0000
0000
0010
0000
0100
0000
0000
0100
,
0000
0000
0001
0000
1000
0000
0000
0100
0000
0000
0001
0000
0100
0000
0000
0010
,
0000
0000
0001
0000
1000
0000
0000
0010
0000
0000
0200
0000
0000
0000
0001
0000
,
0301
0000
0000
0000
1000
0000
0000
0001
0000
0000
1000
0000
0010
0000
0000
0100
,
0000
0000
0001
0000
1001
0000
1001
0000
0000
1100
0000
2200
0000
0000
0000
0000
,
3300
0000
1000
0000
0010
0002
0000
0013
,
0100
0000
0000
0000
0001
0000
0000
1000
0000
0100
0000
0010
0000
0000
0001
0000
,
1000
0000
0000
0000
0010
0000
0000
0010
0100
0000
0001
0000
1000
0000
0000
1000
,
0100
0000
0010
0000
0001
0000
0000
1000
0000
0000
0020
0000
0000
0000
0100
0000
,
0130
0000
1000
0000
0100
0001
0010
0100
,
1000
0020
0001
0100
,
1030
0000
0000
0000
0001
0000
0000
0001
1000
0000
0100
0000
0010
0000
0000
0010
,
0001
0000
1000
0000
0010
0000
0000
0100
0000
0000
0001
0000
2000
0000
0000
0000
,
3200
0000
0310
0000
1000
0000
0010
0100
,
1000
0002
0000
1000
,
0103
0000
0000
0000
0110
0000
0000
0100
0000
0000
0001
0000
0001
0000
0000
0000
,
1001
0000
0000
1000
0000
0000
0100
0000
0100
0000
0000
0000
0110
0000
0000
0100
,
0000
0000
1000
0000
1000
0000
0000
0000
1001
0000
0000
1000
0000
0000
0010
0000
,
0010
0100
0000
0000
;

//--------------- dance-single - eataninja ----------------
#NOTES:
     dance-single:
     eataninja:
     Hard:
     14:
     0,0,0,0,0:
0000
0000
0000
0000
,
0000
0000
0000
0000
,
0000
0000
0000
0000
,
0000
0000
0000
0000
0000
0000
0000
0001
,
2000
0000
0000
0010
0000
0000
0001
0000
0000
3010
0000
0000
0000
0000
0100
0000
,
0002
0000
0000
1000
0000
0000
0100
0000
0000
1003
0000
0000
0000
0000
0100
0000
,
0020
0000
0000
0100
0000
0000
0001
0000
0000
0130
0000
0000
0000
0000
0010
0000
,
0001
0000
0000
1000
0000
0000
0010
0000
0100
0000
0000
0100
0001
0000
1000
0000
,
0100
0000
0000
0001
0000
0000
0100
0000
0010
0000
0001
0000
0100
0000
0000
1000
,
0000
0000
0100
0000
0010
0000
1000
0000
0100
0000
0000
0001
0000
0000
0100
0000
,
0010
0000
0001
0000
1000
0000
0010
0000
0010
0000
0100
0010
0100
0000
0001
1000
,
0010
0000
0000
0001
0000
0000
0010
0000
0100
0000
0001
0000
0010
0000
0000
1000
,
0000
0010
0100
1000
0001
1000
0010
0010
,
0100
0000
0100
0000
0001
1000
0000
1000
0100
0000
0001
0000
0100
0010
0001
0000
,
2000
0000
0000
0000
,
3020
0000
0000
0000
0000
0000
0000
0000
0130
0000
0000
0100
0001
0000
1000
0000
,
0100
0000
0000
0010
0000
0000
0001
1000
0001
0000
1000
0010
0000
0010
0100
0000
,
0001
0000
0000
1000
0000
0000
0100
0010
0100
0000
0010
0001
0000
1000
0000
0010
,
0100
0000
0000
0000
0000
0000
0000
0000
0000
0010
0000
0000
0000
0000
0000
0000
1000
0000
0000
0000
0001
0000
0000
0000
0010
0000
0000
0000
0000
0000
0000
0000
0000
1000
0000
0000
0000
0000
0000
0000
0000
0000
0010
0000
0000
0100
0000
0000
,
1000
0000
0000
0001
0000
0000
0200
0000
0000
0000
0310
0000
0100
0000
0001
1000
,
0001
0000
0000
0010
0000
0000
0100
0010
0100
0000
0010
0001
0000
0000
1000
0010
,
0100
0000
0000
0000
0010
0000
0000
0000
1000
0000
0000
0000
0000
0000
0000
0000
0001
0000
0000
0000
0010
0000
0000
0000
0100
0000
0000
0000
0000
0000
0000
0000
0000
1000
0000
0000
0000
0000
0000
0000
0000
0000
0010
0000
0000
0100
0000
0000
,
0020
0000
0000
0001
0000
0100
0130
0010
,
1000
0000
0001
0010
0000
0110
0000
1001
0000
0000
1000
0000
0010
0000
0100
0010
,
0100
0000
0000
0002
0000
0000
0013
0000
1000
0000
0000
0020
0000
0000
0130
0000
,
1000
0000
0000
0010
0000
0000
0100
0000
0110
0000
0000
0000
0101
0000
0000
0000
,
1000
0000
0000
1000
0001
0000
0010
0100
1000
0000
0000
1000
0010
0000
0100
0000
,
0001
0000
0000
1000
0000
0000
0001
0000
0000
1000
0000
0000
0100
0000
0000
0000
0010
0000
0000
0000
0001
0000
0000
0000
0100
0000
0000
0000
0000
0000
0000
0000
0000
0100
0000
0000
0010
0000
0000
0000
0000
0000
1000
0000
0000
0000
0000
0000
,
0001
0000
0000
0001
0010
0000
0010
0000
0100
0000
0000
0100
1000
0001
0000
0000
,
1000
0000
0000
1000
0010
0000
0001
0000
0010
0100
0010
0100
0001
0000
0000
0000
,
1000
0000
0000
1000
0001
0000
0010
0000
0100
0000
0000
0100
0010
0000
0000
0000
,
0001
0000
0000
0001
0100
0000
1000
0000
0100
0010
0100
0010
0100
0000
0001
0000
,
1000
0000
1000
0000
0001
0010
0000
0000
0001
0000
0000
0001
1000
0010
0000
0000
,
0100
0000
0100
0000
0010
1000
0000
0000
1000
0001
1000
0001
0010
0000
0000
0000
,
0010
0000
0100
1000
0100
0000
1000
0000
0010
0000
0100
0001
0100
0000
0001
0000
,
1000
0000
0000
0000
0000
0000
0000
0000
0000
0100
0000
0000
0000
0000
0000
0000
0010
0000
0000
0000
0001
0000
0000
0000
1000
0000
0000
0000
0000
0000
0000
0000
0000
0010
0000
0000
0000
0000
0000
0000
0000
0000
0100
0000
0000
0000
0000
0000
,
0010
0000
0000
0010
1000
0000
0000
1000
0100
0000
0000
0100
0010
0000
0000
0010
,
0001
0000
0000
0001
1000
0000
0000
1000
0010
0100
0010
0100
0010
0000
1000
0000
,
0001
0000
0000
0001
1000
0000
0000
1000
0100
0000
0000
0100
0001
0000
0000
0001
,
0100
0000
0000
0100
0010
0000
0000
0010
0001
1000
0001
1000
0001
0000
0100
0000
,
0010
0000
0000
0010
0100
0000
0000
0100
1000
0000
0000
1000
0100
0000
0000
0100
,
0001
0000
0000
0001
1000
0000
0000
1000
0100
0010
0100
0010
0001
0000
1000
0000
,
0010
0000
0000
0010
0100
0000
0000
0100
0001
0000
0000
0001
0010
0000
0000
0010
,
1000
0001
0100
2100
0000
0001
3001
0000
,
1000
0000
0001
0010
0000
0001
0010
0000
0100
0000
1000
0000
0001
0000
1000
0010
,
0000
1000
0010
0000
0100
0000
0001
0000
1000
0000
0001
0010
0000
0001
0010
0000
,
0100
0000
1000
0000
0001
0000
0100
0010
0100
0000
1000
0100
1000
0000
0100
0010
,
1000
0000
0001
0010
0000
0001
0100
0000
1000
0000
0100
0000
0001
0000
1000
0100
,
0000
1000
0010
0000
0001
0000
0010
0000
0100
0000
0100
0000
0010
0000
0010
0000
,
1000
0000
1000
0000
0001
0010
0000
0010
0100
0000
1000
0000
0001
0100
0010
1000
,
0002
0203
2300
3002
0023
0230
0302
0023
,
2030
0000
3002
0000
0203
0000
2300
0000
3020
0000
0000
0000
0000
0000
0000
0230
,
0000
0302
0000
0000
,
0000
0000
0000
0000
1003
0000
0000
0000
0000
0000
0000
0000
1100
0000
0000
0110
,
0000
0000
0011
0000
0001
0000
0000
1000
0000
0000
0010
0100
0001
0000
1000
0001
,
0000
0001
0010
0000
0100
0000
0000
1000
0000
0000
0001
1000
0001
0000
1000
0010
,
0000
0000
0000
0100
0000
0000
0000
0000
0000
0001
0000
0000
1000
0000
0000
0000
0000
0000
0000
0000
0000
0100
0000
0000
0000
0000
0000
0000
0010
0000
0000
0000
0001
0000
0000
0000
0100
0000
0000
0000
0000
0000
0000
0000
0000
1000
0000
0000
,
0000
0000
0100
0010
1000
0000
0000
0001
0000
0000
0020
0000
0000
0000
0130
0000
,
1000
0000
0001
1000
0010
0000
0000
0100
0000
0000
0010
0100
0010
0000
0100
0001
,
0000
0000
1000
0001
0010
0000
0010
0000
0000
0011
0000
0011
0000
0000
1000
0000
,
1000
0000
0001
0000
0100
0000
0020
0000
0000
0000
0000
0000
0000
0000
0000
0001
0000
0000
0000
0000
0000
0100
0000
0000
,
0130
0000
0001
0000
1000
0000
0001
0010
0000
0110
0000
1001
0000
0000
1000
0010
,
0000
0010
0100
0000
0001
0000
1000
0100
1000
0000
0010
0000
0001
0000
0010
0100
,
0001
0000
1000
0000
0100
0000
0010
0001
0010
0000
0001
0000
1000
0010
1000
0010
,
0100
0000
0001
0000
1000
0000
0100
0010
0001
0000
1000
0000
0001
0000
0100
0010
,
1000
0000
0100
0000
0002
0000
0000
0000
0103
0000
0010
0100
0020
0000
0000
0031
,
1000
0000
0000
0000
0001
0000
0100
0010
1000
0000
0100
0000
0001
0000
0100
0010
,
0100
0000
0010
0000
0001
0000
1000
0010
0100
0000
0001
0000
1000
0001
1000
0001
,
0010
0000
0100
0000
1000
0000
0000
1000
0010
0000
0000
0010
0100
0000
0000
0100
,
0001
0000
0000
0000
0000
0000
0000
0000
0000
0001
0000
0000
1000
0000
0000
0001
0000
0000
1000
0000
0000
0001
0000
0000
1000
0000
0000
0000
0100
0000
0000
0000
0010
0000
0000
0000
0001
0000
0000
0000
0000
0000
1000
0000
0000
0000
0000
0000
,
1000
0000
0010
0000
0100
0000
0000
0110
0000
0000
0010
0000
0010
0000
1000
0000
,
0001
0000
0000
1001
0000
0000
1000
0000
1000
0000
0100
0000
0010
0000
0000
0011
,
0000
0000
1000
0000
0000
1010
0000
0000
0001
0000
0100
0010
0100
0000
0001
0000
,
0010
0010
0100
0000
0000
0000
0000
0000
;
