#VERSION:0.83;
#TITLE:Cthugha;
#SUBTITLE:;
#ARTIST:USAO;
#TITLETRANSLIT:;
#SUBTITLETRANSLIT:;
#ARTISTTRANSLIT:;
#GENRE:;
#CREDIT:;
#MUSIC:Cthugha.ogg;
#BANNER:Cthugha-bn.png;
#BACKGROUND:Cthugha-bg.png;
#CDTITLE:;
#SAMPLESTART:99.039;
#SAMPLELENGTH:15.000;
#SELECTABLE:YES;
#OFFSET:0.679;
#BPMS:0.000=213.000
,52.000=106.500
,60.000=213.000
,180.000=106.500
,212.000=213.000
;
#STOPS:;
#BGCHANGES:;
#FGCHANGES:;

//--------------- dance-single - ----------------
#NOTEDATA:;
#STEPSTYPE:dance-single;
#DESCRIPTION:;
#DIFFICULTY:Beginner;
#METER:4;
#RADARVALUES:0,0,0,0,0;
#CREDIT:Talkion;
#NOTES:
0000
0000
0000
0000
,
0000
0000
0000
0000
,
0000
0000
0000
0000
,
0000
0000
0000
0000
,
0000
0000
0000
0000
,
0000
0000
0000
0000
,
0000
0000
0000
0000
,
0000
0000
0000
0000
,
0000
0000
0000
0000
,
1000
0000
1000
0000
,
1000
0000
0000
0000
,
0001
0000
0100
0000
,
0002
0000
0000
0003
,
1000
0100
1000
0000
,
0010
0100
0001
0000
,
1001
0000
0000
0000
,
0000
0000
0000
0000
,
1000
0000
1000
0000
,
0100
0000
0100
0000
,
0010
0000
0010
0000
,
0001
0000
0001
0000
,
1000
0000
1000
0000
,
1000
0000
0000
0000
,
0001
0000
0100
0000
,
0010
0000
0000
0000
,
1000
0000
1000
0000
,
0100
0000
0000
0000
,
0001
0000
0001
0000
,
0100
0000
0000
0000
,
1000
0000
1000
0000
,
0010
0000
0000
0000
,
0001
0000
0001
0000
,
0010
0000
1000
0000
,
0001
0000
0001
0000
,
0010
0000
0000
0000
,
1000
0000
1000
0000
,
0010
0000
0000
0000
,
0001
0000
0001
0000
,
0100
0000
0000
0000
,
1000
0000
1000
0000
,
0100
0000
0001
0000
,
1000
0000
1000
0000
,
1000
0000
0000
0000
,
0001
0000
0100
0000
,
0002
0000
0000
0003
,
1000
0100
1000
0000
,
0010
0100
0001
0000
,
1000
0010
1000
0000
,
0100
0100
0010
0010
,
0001
1000
0001
0000
,
0100
0010
1000
0000
,
0001
0001
0010
0010
,
0100
1000
0000
0000
,
0002
0000
0000
0000
,
0000
0000
0000
0000
,
0000
0000
0000
0000
,
0000
0000
0000
0003
,
1000
0000
0000
0000
,
0100
0000
0000
0000
,
0010
0000
0000
0000
,
0001
0000
0000
0000
,
1000
0000
1000
0000
,
1000
0000
0000
0000
,
0001
0000
0001
0000
,
0001
0000
0000
0000
,
1000
0000
1000
0000
,
1000
0000
0000
0000
,
0001
0000
0001
0000
,
0001
0000
0000
0000
,
0100
0000
0000
0000
,
0010
0000
0100
0000
,
0001
0000
0000
0000
,
0010
0000
0100
0000
,
1000
0000
1000
0000
,
1000
0000
1000
0000
,
1000
0000
1000
0000
,
2000
0000
0000
0000
,
3000
0000
0000
0000
,
0000
0000
0000
0000
,
0001
0000
0100
0000
,
1000
0000
0100
0000
,
0001
0000
0001
0000
,
0001
0000
0000
0000
,
1000
0000
0100
0000
,
0001
0000
0100
0000
,
1000
0000
1000
0000
,
1000
0000
0000
0000
,
0001
0000
0001
0000
,
0100
0000
0000
0000
,
1000
0000
1000
0000
,
0100
0000
0000
0000
,
0001
0000
0001
0000
,
0010
0000
0000
0000
,
1000
0000
1000
0000
,
0010
0000
0001
0000
,
1000
0000
1000
0000
,
1000
0000
0000
0000
,
0001
0000
0001
0000
,
0001
0000
0000
0000
,
0100
0000
0100
0000
,
0010
0000
0010
0000
,
1000
0000
0001
0000
,
2000
0000
0000
3000
,
1001
0000
0000
0000
;

//--------------- dance-single - ----------------
#NOTEDATA:;
#STEPSTYPE:dance-single;
#DESCRIPTION:;
#DIFFICULTY:Easy;
#METER:7;
#RADARVALUES:0,0,0,0,0;
#CREDIT:Talkion;
#NOTES:
0000
0000
0000
0000
,
0000
0000
0000
0000
,
0000
0000
0000
0000
,
0000
0000
0000
0000
,
0000
0000
0000
0000
,
1001
0000
0001
0000
,
0100
0000
0010
0000
,
1000
0000
0000
1000
0000
0000
1000
0000
,
0001
0000
0000
0000
,
0010
0010
0010
0000
,
0100
0100
0100
0000
,
1000
0000
0001
0000
,
2002
0000
0000
3003
,
1010
0000
0010
0000
0100
0010
0200
0000
,
0302
2003
3100
0000
0020
0000
0030
0000
,
0110
0000
0000
0000
,
0000
0000
0000
0000
,
1001
1000
0010
1000
,
0000
0001
0010
0001
,
0000
1000
0010
1000
,
0000
0001
1000
0001
,
0100
0100
0100
0000
,
0010
0010
0010
0000
,
1000
0000
0001
1000
,
0100
0100
0100
0000
,
1000
0100
0001
0000
,
0001
0100
1000
0000
,
1000
0100
0001
0000
,
0100
0100
1000
0000
,
0001
0100
1000
0000
,
1000
0100
0001
0000
,
0001
0100
1000
0000
,
0100
0100
0100
0000
,
0001
0010
1000
0000
,
1000
0010
0001
0000
,
0001
0010
1000
0000
,
0010
0000
0001
0001
,
1000
0010
0001
0000
,
0001
0010
1000
0000
,
1000
0010
0001
0000
,
0010
0200
0310
0000
,
1000
1000
1000
0000
,
0001
0001
0001
0000
,
0010
0000
0100
0000
,
0220
0000
0000
0330
,
1100
0000
1000
0000
0001
1000
0002
0000
,
0203
0320
1030
0000
0001
1000
0001
0000
,
0010
0000
0100
0000
1000
1000
0001
0000
,
0100
0100
0100
0000
0010
0010
0010
0000
,
1000
0000
0001
0000
1000
0001
2000
0000
,
3200
0320
0031
0000
1000
0001
0100
0010
,
1000
1000
1000
0000
0001
0001
0001
0000
,
0010
0000
0100
0000
1000
1000
0010
0000
,
0200
0000
0000
0000
,
0302
0000
0000
0000
,
2003
0000
0000
0000
,
3200
0000
0000
0000
0000
0000
0000
0300
,
0110
0000
0000
1000
0000
0000
1000
0000
,
0000
0001
0100
0010
,
1000
0000
0000
1000
0000
0000
1000
0000
,
0001
0000
0000
0000
,
1000
0100
0000
0100
,
0010
0001
0000
0001
,
0100
0010
0000
0010
,
1000
0100
0000
1000
,
0001
0010
0000
0010
,
0100
1000
0000
1000
,
0010
0100
0000
0100
,
0001
0010
0000
0001
,
1000
0000
0100
0010
,
0100
0000
1000
0001
,
1000
0000
0010
0100
,
0010
0000
1000
0001
,
1000
0100
1000
0100
,
0010
0001
0010
0001
,
1000
1000
1000
1000
,
0001
0001
0001
0001
,
1001
0000
0000
0000
,
0000
0000
0000
0000
,
1000
0010
0001
0000
,
1000
0100
0001
0000
,
1000
0100
0001
0100
,
0010
0001
1000
0000
,
0001
0100
1000
0000
,
0001
0010
1000
0000
,
0100
0100
0100
0000
,
0010
0010
0010
0000
,
0001
0010
1000
0000
,
1000
0010
0001
0000
,
0001
0010
1000
0000
,
0010
0000
0001
0001
,
1000
0010
0001
0000
,
0001
0010
1000
0000
,
1000
0010
0001
0000
,
0010
1000
1000
0000
,
0100
0100
0100
0000
,
0010
0010
0010
0000
,
0001
0001
0001
0000
,
1000
1000
1000
0000
,
0110
0000
0000
0001
0000
0000
1000
0000
,
0110
0000
0000
0001
0000
0000
1000
0000
,
0010
0000
0100
0000
,
0220
0000
0000
0330
,
0110
0000
0000
0000
;

//--------------- dance-single - ----------------
#NOTEDATA:;
#STEPSTYPE:dance-single;
#DESCRIPTION:;
#DIFFICULTY:Medium;
#METER:11;
#RADARVALUES:0,0,0,0,0;
#CREDIT:Talkion;
#NOTES:
0000
0000
0000
0000
,
0000
0000
0000
0000
,
0000
0000
0000
0000
,
0000
0000
0000
0000
,
0000
0000
0000
0000
,
1001
0000
0000
0001
0000
0000
0001
0000
,
0100
0010
1000
0002
,
0010
0000
0000
0100
0000
0000
0013
0000
,
0100
0000
0000
0000
,
1000
0100
1000
0000
0001
0100
0001
0000
,
1000
1000
1000
0100
,
0020
0031
0200
0310
,
2020
0000
0000
3030
,
1001
1000
0100
0100
0001
0010
0010
1000
,
0020
0230
0310
0010
0002
0000
0003
0000
,
0110
0000
0000
0000
,
1000
0000
0001
0010
0100
0000
0000
0000
,
1100
1000
0001
1000
,
0010
0100
0010
1000
,
0001
0010
0100
0010
,
0001
1000
0001
0100
,
0010
0100
0010
0000
1000
0001
1000
0000
,
0100
0100
0100
0010
,
0001
0000
0000
1000
0100
1000
0001
0000
,
0101
1010
1001
0000
,
1000
0100
0000
0010
0100
0000
0001
0100
,
0000
0010
0100
0000
1000
0000
0001
0000
,
0100
0000
1000
0100
0000
0010
0100
0000
,
0001
0001
0001
1000
,
0001
0010
0000
0100
0010
0000
1000
0010
,
0000
0100
0010
0000
0001
0000
1000
0000
,
0010
0000
0001
0010
0000
0100
0010
0000
,
1000
1000
1000
0000
,
0001
0010
0000
0100
0010
0000
1000
0010
,
0000
0100
0010
0000
0001
0000
1000
0000
,
0010
0000
0001
0010
0000
0100
0010
0000
,
1000
0010
1000
0000
0001
0010
0001
0000
,
1000
0100
0000
0010
0000
0010
0001
0000
,
1000
0010
0100
0001
,
1000
0100
1000
0000
0001
0100
0010
0000
,
1000
2001
3100
0010
,
0001
0010
0001
0000
1000
0010
1000
0000
,
0001
0001
0001
0010
,
0200
1300
0020
0130
,
0202
0000
0000
0303
,
1001
0001
0010
0010
1000
0100
0100
0001
,
0200
0320
0130
0100
1000
0010
0010
0001
,
1000
0001
0010
0010
1000
0100
0100
0001
,
1000
0010
1000
0000
0001
0010
0001
0000
1000
0000
1000
0000
1000
0000
0000
0000
,
0010
1000
0010
0100
0100
1000
0010
0010
,
0002
0023
0130
0100
0001
0010
0010
1000
,
0001
0100
0001
0000
1000
0100
1000
0000
0001
0000
0001
0000
0001
0000
0100
0000
,
0010
0000
1000
0000
0100
0000
0010
0000
0000
0001
1000
0001
1000
0000
0020
0000
,
0230
0000
0000
0000
,
0302
0000
0000
0000
,
2003
0000
0000
0000
,
3200
0000
0000
0000
0000
0000
0000
0300
,
0110
0000
0000
1000
0000
0000
1000
0000
,
0001
0100
0001
0200
,
0010
0000
0000
0001
0000
0000
0310
0000
,
1000
0001
0020
0031
,
1001
0000
0000
1000
0000
0000
1000
0000
,
0010
0100
0001
2000
,
0100
0000
0000
0010
0000
0000
3100
0000
,
0010
0010
0010
0001
,
1001
0000
0000
1000
0000
0000
1000
0000
,
0100
0010
0001
2000
,
0010
0000
0000
0100
0000
0000
3010
0000
,
0200
0000
0301
1001
,
1000
0000
0100
0000
0010
0000
0001
1000
,
0001
0000
0100
0000
0010
0100
0010
0000
,
1000
0000
0010
0000
0100
0000
0001
1000
,
0001
0000
0010
0000
0100
0010
0001
0000
,
1001
1001
1010
1010
,
0101
0101
1001
1001
,
1000
0100
1000
0100
0010
0001
0010
0001
,
1000
0010
0100
0001
1000
0010
0100
0001
,
1000
0000
0000
0000
,
0000
0000
0000
0000
0001
1000
0001
0010
,
0100
0000
1000
0100
0000
0001
0000
0100
,
1000
0000
0001
0100
0000
1000
0000
0100
,
0001
0000
1000
0100
0010
0000
0001
0100
,
0010
0000
1000
0000
0010
0100
0001
0000
,
1000
0000
0001
0010
0000
1000
0000
0010
,
0001
0000
1000
0010
0000
0001
0000
0010
,
1000
0000
0001
0010
0100
0000
1000
0010
,
0100
0000
0001
0000
0100
0010
1000
0000
,
0001
0010
0000
0100
0010
0000
1000
0010
,
0000
0100
0010
0000
0001
0000
1000
0000
,
0010
0000
0001
0010
0000
0100
0010
0000
,
1000
1000
0001
0001
,
1000
0100
0000
0010
0100
0000
0001
0100
,
0000
0010
0100
0000
1000
0000
0001
0000
,
0100
0000
1000
0100
0000
0010
0100
0002
,
0000
1000
1000
1003
,
0001
0010
0001
0000
1000
0010
1000
0000
,
0011
1100
1001
0000
,
1000
0010
1000
0000
0001
0010
0001
0000
,
1010
0101
1001
0000
,
0001
1000
0001
0010
0100
0000
1100
0000
,
1000
0001
1000
0010
0200
0000
0301
1000
,
0002
0013
0200
1300
,
2002
0000
0000
3003
,
1001
0000
0000
0000
;

//--------------- dance-single - ----------------
#NOTEDATA:;
#STEPSTYPE:dance-single;
#DESCRIPTION:;
#DIFFICULTY:Hard;
#METER:14;
#RADARVALUES:0,0,0,0,0;
#CREDIT:Talkion;
#NOTES:
0000
0000
0000
0000
,
0000
0000
0000
0000
,
0000
0000
0000
0000
,
0000
0000
0000
0000
,
0000
0000
0000
0000
,
1001
0000
0000
1000
0000
1000
0100
1000
,
0001
0100
0010
0100
,
0001
0000
1000
0100
0000
0100
0010
0000
,
0001
0100
0010
0000
1000
0001
1000
0001
,
0010
0100
0010
0001
1000
0100
1000
0001
,
0100
0000
0000
0100
0000
0000
0100
0000
0010
0000
0000
0000
1010
0000
0000
0000
,
1002
0013
2001
3010
,
2002
0000
0000
3003
,
0011
0000
0001
1000
0001
0100
0000
0100
1000
0010
0000
0010
0001
0000
1000
0100
,
0020
0000
0032
0000
1003
0100
0000
0100
0002
0000
0000
0000
0103
0010
1000
0000
,
1001
0000
0000
0000
,
0001
0000
0001
0010
0100
0000
1000
0000
,
1001
0000
0001
0100
0010
0100
0001
0000
,
1000
0100
1000
0000
0001
0100
0010
0100
,
0001
1000
0001
0000
0010
0100
0010
0000
,
0001
1000
0001
0000
0100
0010
0100
0010
,
1000
0001
0010
0001
1000
0010
0100
0010
,
1000
0000
0000
1000
0000
0000
1000
0000
0001
0000
0000
0000
0010
0000
0100
0000
,
1000
0000
0001
1000
0010
0100
0010
1000
,
0001
0000
0011
0000
1100
1000
0001
0100
,
0020
1000
0030
0020
0001
0030
0020
1000
,
0030
0010
0100
0010
1000
0000
1000
0001
,
0010
0100
2000
0001
3000
2000
0010
3000
,
1000
0100
0010
0000
0010
0001
1000
0010
,
0200
0001
0300
0200
1000
0300
0200
0001
,
0300
0100
0010
0100
0001
0000
0001
1000
,
0100
0000
0100
0010
0001
0100
0010
0000
,
1010
1001
0021
0130
,
0020
0001
0030
0020
1000
0030
0020
0001
,
0030
0010
0100
0010
0001
0000
0001
1000
,
0010
0100
0002
1000
0003
0002
0010
0003
,
0001
0100
0010
0000
0010
1000
0001
0010
,
0200
1000
0300
0001
1000
0010
0100
0020
,
0001
0000
0100
0000
1030
0000
0001
0010
,
0100
1000
0010
0100
0001
0010
0100
0010
,
0001
1002
0103
1100
,
0100
0010
0100
1000
0001
0010
0001
1000
,
0010
0000
0000
0010
0000
0000
0010
0000
0100
0000
0000
0000
0101
0000
0000
0000
,
2001
3100
1002
0103
,
2002
0000
0000
3003
,
1100
0000
1000
0001
1000
0010
0000
0010
0001
0100
0000
0100
1000
0000
0001
0010
,
0200
0000
2300
0000
3001
0010
0000
0010
1000
0100
0000
0100
0001
0000
0101
0000
,
1010
0000
1000
0001
1000
0010
0000
0010
0001
0000
0010
0001
0100
0000
0100
1000
,
0010
0000
0100
0000
0010
0000
0100
0000
0001
0000
1000
0000
0001
0000
1000
0000
0100
0000
0000
0100
0000
0000
0100
0000
0010
0000
0000
0000
0001
0000
0000
0000
,
1001
0000
1000
0001
0100
0010
0000
0010
0001
0100
0000
0100
1000
0000
0100
0010
,
0002
0000
2003
0000
3100
0010
0000
0010
1000
0100
0000
0100
0001
0000
0101
0000
,
1010
0000
1000
0000
0001
0000
1000
0000
0100
0000
0010
0000
0100
0000
0010
0000
0001
0000
0000
0001
0000
0000
0001
0000
1000
0000
0000
0000
0010
0000
0000
0000
,
0100
0000
0100
1000
0010
0000
0010
0001
0100
0010
0100
0010
1000
0000
2001
0000
,
3200
0000
0000
0000
,
0320
0000
0000
0000
,
0032
0000
0000
0000
,
2003
0000
0000
0000
0000
0000
0000
3000
,
1010
0001
0010
0010
,
0100
0100
1000
1000
,
0001
0001
0100
0100
,
0010
0010
1002
0013
,
2010
0000
0000
3001
0000
0001
0100
0001
,
1000
0100
0010
0100
,
1000
0000
0001
0100
0000
0100
0010
0000
,
1000
0100
0010
0000
0001
1000
0010
0100
,
0002
0000
0000
1003
0000
1000
0100
1000
,
0001
0100
0010
0100
,
0001
0000
1000
0100
0000
0100
0010
0000
,
0001
0100
0010
0100
0001
0000
1001
0000
,
1100
0000
1001
0000
1100
0000
1000
0010
,
0110
0000
0101
0000
0110
0100
0001
1000
,
0100
0010
0011
0000
1001
0000
0001
0100
,
0110
0000
1010
0000
0110
0010
1000
0001
,
0010
0100
1100
0000
1010
0000
0010
0100
,
0101
0000
0011
0000
1100
1000
0001
1000
,
0010
0010
0100
0100
0001
0001
1000
1000
,
0100
0010
0001
0100
0010
1000
0100
0010
,
0001
0000
0000
0000
,
1002
0000
0000
0000
0103
0010
0100
0001
,
1000
0100
0010
1000
0000
1010
0000
0010
,
0001
0100
0010
0001
0000
0011
0000
0010
,
0100
0001
1000
0100
0001
0000
0001
0100
,
1000
0000
0010
0100
0001
0100
0010
1000
,
0001
0010
0100
0001
0000
0101
0000
0100
,
1000
0010
0100
1000
0000
1100
0000
0100
,
0010
1000
0001
1000
0100
0010
0100
1000
,
0001
0000
0100
0100
0010
1000
0100
0000
,
0020
0001
0030
0020
1000
0030
0020
0001
,
0030
0010
0100
0010
0001
0000
0001
1000
,
0010
0100
0002
1000
0003
0002
0010
0003
,
0001
0100
0010
0000
0010
1000
0001
0010
,
0200
1000
0300
0200
0001
0300
0200
1000
,
0300
0100
0010
0100
1000
0001
1000
0010
,
0100
0001
0020
0100
0030
1000
0100
0010
,
0001
0000
0001
0100
0010
0000
1010
0000
,
1001
0000
0001
0000
0010
0000
0001
0000
1000
0000
0000
0100
0000
0000
0001
0000
,
0000
0100
0000
0000
1000
0000
0001
0000
1000
0000
0010
0100
0000
0010
0100
0000
,
0001
0000
1000
0000
0100
0000
1000
0000
0001
0000
0000
0010
0000
0000
1000
0000
,
0000
0010
0000
0000
0001
0000
1000
0000
0001
0000
0100
0000
0010
0100
0010
0000
,
1000
0000
0001
0000
0010
0000
0001
0000
0100
0000
0000
0100
0000
0000
0100
0000
,
0001
1000
0010
1000
0200
0000
0310
0001
,
2000
0000
3010
0000
1001
0001
0010
0100
,
2000
0000
3010
0200
0000
0310
0001
0000
,
1010
0000
0000
0000
;

//--------------- dance-single - ----------------
#NOTEDATA:;
#STEPSTYPE:dance-single;
#DESCRIPTION:;
#DIFFICULTY:Challenge;
#METER:16;
#RADARVALUES:0,0,0,0,0;
#CREDIT:Talkion;
#NOTES:
0000
0000
0000
0000
,
0000
0000
0000
0000
,
0000
0000
0000
0000
,
0000
0000
0000
0000
,
0000
0000
0000
0000
,
1001
0000
0000
1000
0100
1000
0001
1000
,
0010
0100
0001
1000
,
0100
0000
0001
0100
0000
0010
0100
0000
,
0001
0000
0100
0000
0010
0000
0100
0000
1000
0001
1000
0000
0010
0000
0100
0000
,
0001
1000
0100
1000
0001
0100
0010
0100
,
0001
0000
0000
0001
0000
0000
0001
0000
1000
0000
0100
0000
0001
0000
0100
0000
,
2000
3010
1002
0013
,
2002
0000
0000
3003
,
1010
0000
1000
0001
1000
0100
0100
0001
0100
0100
1000
0100
0002
0000
0103
0010
,
0001
0001
2000
0000
3001
0100
0100
1000
0100
0100
0001
0010
1000
1000
0010
0000
,
0011
0000
0000
0000
,
1100
0000
1000
1000
0001
0000
0101
0000
,
1010
0000
1000
0001
0100
0001
0010
0001
,
1000
0001
0100
0001
0010
0001
1000
1000
,
0100
1000
0001
1000
0010
1000
0100
1000
,
0001
1000
0010
1000
0100
0100
0100
0100
,
1000
0001
0010
0001
1000
0010
0100
0010
,
1000
0000
0001
0010
0001
0000
1000
0000
0010
0000
0100
0000
0001
0000
1000
0100
,
1000
0000
0001
0000
0100
0000
0010
0000
1000
0000
0100
0000
0010
0000
0001
1000
,
0010
0000
0000
0000
0010
0000
1001
0000
0100
0000
0001
0000
0001
0000
1000
0100
,
0020
0100
0031
2000
0010
3001
0020
0100
,
0031
1000
0100
1000
0001
0100
0010
0010
,
1000
0002
0010
1003
0200
0010
1300
0002
,
0010
0000
1003
0000
0100
0000
0000
0000
0100
0000
1000
0001
1000
0000
0010
0000
,
0200
0010
0301
2000
0100
3001
0200
0010
,
0301
1000
0010
1000
0001
0010
0100
0100
,
1000
0000
0000
0000
1000
0000
0001
0100
0010
0000
0010
0000
1000
0000
0000
0000
,
1001
0000
0000
0000
0110
0000
0000
0000
1001
0000
0001
0100
0010
0000
0000
0000
,
2000
0001
3100
0020
0001
0130
2000
0001
,
3010
0100
0001
0100
0010
1000
0001
0001
,
0010
0200
1000
0310
0002
1000
0103
0020
,
1000
0130
0001
1000
0001
0010
0010
0000
,
0200
1000
0310
0001
1000
0100
1000
0001
,
0100
0000
0010
0000
1000
0000
0010
0000
0100
0000
0001
0000
0010
0000
0100
0010
,
0100
0000
1000
0001
1000
0000
0001
0100
0001
0000
1000
0000
0100
0000
0010
0000
,
0001
0000
0000
0000
1000
0010
1000
0010
0100
0000
0000
0000
0101
0000
0000
0000
,
1001
0001
0010
0001
1000
0010
0100
0010
,
1000
0000
0000
1000
0000
0000
1000
0000
0001
0000
0010
0000
1000
0000
0010
0000
,
0002
0103
2001
3100
,
2002
0000
0000
3003
,
0101
0000
0001
1000
0001
0010
0010
1000
0010
0010
0001
0010
2000
0000
3010
0100
,
1000
1000
0002
0000
1003
0010
0010
0001
0010
0010
1000
0010
0100
0010
0001
0000
,
0011
0000
0010
0100
0001
1000
0010
0010
0100
1000
0010
0010
0200
0000
1300
0001
,
0100
0000
0010
0000
1000
0000
0010
0000
0100
0000
0001
0000
1000
0000
0001
0000
0010
0000
0100
1000
0100
0000
0010
0000
0001
0000
0001
0000
1000
0000
0000
0000
,
1010
0000
0010
0100
0001
0010
0010
1000
0010
0010
0001
0100
2000
0000
3100
0010
,
1000
0000
1000
0000
0200
0000
0000
0000
1300
0000
0010
0000
0010
0000
0001
0000
0200
0000
0000
0000
0310
0000
1000
0001
1000
0000
0100
0000
0001
0000
0000
0000
,
0101
0000
0100
0000
0010
0000
0100
0000
1000
0000
0001
0000
0010
0000
0001
0000
1000
0000
0010
0100
0010
0000
1000
0000
0001
0000
0010
0000
0100
0000
0000
0000
,
2000
0000
3010
0010
0002
0000
0013
0010
1000
0001
0100
0010
1000
0000
2001
0000
,
3200
0000
0000
0000
,
0320
0000
0000
0000
,
0032
0000
0000
0000
,
2003
0000
0000
0000
0000
0000
0000
0000
0000
0000
0000
0000
0000
0000
0000
0000
0000
0000
0000
0000
0000
0000
0000
0000
0000
0000
0000
3000
0000
0000
0000
0000
,
1010
0001
0010
0010
,
0100
0100
1000
1000
,
0001
0001
0100
0100
,
0010
0000
0000
0000
0010
0000
0000
0000
1000
0001
1000
0001
0010
0000
0000
0000
,
0011
0000
0001
1000
0100
1000
0001
1000
,
0010
0000
0100
0000
0001
1000
0001
1000
,
0100
0000
0001
0100
0000
0010
0100
0000
,
0001
0100
0010
0100
1000
0001
1000
0010
,
0100
0000
0001
1000
0010
1000
0001
1000
,
0100
0000
0010
0000
0001
1000
0001
1000
,
0010
0000
0001
0010
0000
0100
0010
0000
,
0001
0010
0100
0010
1000
0100
1100
0000
,
1001
0000
0101
0000
1001
0000
0101
0001
,
1001
0000
0000
0000
1100
0000
0000
0000
1001
0000
1000
0000
0010
0100
0010
0000
,
1000
1000
0001
0000
1001
0000
0011
0001
,
1001
0000
1010
0000
1001
1000
0100
0010
,
0011
0001
1001
0000
1010
0000
0110
0100
,
0101
0000
1001
0000
1100
0100
0010
0100
,
1000
1000
0001
0001
0100
0100
0010
0010
,
1000
0001
1000
0001
1000
0001
1000
0001
0020
0000
0130
0000
1000
0001
0010
0001
,
1000
0000
0000
0000
,
1020
0000
0000
0000
0130
1000
0100
0010
,
1010
1000
0001
0011
0000
1100
0000
1001
,
1000
0000
0010
0000
0100
0000
0101
0000
0000
0000
0001
0000
1000
0000
0001
0010
,
0100
0000
1100
0010
1001
0000
0101
0010
,
1001
0000
1000
0001
0010
0010
0010
0100
,
1100
1000
0001
0101
0000
1010
0000
1001
,
1000
0000
0100
0000
0010
0000
0011
0000
0000
0000
0001
0000
1000
0000
0001
0100
,
0010
0000
1000
0000
0001
0000
1000
0000
0100
0000
0010
0000
0100
0000
1000
0001
,
1000
0000
0000
0000
0001
0100
0001
0000
1000
0000
1000
0000
0100
0000
0000
0000
,
2000
0001
3010
0200
0001
0310
2000
0001
,
3100
0010
0001
0010
0100
1000
0001
0001
,
0100
0020
1000
0130
0002
1000
0013
0200
,
1000
0000
0310
0000
0001
0000
0000
0000
0001
0000
1000
0010
0100
0000
0010
0000
,
2000
0001
3100
0020
0001
0130
2000
0001
,
3010
0000
0100
0000
0001
0000
0100
0000
0010
0000
1000
0000
1000
0000
0001
0010
,
0200
1000
0310
0002
0000
1003
0010
0100
,
0001
0000
0001
0110
1000
0000
1001
0000
,
0011
0000
0000
0000
0000
0000
1100
0000
1001
0000
0000
1001
0000
0000
0101
0000
,
0000
0101
0000
0000
0100
0000
0010
0000
1000
0000
0001
0010
0000
0001
0010
0000
,
1100
0000
0000
0000
0000
0000
0011
0000
1001
0000
0000
1001
0000
0000
1010
0000
,
0000
1010
0000
0000
0010
0000
0100
0000
0001
0000
1000
0000
0100
0010
0100
0000
,
1001
0000
0001
0101
0100
0000
1010
0000
,
1001
0000
1000
1100
0200
0000
0310
0010
,
0002
0000
0000
0000
0103
0000
0000
0000
1001
0000
1000
0000
0100
1000
0100
1000
,
0002
0000
0103
0020
0000
0130
1000
0000
,
0101
0000
0000
0000
;
