#TITLE:Cross Over;
#SUBTITLE:;
#ARTIST:HyuN feat. LyuU;
#TITLETRANSLIT:;
#SUBTITLETRANSLIT:;
#ARTISTTRANSLIT:;
#GENRE:Artcore;
#CREDIT:;
#MUSIC:Cross Over.ogg;
#BANNER:Battle Royale 2022.png;
#BACKGROUND:Battle Royale 2022-bg.png;
#CDTITLE:;
#JACKET:Battle Royale 2022-jacket.png;
#SAMPLESTART:42.906;
#SAMPLELENGTH:9.700;
#SELECTABLE:YES;
#OFFSET:0.000;
#BPMS:0.000=200.000
,80.000=100.000
,112.000=200.000
;
#STOPS:;
#ORIGIN:2018;
#PREVIEWVID:Cross Over-preview.mkv;
#JACKET:Cross Over-jacket.png;
#CDIMAGE:;
#DISCIMAGE:;
#BGCHANGES:;
#FGCHANGES:;

//--------------- dance-single - ----------------
#NOTES:
     dance-single:
     :
     Beginner:
     5:
     0,0,0,0,0:
0000
0000
0000
0000
,
0000
0000
0000
0000
,
0000
0000
0000
0000
,
1000
0000
0001
0000
,
1000
0000
0100
0000
,
0001
0000
0100
0000
,
1000
0000
0001
0000
,
0010
0000
1000
0000
,
0010
0000
0001
0000
,
0100
0000
0010
0000
,
1000
0000
0001
0000
,
0100
0000
0001
0000
,
0001
0000
1001
0000
,
0001
0000
0100
0000
,
1000
0000
0100
0000
,
0010
0000
1000
0000
,
1001
0000
0001
0000
,
1001
0000
1000
0000
,
1001
0000
1001
0000
,
0110
0000
0010
0000
,
1000
0000
0001
0000
,
0100
0000
0000
0000
,
0001
0000
0100
0000
,
0010
0000
0000
0000
,
1001
0000
0001
0000
,
0100
0000
0000
0000
,
0110
0000
0010
0000
,
1000
0000
0000
0000
,
1001
0000
0000
0000
,
0001
0000
0000
0000
,
1000
0000
0100
0000
,
1001
0000
0000
0000
,
1001
0000
0000
0000
,
0001
0000
0010
0000
,
1000
0000
0010
0000
,
0001
0000
0000
0000
,
1001
0000
0000
0000
,
1000
0000
0100
0000
,
0001
0000
0100
0000
,
1000
0000
0000
0000
,
1001
0000
0000
0000
,
1001
0000
0010
0000
,
1001
0000
0110
0000
,
1000
0000
0001
0000
,
1001
0000
0000
0000
,
0100
0000
0000
0000
,
0001
0000
0000
0100
,
0100
0000
0000
0000
,
1000
0000
0000
0010
,
0010
0000
0000
0001
,
0001
0000
0000
0000
,
0010
0000
1000
0000
,
1001
0000
0000
0001
,
0001
0000
0000
0100
,
0100
0000
0000
0010
,
0010
0000
0000
0000
,
1000
0000
0000
0001
,
0001
0000
0000
0100
,
0100
0000
0010
0000
,
1000
0000
0001
0000
,
1001
0000
1001
0000
,
0001
0000
0100
0000
,
0110
0000
1000
0000
,
0001
0000
1000
0000
,
0110
0000
1000
0000
,
1001
0000
0001
0000
,
1001
0000
1000
0000
,
0001
0000
1000
0000
,
1001
0000
0000
1000
,
1000
0000
0000
0100
,
0100
0000
0000
0001
,
0001
0000
0000
0000
,
0110
0000
0000
1000
,
1000
0000
0000
0010
,
0010
0000
0100
0000
,
0001
0000
1000
0000
,
0001
0000
0100
0000
,
1000
0000
0100
0000
,
0001
0000
0010
0000
,
0100
0000
0010
0000
,
0001
0000
0010
0000
,
1000
0000
0010
0000
,
0001
0000
0100
0000
,
0010
0000
1000
0000
,
1001
0000
0001
0000
,
0100
0000
0010
0000
,
1000
0000
0100
0000
,
0001
0000
0100
0000
,
0010
0000
0100
0000
,
0010
0000
0001
0000
,
1001
0000
0001
0000
,
0001
0001
0001
0001
;

//--------------- dance-single - ----------------
#NOTES:
     dance-single:
     :
     Easy:
     9:
     0,0,0,0,0:
0000
0000
0000
0000
,
0000
0000
0000
0000
,
0000
0000
0000
0000
,
1000
0001
1000
0000
1001
0000
0001
0100
,
0001
0100
1000
0100
,
0001
0010
1000
0010
,
0001
1000
0100
0001
,
0200
0000
1300
0010
,
1000
0100
0001
0100
,
1000
0100
0001
0100
,
1000
0010
0100
0001
,
2000
3000
1001
0001
,
1000
0010
0100
0000
0101
0000
0001
0000
,
0100
1000
0100
0010
,
0100
0001
1000
0100
,
0002
0000
0103
1000
,
2020
3030
0010
0100
,
0202
0303
0001
1000
,
2002
0000
3003
0001
1000
0000
0010
0000
,
1000
0001
0100
0010
,
2000
0000
3000
0001
1000
0000
0000
0001
,
0100
0000
0000
0010
0000
0000
1000
0000
0000
0000
0000
0000
0000
0000
0001
0000
,
1000
0000
0000
0001
0100
0000
0000
0010
,
1000
0000
0000
0010
0000
0000
0100
0000
0000
0001
0000
0000
0100
0000
0000
0000
,
1010
0000
0000
1000
0001
0000
0000
1000
,
0100
0000
0000
0010
0000
0000
0001
0000
0000
0000
0000
0000
0000
0000
0000
0000
,
0101
0000
0000
0001
0100
0000
0000
0000
,
2002
3003
0000
0000
,
1001
0001
0010
1000
,
0010
0001
0100
0010
,
1010
1000
0100
0010
,
0220
0000
0330
0000
,
1001
1000
0100
0001
,
0100
1000
0010
0100
,
0001
0010
1001
1001
,
2002
0000
3003
0000
,
1001
0001
0010
1000
,
0010
0001
0100
0010
,
1010
1000
0100
0010
,
0022
0000
0033
0001
,
1001
1000
0100
1000
,
1001
1000
0001
0100
,
0110
0000
0000
0010
2000
0000
3001
0000
,
1000
0001
0100
0010
,
1010
1000
0100
0001
,
0100
1000
0010
0100
,
0001
0010
0100
1000
,
0001
0100
0010
1000
,
0001
0001
0100
0010
,
1000
1000
0100
0010
,
0001
0100
0010
1000
,
0100
0010
0001
0100
,
0101
0001
0100
1000
,
0100
0001
0100
0010
,
1000
0100
1000
0010
,
2000
0000
3000
0001
,
1000
0100
0001
0100
,
1000
0010
0100
0001
,
0200
0000
0300
0010
1000
0000
0001
0000
,
1001
1010
0110
0101
,
0001
1000
0100
0000
1100
0000
1000
0000
,
0002
0003
1000
0100
,
2200
3300
1000
0001
,
0200
0300
0010
1010
,
2002
3003
0001
0100
,
0202
0303
0001
1000
,
2002
3003
1000
0001
,
1001
0011
0110
1100
,
1001
0000
0000
0001
,
0001
0000
0000
1000
,
1000
0000
0000
0010
,
0010
0000
0000
0100
,
0102
0000
0000
0103
0000
0000
0010
0000
,
2010
0000
0000
3010
0000
0000
1000
0000
,
2002
3003
2002
3003
,
0011
0000
0011
0000
2000
0000
3100
1000
,
0001
0010
0100
1000
,
0001
0100
1000
0100
,
0001
0010
0100
1000
,
0001
0100
0010
1000
,
0001
1000
0010
0100
,
1000
0100
0001
1000
,
0010
0100
0001
0010
,
0100
1000
0001
1000
,
1001
0001
0100
1000
,
0001
0010
1000
0001
,
0100
0010
1000
0100
,
0010
0001
0100
0010
,
1000
0100
1000
0001
,
0100
0010
0100
0001
,
2002
3003
1010
0000
,
1100
1010
1001
0101
;

//--------------- dance-single - ----------------
#NOTES:
     dance-single:
     :
     Medium:
     11:
     0,0,0,0,0:
0000
0000
0000
0000
,
0000
0000
0000
0000
,
0000
0000
0000
0000
,
1000
0001
1000
0000
1001
0000
0001
0100
,
0020
0000
0030
0000
1000
0100
0001
0000
,
0200
0000
0000
0000
1300
0010
0001
0000
,
0020
0000
0000
0000
1030
0100
0001
0000
,
0200
0000
0000
0000
1300
0001
1000
0000
,
0002
0000
0000
0000
0103
1000
0100
0000
,
0002
0000
0000
0000
1003
0010
0001
0000
,
0020
0000
0000
0000
1030
0100
0001
0000
,
0200
0000
0000
0000
1300
0010
0100
0001
,
0010
0100
1000
0000
0001
0100
1000
0000
,
0100
0000
0001
0000
1000
0100
0001
0000
,
0100
0000
0010
0000
0001
0010
1000
0000
,
0010
0000
0001
0000
1000
0100
0010
0000
,
0110
0000
0100
0000
1000
0100
0010
0000
,
0011
0000
0001
0000
0100
0010
1000
0000
,
1001
0000
0001
0100
0001
0000
1000
0010
,
1000
0000
0001
0000
0100
0010
1000
0001
,
1000
0000
0000
0000
0000
0000
0001
0100
0001
0000
0000
0100
0000
0000
0010
1000
,
0010
0000
0000
1000
0000
0000
0001
0000
0000
1000
0000
0000
0010
0000
1000
0100
,
1000
0000
0000
0000
0000
0000
0001
0100
0001
0000
0000
0100
0000
0000
0010
1000
,
0010
0000
0000
0100
0000
0000
0001
0000
0000
1000
0000
0000
0001
0000
0100
0001
,
0100
0000
0000
0001
0000
0000
1000
0000
0000
0001
0000
1000
0001
0000
1000
0100
,
1000
0000
0000
0001
0000
0000
0100
0000
0000
0010
0000
0000
1000
0000
0001
0100
,
0001
0000
0000
1000
0000
0000
0001
0000
0000
0010
0000
0001
0100
0000
0010
0000
,
1010
0000
0000
1000
0000
0000
0001
0000
0000
0100
0000
0000
0010
0000
1000
0000
,
1001
0000
0001
0000
1000
0000
0001
0010
,
2000
0000
3010
0001
0010
0000
0001
0100
,
0001
0100
1000
0100
,
0001
1000
0001
1000
0001
1000
0001
1000
0001
1000
0000
0000
,
1010
0000
0010
0000
1000
0000
0001
0010
,
2000
0000
3010
0100
1000
0000
0001
0100
,
0001
1000
1001
0101
,
0001
0010
0001
0100
0001
1000
0001
0000
,
1001
0000
0001
0000
0100
0000
1000
0100
,
0001
0000
0010
0100
0010
0000
0001
0100
,
0001
1000
0010
0100
,
0001
0100
0001
0100
0001
0100
0001
0100
0001
0100
0000
0000
,
0101
0001
1000
0001
,
0101
0000
0100
0001
1000
0000
0010
0000
,
2020
0000
3030
1000
0100
0000
0010
0001
,
1000
0000
0010
0000
0100
0001
0010
0001
,
1000
0000
0100
0001
0100
0000
1000
0000
,
0001
0000
0100
1000
0100
0000
0001
0000
,
1000
0000
0100
0001
0100
0000
1000
0000
,
0010
1000
0001
0100
,
0100
0000
0001
0100
0010
0000
0001
0000
,
0010
0000
0100
0001
0010
0000
0001
0000
,
1000
0010
1000
0001
1000
0000
0010
0000
,
0100
0100
0001
0010
,
0011
0000
0001
0100
1000
0000
0100
0000
,
0001
0000
1000
0010
0001
0000
0100
0000
,
0020
0000
0000
1000
0000
0000
1030
0000
,
0100
0000
0100
0000
0010
0000
0001
0100
,
0001
0000
1000
0010
1000
0000
0001
0010
,
0100
0000
1000
0010
0100
0000
0001
0000
,
0101
0100
0110
0010
,
1000
0000
0001
0000
1000
0010
0100
0001
,
1000
0100
2000
0000
3001
0010
0200
0000
,
2300
0000
3100
0000
0010
0001
0100
0000
,
0110
0000
0010
0000
1000
0001
0200
0000
,
0310
0001
0020
0000
0031
0100
0001
0000
,
0022
0000
0033
0000
0001
0100
0010
0000
,
2020
0000
3030
0000
1000
0001
1000
0000
,
2002
0000
3003
0001
0100
0010
1000
0000
,
1100
0000
1010
0000
0100
0001
0100
0000
,
0002
0000
0000
0100
0000
0000
1003
0000
,
0002
0000
0000
0010
0000
0000
1003
0000
,
0002
0000
0000
0100
0000
0000
1003
0010
,
0000
1000
0010
0000
0100
0001
0100
0000
,
0201
0000
0000
0301
0000
0000
0100
0000
,
1020
0000
0000
0130
0000
0000
0001
0000
,
2002
3003
2020
3030
,
1100
0000
0011
0000
1000
0000
0001
1000
,
0001
0000
0100
1000
0100
0000
0001
0000
,
0010
0000
1000
0010
0001
0010
0100
0000
,
0010
0000
0100
1000
0001
0000
0100
0000
,
0010
0000
1000
0000
0100
0010
0001
0000
,
1000
0100
0001
0100
1000
0000
0010
0000
,
0100
0010
1000
0100
0010
0001
0010
0000
,
0001
0000
1000
0010
0100
0001
1000
0000
,
0001
0200
0320
0130
,
0201
0000
0301
0100
1000
0100
0010
0000
,
2000
0000
3001
0100
0010
0100
0001
0000
,
2000
0000
3001
0100
0010
0100
0010
0000
,
2000
0000
3001
0100
0010
1000
0001
0100
,
0002
0000
0103
0010
0100
0000
0010
1000
,
0002
1003
1000
0001
,
1001
1000
1010
0010
,
0110
0000
0101
0000
0001
0100
0010
0100
;

//--------------- dance-single - ----------------
#NOTES:
     dance-single:
     :
     Hard:
     15:
     0,0,0,0,0:
0000
0000
0000
0000
,
0000
0000
0000
0000
,
0000
0000
0000
0000
,
0001
1000
0001
1000
0001
0000
0000
0000
0101
0000
0000
0000
0100
0001
0100
0001
,
1000
0100
0001
0100
1000
0010
0100
0000
,
0001
0010
1000
0010
0001
0100
0010
0000
,
1000
0100
0001
0100
1000
0010
0100
0000
,
0201
0000
0000
0000
0301
0000
1000
0010
0100
0000
0001
0000
0100
0000
0001
0000
,
1000
0100
0001
1000
0010
0001
2000
0000
,
3001
0100
1000
0001
0010
1000
0002
0000
,
1003
0100
0010
1000
0010
0001
2000
0000
,
3002
0000
0000
0000
1003
0000
0010
0100
0010
0000
0000
0000
1010
0000
1000
0000
,
0001
0010
0100
1000
0100
0000
0000
0000
1100
0000
1000
0000
0010
0000
0000
0000
,
0001
0010
1000
0010
1000
0100
0001
0000
,
0100
0010
0100
1000
0010
0001
0010
0000
,
2000
0000
0000
0000
3001
0000
1000
0010
0100
0000
0001
0000
1000
0000
0000
0000
,
1001
0001
0010
1000
0010
0100
0010
0000
,
0011
0001
0010
1000
0010
0001
0100
0000
,
0101
0001
0000
0100
0101
0000
0001
1000
,
1001
0000
0101
0000
0110
0000
0010
1000
,
2002
0000
0000
0000
3003
0000
0001
1000
0001
0000
0000
0100
0000
0000
0010
1000
,
0010
0000
0000
0100
0001
0000
0100
0010
0000
1000
0100
0000
1000
0000
0010
1000
,
0010
0000
0100
0001
0000
0000
1000
0010
1000
0000
0000
0001
0000
0000
1000
0010
,
1000
0000
0000
0010
0000
0000
0100
0001
0000
1000
0100
0000
0010
0000
0001
0000
,
1001
0000
0000
1000
0000
0000
0010
0100
0010
1000
0000
0001
0100
0000
0010
1000
,
0010
0000
0000
1000
0000
0000
0100
0000
0010
0001
0000
0100
0010
0000
1000
0001
,
1001
0000
0000
1000
0000
0000
0010
0100
0010
1000
0000
0100
1000
0000
0010
0000
,
1010
0000
0000
1000
0000
0000
0001
0000
0000
1000
0000
0000
0001
0010
0100
1000
,
0001
0010
1000
0010
0001
0100
0010
1000
,
0001
0010
1000
0010
0001
0100
0010
1000
,
1010
0000
0010
0100
0000
0001
0100
0000
,
0001
0000
1000
0000
0001
0000
0100
0000
0010
0000
0100
0000
0001
0000
1000
0000
0001
0000
1000
0000
0000
0010
0000
0000
,
1010
0000
1000
0100
0001
0100
1000
0010
,
0200
0000
0301
0010
0000
0100
0010
0001
,
1000
0100
0010
0001
0011
0000
1001
0000
,
1010
0010
1000
0100
1000
0010
0100
0001
,
1001
0000
1000
0100
0010
0100
1000
0001
,
0010
1000
0010
0100
0010
0100
1000
0010
,
0110
0100
0001
1000
,
0001
0000
0010
0000
0001
0000
1000
0000
0100
0000
1000
0000
0010
0000
0100
0000
0001
0000
1000
0000
0000
0001
0000
0000
,
1001
0000
0001
0100
1000
0100
0001
1000
,
2010
0000
0000
3010
0000
0000
0100
0000
,
0110
0000
0000
0100
0101
0000
0001
1000
,
0001
0000
1000
0010
1000
0000
0001
0000
0100
0000
0010
0000
1000
0000
0100
0000
,
1000
0010
1000
0010
0001
0010
1000
0001
,
1000
0100
1000
0100
0001
0100
1000
0010
,
2000
0000
0000
0010
0000
0000
0100
0000
,
3001
0100
0010
1000
,
0001
0100
0001
0100
1000
0100
0001
1000
,
0001
0010
1000
0010
0001
0010
0001
0100
,
0020
0000
0000
1000
0000
0000
0130
0000
,
0010
1000
0001
1000
,
1001
1000
0100
0001
0100
0001
0100
1000
,
0001
0100
1000
0001
0010
1000
0001
0100
,
0002
0000
0000
1000
0000
0000
0100
0000
,
1003
0000
0010
0000
0100
0000
0001
0100
,
0002
0000
0103
0020
0000
0000
1030
0010
,
0200
0000
0301
0100
0000
0000
0010
0000
,
1000
0010
0001
0010
1000
0100
0001
0100
,
1000
0000
0010
1000
0010
0000
0100
0001
0100
0000
0001
0010
0001
0000
1000
0000
,
0001
1000
0100
0010
0001
0000
0000
0000
1001
0000
1000
0000
0100
0000
0000
0000
,
0002
0000
0000
0000
0103
0000
1000
0001
1000
0000
0010
0000
0100
0000
0000
0000
,
0102
0000
0000
0000
0013
1000
0010
0000
,
0001
0000
0100
0010
0100
0000
0001
1000
0001
0000
0100
0000
0110
0000
0000
0000
,
1010
0000
1000
0000
0010
0000
0100
0001
0100
0000
0010
0000
0001
0000
0000
0000
,
0101
0000
0001
0000
0100
0000
0010
1000
0010
0000
0100
0000
0001
0000
1000
0000
,
2002
0000
3003
0000
0101
0100
0001
1000
,
0001
0000
1000
0100
0010
0000
0001
0010
0100
0000
1000
0001
1000
0100
0010
0001
,
2000
0000
0000
0100
0000
0000
3001
0000
,
0002
0000
0000
0100
0000
0000
1003
0000
,
2000
0000
0000
0100
0000
0000
3001
0100
,
0000
0001
0010
0100
1000
0001
1000
0000
,
2001
0000
0000
3001
0000
0000
0100
0000
,
2010
0000
0000
3001
0000
0000
0100
0000
,
1010
0000
1000
0001
1001
0000
0001
0100
,
0001
0000
1000
0010
0100
0000
0001
0000
0200
0000
0000
0000
0301
1000
0010
0100
,
0001
0010
1000
0001
0100
1000
0001
0000
,
0001
0000
0100
0000
0010
0000
1000
0010
0200
0000
0000
0000
0301
0000
0000
0000
,
0001
0100
0001
0100
1000
0100
0001
0010
,
0001
0010
0100
1000
0001
0100
0010
0000
,
1000
0100
1000
0100
0001
0100
0010
0100
,
1000
0000
0001
0000
1000
0000
0100
1000
0010
0000
0100
0001
1000
0000
0001
0000
,
1000
0100
0010
0100
0010
0100
1000
0010
,
0100
0001
0100
0010
,
1010
0010
1000
0100
0001
0100
1000
0010
,
1000
0010
0001
0010
0100
0001
0100
1000
,
0100
0001
0100
0010
1000
0100
0010
0001
,
0200
0000
0310
0000
0100
0000
0001
1000
,
0001
0000
0000
0000
1000
0001
1000
0000
0100
0000
0010
0000
0001
0000
0000
0000
,
2000
0000
0000
0000
3010
0100
0010
0000
0000
0000
1000
0000
0001
0000
0010
0000
,
0011
0000
0001
0100
0110
0000
0010
1000
,
0010
0000
1000
0001
1000
0000
0010
0100
0001
0000
1000
0010
0100
0001
0010
0100
;

//--------------- dance-single - ----------------
#NOTES:
     dance-single:
     :
     Challenge:
     18:
     1.127622,1.355263,0.384842,1.408358,1.150432,964,911,47,172,0,9,9,0,0,1.127622,1.355263,0.384842,1.408358,1.150432,964,911,47,172,0,9,9,0,0:
0000
0000
0000
0000
,
0000
0000
0000
0000
,
0000
0000
0000
0000
,
1000
0010
0001
0010
1000
0000
0000
0000
0002
0000
0000
0000
1003
0100
0001
0100
,
1000
0000
0001
0000
0100
0000
0010
1000
0001
0000
0100
0000
1000
0000
0100
0000
,
0001
0000
1000
0000
0001
0000
0010
0100
0010
0000
0001
0000
0100
0000
1000
0000
,
0200
0000
0000
0000
0301
0000
1000
0001
1000
0000
0001
0000
0010
0000
0100
0000
,
2000
0000
0000
0000
0000
0000
3001
1000
0001
0000
0100
0000
1000
0000
0100
0000
,
0001
0000
1000
0000
0010
0000
0100
0001
1000
0000
0001
0000
1000
0000
0010
0000
,
0001
0000
0010
0000
1000
0000
0001
0010
0100
0000
1000
0000
0010
0000
0001
0000
,
0010
0000
1000
0000
0100
0000
1000
0001
0010
0000
0100
0000
1000
0000
0010
0000
,
0001
0010
1000
0001
1001
0000
0011
0001
,
1000
0010
0001
0010
1000
0000
0000
0000
1001
0000
1000
0000
0010
0000
0100
0000
,
0010
1000
0100
0010
0001
1000
0010
0100
0001
0010
0100
1000
0002
0000
0000
0000
,
0103
0000
0010
1000
0100
0010
0001
0100
0010
1000
0010
0000
0100
0001
0100
0000
,
0001
0010
0001
1000
0001
0100
0010
1000
0001
0010
0100
1000
0001
0000
0000
0000
,
0011
0000
0010
0001
0010
0000
0100
1000
0010
1000
0001
0000
0100
0000
0000
0000
,
1001
0000
0001
1000
0001
0000
1000
0010
0100
0010
1000
0000
0100
0000
0000
0000
,
0110
0000
0010
0001
0010
0000
0100
0000
1100
0000
1000
0010
0100
0001
1000
0000
,
1001
0000
0001
0000
0011
0000
0010
0000
0110
0000
0100
0000
1000
0001
1000
0001
,
0020
0000
0000
0000
0030
0000
0100
1000
0100
0010
0001
1000
0000
0000
0001
0010
,
1000
0010
0100
0010
0001
0000
1000
0010
0000
0100
0001
0000
0010
0000
0100
1000
,
0001
0100
0010
1000
0010
0001
0010
1000
0001
0000
0000
0010
0100
0000
1000
0001
,
0010
0100
0000
1000
0010
0000
0100
0001
0000
0010
0100
0000
1000
0010
1000
0001
,
1001
0000
0000
1000
0000
0000
0001
0010
1000
0000
0000
0010
0000
0000
0001
0100
,
1000
0000
0000
0100
0000
0000
0001
0000
0000
0010
0000
0000
0100
0000
1000
0010
,
1010
0000
0000
0100
0000
0000
0001
0010
0100
0010
0000
0001
0010
0000
0100
1000
,
1010
0000
0000
0000
0000
0000
0100
0000
0000
0000
0000
0000
0001
0000
0000
0000
0000
0000
0010
0000
0000
0000
0000
0000
0001
0100
0010
1000
0001
0010
0100
1000
,
0001
0010
1000
0010
0100
0010
0001
1000
,
0010
0001
0010
1000
0100
0001
0100
1000
,
1010
0000
0010
0100
0001
0010
0100
0000
1000
0000
0001
0000
1000
0000
1000
0000
,
0001
0000
0010
0000
0001
0000
1000
0000
0100
0000
1000
0000
0001
0000
0010
0000
0001
0000
1000
0000
0000
0010
0000
0000
,
1010
0000
1000
0000
0001
0000
1000
0010
0100
0001
1000
0000
0001
0000
0100
0000
,
1000
0100
0001
1000
0010
0001
0010
0100
,
0001
0010
0100
0010
0011
0001
1001
1000
,
0001
0010
0001
0100
0010
1000
0100
1000
0001
0100
0010
1000
0100
0010
0001
1000
,
0001
0010
1000
0010
0001
0010
0100
1000
,
0001
0100
1000
0001
0010
1000
0001
0010
,
0011
0000
0101
0000
0011
0000
0010
0100
,
1000
0000
0010
0000
0100
0000
0001
0000
0010
0000
0100
0000
1000
0000
0010
0000
1000
0000
0001
0000
0000
0010
0000
0000
,
0011
0001
0010
1000
0010
0001
0010
0100
,
1100
1000
0010
0001
0010
1000
0100
0010
,
0011
0000
0000
0000
0001
0000
1000
0000
0001
0000
1000
0010
0100
0001
0010
0100
,
1000
0010
1000
0100
0010
0001
0100
0001
1000
0010
0100
0001
1000
0100
0010
0001
,
1000
0100
0001
1000
0010
0001
1000
0010
,
1000
0100
0001
1000
0010
0001
1000
0100
,
1000
0010
0001
1000
0100
0001
1000
0010
,
0100
0001
0100
0001
0010
0001
1000
0000
,
0001
0100
1000
0001
0010
1000
0001
0100
,
0001
0010
1000
0001
0100
1000
0001
0010
,
0001
0100
1000
0001
0010
1000
0001
0010
,
0001
1000
0002
0000
2003
0000
3100
0000
,
1001
0001
0010
1000
0010
0001
0100
0010
,
0001
0100
1000
0100
0001
0010
0100
1000
,
0001
0010
0100
1000
0001
1000
0100
1000
,
0001
1000
1001
0000
0001
0010
0011
0000
,
0001
0010
1000
0001
0100
1000
0001
0010
,
0001
0100
1000
0001
0010
1000
0001
1000
,
0001
0100
0010
1000
0001
0100
0001
0010
0100
1000
0010
1000
0001
0100
0010
1000
,
0001
0100
0001
0100
0010
1000
0100
0010
0001
1000
0001
1000
0100
1000
0100
0010
,
0001
0010
1000
0010
0001
0000
0000
0000
0011
0000
0010
0000
0001
0000
0100
0000
,
0001
0000
0000
1000
0001
0000
1000
0000
1001
0000
0001
0000
0100
0000
0000
0000
,
0201
0000
0301
0000
1000
0010
0001
0000
,
0010
0000
1000
0001
1000
0000
0001
0010
0100
0000
1000
0000
1100
0000
0000
0000
,
1010
0000
1000
0000
0100
0000
0010
0100
0010
0000
1000
0000
0001
0000
0000
0000
,
1001
0000
1000
0000
0010
0000
1000
0001
1000
0000
0100
0000
0010
0000
0000
0000
,
0011
0000
0001
0000
0100
0000
0010
0100
0001
0000
0010
0000
0100
0000
0000
0000
,
1100
0000
0000
0000
1010
0000
1000
0100
1000
0000
0100
0000
0010
0000
0001
1000
,
0001
0100
1000
0100
0010
1000
0001
1000
,
0001
0010
1000
0010
0100
1000
0001
0010
,
0001
0100
1000
0100
0010
1000
0001
0010
,
0001
0100
0001
0100
1000
0100
0001
1000
,
1001
0001
0100
1000
0100
0001
0010
0100
,
1010
1000
0100
0001
0100
1000
0100
0010
,
0011
0001
1000
0100
1100
1000
0010
1000
,
1001
0000
0001
0000
0011
0000
0010
0000
0200
0000
0000
0000
1300
0100
0001
0100
,
1000
0100
0001
1000
0010
0100
1000
0001
,
1000
0000
0010
0000
0100
0000
0001
0010
0100
1000
0001
0100
0010
1000
0100
1000
,
0001
0000
0100
0000
0101
0000
0001
1000
0001
0000
1000
0100
0010
0001
0010
0100
,
0010
0000
0001
0100
0001
0000
1000
0100
0010
0001
1000
0010
0100
0001
1000
0000
,
0001
0000
1000
0010
0100
0001
0010
0100
1000
0010
0100
0001
1000
0000
0010
0000
,
1000
0000
0001
0010
0100
1000
0100
1000
0001
0100
0010
1000
0001
0100
0001
0100
,
0010
0000
1000
0100
0010
0001
0100
0010
1000
0001
0010
0100
1000
0010
1000
0001
,
0100
0000
0010
0000
1010
0000
0000
0000
1000
0001
1000
0001
1000
0000
0010
0000
,
1010
0000
1000
0000
0001
0010
0100
1000
0001
0100
0010
1000
0001
0000
0100
0000
,
1000
0000
0100
0000
0001
0000
1000
0010
0100
0001
0010
0100
1000
0001
0010
0001
,
0100
0000
0010
0000
1000
0100
1000
0010
0100
0001
0010
0001
0100
0010
1000
0001
,
1000
0100
0001
0100
0010
0100
1000
0001
,
1000
0000
0001
0000
1000
0100
0010
0001
1000
0010
0100
0001
1000
0000
0001
0000
,
1000
0000
0001
0100
0010
1000
0001
0000
1000
0000
0100
0010
0001
0100
0010
0000
,
1010
0000
1000
0100
0010
0001
0100
0010
1000
0000
0001
0100
0001
0000
1000
0000
,
1001
0001
0101
0100
0110
0010
1010
1000
,
0100
0000
0000
0000
;

//--------------- dance-double - ----------------
#NOTES:
     dance-double:
     :
     Hard:
     16:
     0,0,0,0,0:
00000000
00000000
00000000
00000000
,
00000000
00000000
00000000
00000000
,
00000000
00000000
00000000
00000000
,
00010000
00001000
00010000
00001000
00010000
00000000
00000000
00000000
00010100
00000000
00000000
00000000
00000100
00001000
00000100
00001000
,
00000001
00000010
00001000
00010000
01000000
10000000
00020000
00000000
,
10030000
01000000
00010000
00001000
00000010
00000001
00002000
00000000
,
00003001
00000100
00001000
00010000
00001000
00100000
00020000
00000000
,
20030000
00000000
00000000
00000000
30010000
00000000
01000000
00001000
01000000
00000000
00010000
00000000
00100000
00000000
00000000
00000000
,
00001000
01000000
10000000
01000000
00010000
00100000
00001000
00000000
,
00010000
00001000
00000100
00000010
00000100
00001000
00020000
00000000
,
00031000
00010000
00100000
01000000
00100000
00010000
00002000
00000000
,
00013000
00000000
00000000
00000000
00000010
00000000
00000100
00000001
00000100
00000000
00000000
00000000
00000001
00000000
00001000
00000000
,
00000001
00000010
00000100
00001000
00000001
00000000
00000000
00000000
00000001
00000000
00000010
00000000
00001000
00000000
00010000
00000000
,
01000000
00000000
10000000
00010000
10000000
00000000
00010000
01000000
00010000
00000000
00100000
00000000
00002000
00000000
00000000
00000000
,
00013000
00001000
00000010
00001000
00010000
00001000
00200000
00000000
,
00320000
00000000
00000000
00000000
10030000
00000000
00010000
01000000
00100000
00000000
10000000
00000000
00010000
00000000
00000000
00000000
,
10010000
10000000
01000000
00010000
00001000
00000010
00000001
00000000
,
00000011
00000000
00000001
00000000
00001000
00000000
00000100
00001000
00000100
00010000
00001000
00010000
00000100
00000000
00000000
00000000
,
00010100
00000100
00010000
00001000
00011000
00010000
00001000
00100000
,
00010000
00000000
10000000
00010000
10000000
00000000
00010000
01000000
00100000
00000000
10000000
01000000
00100000
00010000
01000000
00010000
,
02000000
00000000
00000000
00000000
03000000
00000000
00010000
00100000
00010000
00000000
00000000
00100000
00000000
00000000
00010000
00100000
,
00010000
01000000
00000000
00001000
00010000
00000000
00000100
00001000
00000000
00000001
00000010
00000100
00010000
00001000
00010000
00000100
,
00010000
00000000
00001000
00010000
00000010
00000000
00001000
00000100
00010000
00001000
00000000
00100000
00010000
00000000
10000000
01000000
,
00100000
00001000
00000000
00010000
00001000
00000000
00100000
00010000
00000000
00100000
00001000
00000000
00010000
00000100
00001000
00000010
,
00001010
00000000
00001000
00000100
00000000
00000010
00000001
00000100
00000010
00000100
00000000
00000001
00000010
00000000
00000001
00001000
,
00000100
00000000
00000000
00010000
00000000
00000000
00000100
00000000
00000000
00010000
00000000
00000000
00001000
00000000
00001000
00010000
,
00011000
00000000
00001000
00010000
00000000
00001000
00100000
00010000
00100000
00010000
00000000
00100000
00001000
00000000
00010000
00000000
,
00011000
00000000
00000000
00001000
00000000
00000000
01000000
00000000
00000000
10000000
00000000
00000000
01000000
00010000
00100000
00010000
,
00110000
00100000
01000000
10000000
00100000
10000000
01000000
00010000
,
00001000
00010000
01000000
10000000
00001000
00010000
00001000
00010000
,
00010100
00000100
00001000
00000010
00000100
00000001
00000010
00000100
,
00000010
00000000
00000100
00000000
00001000
00000000
00000100
00000000
00000010
00000000
00000001
00000000
00001000
00000000
00000100
00000000
00010000
00000000
00001000
00000000
00000000
00010000
00000000
00000000
,
00011000
00001000
00010000
00001000
00000010
00000001
00000010
00000100
,
00000001
00000010
00001000
00010000
01000000
10000000
00010000
01000000
,
00001000
00010000
00001000
00010000
00010100
00000000
00001100
00000000
,
00001000
00000000
00000001
00001000
00000010
00000100
00000001
00000010
00000100
00001000
00000001
00001000
00000010
00000000
00000100
00000000
,
00000101
00000001
00000010
00000100
00001000
00000100
00001000
00000001
,
00000100
00010000
00000100
00001000
00010000
00100000
10000000
01000000
,
11000000
00000000
10000000
01000000
00010000
01000000
10000000
00000000
,
00010000
00000000
00100000
00000000
00010000
00000000
10000000
00000000
00010000
00000000
00100000
00000000
00001000
00000000
00010000
00000000
00001000
00000000
00010000
00000000
00000000
00000100
00000000
00000000
,
00001100
00001000
00000100
00000001
00000100
00001000
00000010
00001000
,
00001100
00000100
00010000
00001000
00100000
00010000
10000000
00010000
,
00110000
00000000
00100000
00000000
01000000
00000000
10000000
00000000
00010000
00000000
10000000
01000000
00100000
00010000
01000000
00100000
,
10000000
00000000
00010000
01000000
00010000
00000000
10000000
01000000
00100000
00010000
00100000
00010000
10000000
00100000
01000000
00010000
,
10000000
00100000
00010000
00001000
00000100
00000001
00000100
00000100
,
00000001
00000010
00001000
00010000
01000000
10000000
00100000
00100000
,
10000000
01000000
00010000
00001000
00000010
00000001
00000010
00000001
,
00001000
00000100
00001000
00000100
00000010
00000001
00000010
00000010
,
00000001
00000100
00001000
00000001
00000010
00010000
00001000
00010000
,
00001000
01000000
10000000
00010000
00100000
10000000
00010000
00010000
,
10000000
01000000
00010000
00001000
00000010
00000001
00001000
00000100
,
00001000
00000100
00010000
00000000
00001000
00000000
00010000
00000000
,
00011000
00010000
00000100
00000010
00000100
00010000
00001000
01000000
,
00100000
01000000
00001000
00100000
00010000
10000000
01000000
00100000
,
00001000
00010000
00001000
00100000
00001000
00000010
00001000
00010000
,
00001000
00010000
00000100
00000010
00001000
00000001
00000100
00000001
,
00001000
00000100
00000010
00001000
00000010
00000100
00001000
00000001
,
00000100
00001000
00000100
00000010
00010000
00001000
00010000
00001000
,
01001000
00000000
01000000
00100000
01000000
00000000
00100000
00000000
10100000
00000000
10000000
01000000
10000000
00000000
00010000
00000000
,
01010000
00000000
01000000
00010000
01000000
00000000
00001000
00010000
00001000
00010000
00001000
00010000
00001000
00000000
00000000
00000000
,
00100000
00010000
01000000
00100000
10000000
00000000
00000000
00000000
10010000
00000000
10000000
00000000
02000000
00000000
00000000
00000000
,
03100000
00000000
00001000
00010000
00001000
00000000
00000000
00000000
00010000
00000000
00000010
00000000
00001000
00000000
00000000
00000000
,
00001020
00000000
00000130
00000000
00000001
00000100
00001000
00000000
,
00000100
00000000
00000001
00000100
00000010
00000000
00010000
00000100
00001000
00000000
00000100
00000000
00010100
00000000
00000000
00000000
,
00101000
00000000
00001000
00000000
00100000
00000000
00010000
10000000
01000000
00000000
00100000
00000000
00010000
00000000
00000000
00000000
,
00110000
00000000
00100000
00000000
00001000
00000000
00010000
00000100
00010000
00000000
00001000
00000000
00010000
00000000
00000000
00000000
,
00020020
00000000
00030030
00000000
00000110
00000100
00000001
00000000
,
00001000
00000000
00000001
00000010
00000100
00000000
00001000
00000100
00000010
00000000
00000001
00001000
00000100
00001000
00000010
00000100
,
00000002
00000000
00000000
00001000
00000000
00000000
00000103
00000000
,
00000200
00000000
00000000
00001000
00000000
00000000
00000010
00000000
,
00000320
00000000
00000000
00010000
00000000
00000000
00001030
00000000
,
00000100
00010000
00000100
00000000
00010000
00001000
00100000
00010000
,
01020000
00000000
00000000
00130000
00000000
00000000
10000000
00000000
,
20010000
00000000
00000000
31000000
00000000
00000000
00100000
00000000
,
00011000
00010000
00000100
00001000
00001100
00000100
00001000
00000001
,
00000101
00000000
00000000
00000000
00000110
00000000
00000000
00000000
00000020
00000000
00000000
00000000
00001030
00000100
00010000
00000100
,
00001000
00000010
00000100
00001000
00000100
00000010
00001000
00000100
,
00010000
01000000
00100000
00010000
00100000
01000000
00010000
00100000
,
00001000
00010000
00100000
00010000
00000100
00010000
00001000
01000000
,
00100000
00000000
10000000
00010000
10000000
00000000
00010000
01000000
00010000
00000000
10000000
00000000
00010000
00000000
10000000
00000000
,
00010000
00100000
10000000
00010000
01000000
10000000
00010000
00100000
,
00001000
00000010
00000100
00001000
00000100
00000010
00001000
00000001
,
00001000
00000000
00000100
00000000
00010000
00000000
00001000
00000000
00010000
00000000
00001000
00100000
00001000
00000000
00010000
00000000
,
00001000
00010000
00000100
00000010
00000100
00001000
00000001
00000010
,
00000011
00000001
00001000
00000100
00100000
00010000
10000000
01000000
,
00100000
00000000
00010000
00000000
10000000
00000000
00100000
01000000
00010000
00100000
01000000
10000000
00100000
01000000
00010000
10000000
,
00010000
00100000
00001000
00010000
00000010
00000100
00000001
00000100
,
00000001
00000010
00000100
00001000
00000100
00000010
00000001
00001000
,
00000100
00000000
00010000
00001000
00010000
00000100
00010000
00000100
00001000
00000010
00000100
00000010
00001000
00000000
00000001
00000000
,
00001000
00000100
00001000
00000010
00001000
00000100
00010000
00001000
,
00101000
00100000
00010000
01000000
01010000
00010000
00100000
00010000
,
01010000
00000000
00010000
00100000
00001000
00000000
00010000
00001000
00100000
00000000
00001000
01000000
00001000
01000000
00001000
01000000
;
