#TITLE:超!!遠距離らぶ♡メ~ル;
#SUBTITLE:;
#ARTIST:ななひら;
#TITLETRANSLIT:Chou!! Enkyori love ma~il;
#SUBTITLETRANSLIT:;
#ARTISTTRANSLIT:Nanahira;
#GENRE:乙女EDM;
#CREDIT:;
#MUSIC:Chou!! Enkyori love ma~il.ogg;
#BANNER:Chou!! Enkyori love ma~il.png;
#BACKGROUND:Chou!! Enkyori love ma~il-bg.png;
#CDTITLE:;
#SAMPLESTART:49.625;
#SAMPLELENGTH:15.000;
#SELECTABLE:YES;
#OFFSET:1.346;
#BPMS:0.000=130.000;
#STOPS:;
#BGCHANGES:;
#FGCHANGES:;

//--------------- dance-single - forcednature ----------------
#NOTES:
     dance-single:
     forcednature:
     Beginner:
     4:
     0,0,0,0,0:
0000
0000
0000
0000
,
0000
0000
0000
0000
,
0000
0000
0000
0000
,
0000
0000
0000
0000
,
0000
0000
0000
0000
,
0001
0000
0001
0000
,
1000
0000
1000
0000
,
0010
0000
0100
0000
,
0010
0100
0010
0000
,
1001
0000
1000
0000
,
0100
0000
0010
0000
,
0001
0000
0100
0000
,
0010
0000
0100
0100
,
0001
0000
1000
0000
,
0100
0000
1000
0000
,
0010
0000
1000
0000
,
0001
0000
1000
1000
,
1000
0000
0001
0000
,
0100
0000
0001
0000
,
0010
0000
0001
0000
,
0001
0001
0001
0000
,
1001
0000
1000
0000
,
0100
0000
0010
0000
,
0110
0000
0001
0000
,
0100
0000
0010
0000
,
2002
0000
3003
0000
,
0220
0000
0330
0000
,
0100
0100
0100
0000
,
2002
0000
3003
0000
,
0001
0000
0100
0000
,
0010
0000
1000
0000
,
0100
0000
0010
0000
,
1001
0000
1000
0000
,
0010
0000
0100
0000
,
0001
0001
0001
0000
,
1000
1000
1000
0000
,
2002
0000
3003
0000
,
0001
0000
0010
0000
,
0100
0000
1000
0000
,
0010
0000
0100
0000
,
1001
0000
0001
0000
,
0010
0000
0100
0000
,
1000
1000
1000
0000
,
0001
0001
0001
0000
,
1001
0000
0000
0000
,
0110
0000
0000
0000
,
1001
0000
0000
0000
,
0110
0000
0000
0000
,
0100
0100
0100
0000
,
0010
0010
0010
0000
,
1000
0000
0001
0000
,
1000
0001
1000
0001
,
0200
0000
0000
0300
,
0020
0000
0000
0030
,
2000
0000
0000
3000
,
0002
0000
0000
0003
,
2002
0000
3003
0000
,
0220
0000
0330
0000
,
1001
0000
0110
0000
,
1001
1001
1001
0000
,
2002
0000
3003
0000
,
0001
0000
0100
0000
,
0010
0000
1000
0000
,
0100
0000
0010
0010
,
0010
0000
0100
0000
,
1000
0000
0001
0000
,
0100
0100
0100
0100
,
0010
0010
0010
0000
,
2002
0000
0000
0000
,
3003
0000
0000
0000
;

//--------------- dance-single - forcednature ----------------
#NOTES:
     dance-single:
     forcednature:
     Easy:
     8:
     0,0,0,0,0:
0000
0000
0000
0000
,
0000
0000
0000
0000
,
0000
0000
0000
0000
,
0000
0000
0000
0000
,
0000
0000
0000
0000
0000
0000
0001
0001
,
1001
0000
0010
0000
1000
0001
0010
0000
,
0100
0000
1000
0000
0010
0100
0010
0000
,
1000
0000
0100
0000
0010
0001
0100
0000
,
0010
0000
1000
0000
0001
0010
0100
0010
,
0002
0100
1000
0013
,
2000
0100
0001
3010
,
0002
0010
1000
0103
,
2000
0000
0010
0000
0001
0001
0001
3001
,
1001
0000
1000
0000
0010
0100
0010
0000
,
1000
0000
0001
0000
0010
0100
1000
0000
,
0010
0000
0100
0000
0001
1000
0001
0000
,
0010
0000
0100
0000
1000
1000
0001
0001
,
1001
0000
0001
0000
0100
1000
0100
0001
,
0100
0000
0001
0000
1000
0100
0001
0100
,
1000
0000
0010
0000
0100
0100
0001
0000
,
0010
0010
0100
0100
2000
0000
3000
0000
,
0202
0303
2200
3300
,
0022
0033
1000
0010
,
2200
3300
0202
0303
,
0220
0330
1000
0001
,
1002
0000
0100
0000
1000
0000
0013
0001
,
1000
1000
0100
0100
0010
0010
0001
0001
,
0100
0100
0100
0100
0100
0000
0000
0000
,
2002
0000
0000
0000
3003
0001
0100
0010
,
2000
0000
3100
0020
0000
0000
0230
0000
,
2300
0000
3001
0200
0000
0000
0320
0000
,
2030
0000
3001
0020
0000
0000
0130
0100
,
0100
0020
0032
0203
,
0320
2030
3200
2300
,
3020
0000
0100
0000
0100
0000
1030
0001
,
0010
0010
0100
0100
1000
0001
1000
0000
,
2002
0000
0000
3003
,
0002
0000
0103
0020
0000
0000
2030
0000
,
3200
0000
0310
0200
0000
0000
2300
0000
,
3002
0000
0013
0002
0000
0000
0103
0100
,
0110
2000
3002
0023
,
0230
0320
0032
0203
,
0310
0000
0001
1000
0010
0000
0100
0000
,
0001
0001
1000
1000
0100
0100
0100
0000
,
0010
0000
0000
0010
0000
0000
0010
0000
0002
0000
0000
0000
0003
0000
0000
0000
,
1000
0000
0000
1000
0000
0000
1000
0000
0020
0000
0000
0000
0130
0000
0000
0000
,
0001
0000
0001
0010
0200
0000
1300
1000
,
0010
0000
0000
0010
0000
0000
0010
0000
0100
0000
0001
0000
0100
0000
0000
0000
,
1010
0000
1010
0000
0001
0010
0100
0000
,
0011
0000
0011
0000
1000
0010
0100
0000
,
1001
0100
1001
0010
,
1000
1000
0001
0001
0100
0010
0100
0000
,
2002
0000
3000
0000
0000
0023
0000
0000
,
0230
0000
0000
2300
0000
0000
3020
0000
,
0230
0000
0000
0302
0000
0000
2003
0000
,
3200
0000
0000
0020
0000
0000
0330
0000
,
2002
0000
0000
0000
0000
3003
0000
0100
,
0220
0000
0000
0000
0000
0330
0000
1000
,
2020
0000
3030
0001
0022
0000
0033
0100
,
0100
0010
0010
0100
0220
0000
0330
0000
,
2002
0000
0000
3003
,
2000
0000
3010
0200
0000
0000
0302
0000
,
0023
0000
0130
0020
0000
0000
0032
0000
,
2003
0000
3010
0200
0000
0000
0301
0001
,
0101
2000
3020
0032
,
0023
0000
2030
0000
3200
0000
0310
0010
,
0110
0000
1000
0001
0100
0000
0001
0000
,
1000
0100
1000
0100
0010
0001
0100
0000
,
2002
0000
0000
0000
,
3003
0000
0000
0000
;

//--------------- dance-single - forcednature ----------------
#NOTES:
     dance-single:
     forcednature:
     Medium:
     12:
     0,0,0,0,0:
0000
0000
0000
0000
,
0000
0000
0000
0000
,
0000
0000
0000
0000
,
0000
0000
0000
0000
,
0000
0000
0000
0000
0000
0000
0000
0000
0000
0000
0000
0000
0000
1000
0001
1000
,
0001
0000
0000
1010
0000
0000
0001
0000
0010
0000
0100
0000
0110
0000
0000
0000
,
1000
0000
0000
0001
0000
0100
0000
0000
1000
0000
0100
0000
0010
0000
1000
0000
,
0001
0000
0000
0010
0000
0000
1000
0000
0010
0000
0000
0100
0000
1000
0000
0000
,
0001
0100
0001
0010
0100
0100
0100
0000
,
2001
0010
3002
0010
,
2003
0100
0001
0010
,
3002
0100
2003
0100
,
3002
0000
0000
0000
0010
0000
0000
0000
1000
0000
1000
0000
1003
0000
1000
0001
,
1000
0010
0100
1000
0100
0100
0001
0010
,
0100
0000
0010
0000
0001
0000
1000
0000
0010
0100
0000
0100
0010
0000
0000
0000
,
1000
0000
0001
0000
0010
0000
0001
0000
0100
0000
0100
0010
0000
0000
1000
0000
,
0100
0000
0010
0000
0100
0000
1000
0000
0010
0000
0100
0000
0001
1000
0001
0000
,
0101
0000
0010
0000
1100
0000
0000
0000
0001
1000
0100
1000
0001
0000
0000
0000
,
1100
0000
0010
0000
0101
0000
0000
0000
1000
0001
0100
0001
1000
0000
0000
0000
,
0110
0001
1000
0010
0100
0100
1000
0100
,
0001
0000
0010
0000
0001
0000
0100
0000
0010
1000
0010
1000
0001
0000
1000
0100
,
0020
0001
0230
1000
,
0320
0000
0000
0000
1000
0000
0000
0000
0031
0000
0100
0000
0010
0000
0010
1000
,
0200
0001
0320
1000
,
0032
0100
1000
0013
,
0201
0000
1000
0000
0010
0000
0301
1000
,
1200
1000
0010
0010
0001
0001
0010
0310
,
0100
1000
0100
1000
0001
0100
0001
0100
0010
0000
0000
0000
0000
0000
0000
0000
,
1100
0101
1100
0101
,
1000
0010
0100
0001
0010
0100
0001
0000
,
0100
1000
0010
0001
0010
0100
0001
0000
,
1000
0100
0001
0100
0010
0001
1001
1001
,
1001
0000
0000
0000
0001
0100
0000
0000
0100
0010
0000
0000
0010
1000
0000
0000
,
1000
0001
0000
0000
0001
0010
0000
0000
0010
0100
0000
0000
0100
1000
0000
0000
,
0020
0000
0001
0000
0100
0000
1030
0001
,
0100
0000
1000
0000
0100
0000
0001
1000
0001
0000
0010
0000
0100
0000
1000
0000
,
1010
0101
0011
1100
,
0001
0010
1000
0010
0100
1000
0010
0000
,
0100
1000
0100
0001
0010
0001
0100
0000
,
0010
1000
0100
1000
0001
0100
0110
0110
,
1001
0000
0000
0000
1000
0010
0000
0000
0010
0001
0000
0000
0001
0010
0000
0000
,
0010
1000
0000
0000
0001
0100
0000
0000
0100
1000
0000
0000
1000
0100
0000
0000
,
0110
0000
0000
0000
1000
0000
0001
0010
0100
0000
0000
0000
1000
0000
0001
0000
,
0100
0000
0100
0000
1000
0000
1000
0000
0100
0001
0100
0001
1000
0100
1000
0100
,
0010
0000
0000
0110
0000
0000
1001
0000
1000
0010
0100
0001
1000
0000
0000
0000
,
1010
0000
0000
1001
0000
0000
0101
0000
0001
0010
0100
1000
0001
0000
0000
0000
,
0101
0000
1000
0000
0100
0000
0010
0000
0001
0100
0001
0010
0100
0000
0000
0000
,
1100
0000
0000
0101
0000
0000
0110
0000
1000
0000
0001
0000
0100
0010
0100
0010
,
0100
1000
0100
0001
0100
1000
0100
0001
,
0010
0000
1000
0000
0010
0000
0001
0000
0010
0000
1000
0000
0010
0000
0001
1000
,
0001
0100
1000
0100
0001
0010
1000
0010
,
0100
0000
0100
0000
0010
0000
0010
0000
0001
1000
0001
1000
0001
1000
0001
1000
,
0002
0000
0000
0000
0000
0103
0001
1000
,
0020
0000
1030
0200
0000
0000
0320
0000
,
0230
0000
1300
0020
0000
0000
0230
0000
,
0302
0000
0013
0200
0000
0000
0300
0000
,
2100
0000
0001
0000
0010
0000
3100
1000
,
0102
0000
1000
0000
0010
0000
0103
0001
,
1001
0000
1000
1100
1001
0000
0001
0101
,
1001
0000
1000
0000
0001
0000
0010
0100
1000
0000
0000
0000
0010
0000
0100
0000
,
0101
1100
0011
1010
,
0001
0010
1000
0010
0100
1000
0001
1000
,
0010
0001
0010
0100
0001
1000
0100
0010
,
0100
1000
0010
0100
0001
0010
1001
0110
,
1001
0000
0000
0000
1000
0010
0000
0000
0100
0001
0000
0000
1000
0100
0000
0000
,
0010
0001
0000
0000
0100
0010
0000
0000
1000
0001
0000
0000
0010
0000
0010
0000
,
1001
0000
1000
0000
0100
0000
0010
0001
0100
0000
0010
0000
1000
0000
0001
0010
,
0100
0000
0100
0000
1000
0000
1000
0000
0010
1000
0010
1000
0001
0010
0001
0010
,
0200
0000
0000
0000
,
0300
0000
0000
0000
;

//--------------- dance-single - forcednature ----------------
#NOTES:
     dance-single:
     forcednature:
     Hard:
     15:
     0,0,0,0,0:
0000
0000
0000
0000
,
0000
0000
0000
0000
,
0000
0000
0000
0000
,
0000
0000
0000
0000
,
0000
0000
0000
0000
0000
0000
0000
0000
0000
0000
0000
0000
0000
0001
0100
0001
,
0100
0000
0010
1000
0000
0001
1000
0100
0010
0000
0011
0000
0011
0000
0000
0000
,
0001
0000
0100
0001
0000
0010
0100
1000
0010
0000
0100
0001
0000
1000
0100
0000
,
1000
0000
0010
0100
0000
0001
0000
1000
0100
0000
0010
0001
0000
1000
0010
0100
,
0001
0000
0010
0100
0000
1000
0100
0010
0001
0000
0001
0000
1000
0000
1000
0000
,
1200
0000
0301
0100
2000
0010
3001
0000
,
0201
0000
1300
0100
0002
0010
1003
0000
,
1020
0000
0031
0010
2000
0100
3010
0000
,
0200
0000
0010
0000
0310
0000
0000
0000
1001
0000
1001
0000
1001
0000
0001
1000
,
0010
0000
0100
0000
0010
0000
1000
0100
0010
0000
0010
0000
0100
0000
1000
0010
,
0100
0000
0001
0100
0000
0100
0010
0000
0100
1000
0100
0001
0010
0000
0000
0010
,
0001
0000
1000
0001
0100
0000
0001
0000
1000
0000
0001
0010
0000
0100
0001
0100
,
1000
0000
0001
0100
0010
0000
1000
0000
0001
0010
0001
0000
1000
0010
1000
0000
,
0110
0000
0100
0000
1001
0000
0000
0000
0001
0100
1000
0100
0001
0000
0010
0100
,
0010
0000
0001
1000
0010
0000
0010
0000
1000
0100
0001
0100
1000
0000
1000
0000
,
1001
0000
0001
0000
0100
0010
1000
0001
0010
0000
0010
0000
0100
1000
0001
0100
,
0001
0000
0101
0000
1000
0000
1100
0000
2002
0000
0000
0000
3003
0000
0001
1000
,
0001
0000
0010
0200
0000
0300
0000
0000
1000
0010
0100
0002
0000
0003
0010
0001
,
0010
0000
0100
2000
0000
3001
1000
0000
0010
0000
0010
0000
0100
0001
0100
0001
,
0010
0000
0100
1000
0000
0001
0000
0100
0001
0000
1000
0010
0000
1000
0001
0000
,
1200
0000
0000
0301
0100
0000
1000
0000
0201
0000
0000
1300
0100
0000
0001
0000
,
0012
0000
1000
0000
0100
0000
1003
0001
,
1001
0000
0000
0001
0000
0000
1000
0000
0000
1000
0000
0001
0100
0000
0000
0001
0000
0000
1000
0000
0000
1000
0100
1000
,
0100
0000
0000
0010
0000
0000
0001
0000
0000
1000
0000
0000
0001
0000
0000
0100
0000
0000
0010
0000
0000
1000
0000
0000
0001
0000
0000
0000
0000
0000
0010
0000
0000
0000
0000
0000
0100
0000
0000
0000
0000
0000
1000
0000
0001
0000
1000
0000
,
0001
0000
1000
0100
0001
0000
0100
0000
1000
0000
0001
0100
1000
0000
0100
0000
,
0010
1000
0100
0010
0001
0000
0100
0010
1000
0001
0010
0000
0100
1000
0001
0100
,
0010
1000
0001
0010
0100
0000
0010
0001
1000
0001
0100
0000
0010
1000
0100
0010
,
0001
0100
0010
1000
0001
0000
1000
0100
0010
0000
0100
0000
0110
0000
0110
0000
,
1001
0000
0000
0000
0001
0100
0001
0000
1000
0010
1000
0000
0001
0010
0100
0000
,
1000
0001
0100
0000
0010
1000
0100
0000
0001
0100
1000
0000
0001
0100
0010
0000
,
2010
0000
0001
0000
0100
0000
3001
1000
,
0101
0000
0000
0101
0000
0000
0101
0000
0000
0001
0000
1000
0100
0000
0000
0100
0000
0000
0100
0000
0000
0010
0000
0001
,
1000
0000
0001
0010
1000
0000
0010
0000
0001
0000
1000
0010
0001
0000
0010
0000
,
0100
0001
1000
0001
0010
0000
0100
1000
0001
1000
0010
0000
0100
0010
1000
0001
,
0010
0100
1000
0001
0100
0000
0010
1000
0001
0100
0010
0000
1000
0001
1000
0100
,
0010
0001
0100
0010
1000
0000
0100
1000
0001
0000
0100
0000
0110
0000
0110
0000
,
1001
0000
0000
0000
1000
0100
0010
0000
0001
0100
0010
0000
1000
0001
0010
0000
,
0001
0100
1000
0000
0100
0001
0010
0000
0100
1000
0001
0000
0010
0001
0100
0000
,
0021
0000
0000
0000
0000
0000
1030
0000
0000
0010
0000
0001
2000
0000
0000
0000
0000
0000
3001
0000
0000
0000
0000
0000
,
0110
0000
1001
0000
0110
0000
0001
1000
0100
0010
0001
1000
0001
0100
0010
1000
,
0100
0000
0000
0011
0000
0000
1001
0000
0001
0100
0010
1000
0100
0000
0001
0100
,
1000
0000
0000
1010
0000
0000
0101
0000
0001
0010
0100
1000
0010
1000
0100
0000
,
0110
0000
0001
1000
0100
0000
0010
0000
0001
0100
1000
0100
0001
0100
0010
1000
,
0001
0000
0000
0110
0000
0000
1001
0000
1100
0000
0001
0000
0100
0001
0100
0010
,
1000
0100
0010
0001
0100
0000
0100
0010
1000
0010
0100
0001
1000
0000
1000
0000
,
0100
0000
0010
0001
1000
0001
0000
0100
0010
0100
1000
0100
0001
0000
0001
0100
,
0001
1000
0000
1000
0000
0100
0010
0000
1001
0000
1000
0100
0010
0001
1000
0000
,
1100
0000
0001
0000
0101
0000
1000
0000
0001
0010
0100
0010
0001
1000
0001
0100
,
0020
0000
0000
0000
0000
2030
3200
0320
,
0032
0000
0203
0320
0000
0000
2030
0000
,
3002
0000
2003
3200
0000
0000
2300
0000
,
3002
0000
0203
0320
0000
0000
0030
0000
,
1002
0000
0100
0000
1000
0000
0013
0110
,
2001
0000
0100
0000
0001
0000
3010
0110
,
0001
0100
0001
0100
0010
1000
0010
1000
0001
0010
0001
0010
0100
1000
0100
1000
,
0010
0000
0000
0010
0000
0000
0010
0000
0000
1000
0001
1000
0002
0000
0000
0000
0000
0000
0013
0000
0000
0100
1000
0100
,
1000
0000
0001
0100
1000
0100
0001
0000
1001
0000
1000
0100
0001
0100
1000
0000
,
0010
1000
0100
0010
0001
0100
0010
1000
0001
0010
0100
0000
1000
0010
0100
0000
,
0001
1000
0001
0010
0100
1000
0010
0100
0001
1000
0100
0000
0010
0001
1000
0000
,
0010
0100
0001
1000
0001
0010
0100
0000
1000
0000
0001
0000
1001
0000
0110
0000
,
1001
0000
0000
0000
0001
0100
0001
1000
0010
1000
0001
0010
0100
1000
0100
0010
,
0001
0100
0010
1000
0100
1000
0010
0100
0001
0010
0001
0100
0010
0000
0010
0000
,
1001
0000
1000
0100
0001
0100
1000
0000
1001
0000
0001
0100
1000
0100
0001
0000
,
1001
0000
0110
0000
1001
0000
0001
0100
0010
1000
0001
1000
0010
0001
0010
1000
,
0200
0000
0000
0000
,
0300
0000
0000
0000
;

//--------------- dance-double - forcednature ----------------
#NOTES:
     dance-double:
     forcednature:
     Easy:
     8:
     0,0,0,0,0:
00000000
00000000
00000000
00000000
,
00000000
00000000
00000000
00000000
,
00000000
00000000
00000000
00000000
,
00000000
00000000
00000000
00000000
,
00000000
00000000
00000000
00000000
00000000
00000000
00000000
00010000
,
00001000
00000000
00000010
00000000
00000100
00001000
00000001
00000000
,
00000100
00001000
00010000
00100000
,
10000000
00000000
00010000
00000000
10000000
01000000
00100000
00000000
,
00010000
01000000
00001000
00000000
,
00021000
00000000
00030200
00000000
,
00000320
00000000
00000032
00000000
,
00000203
00000000
00002300
00000000
,
00023000
00000000
00000000
00000000
00130000
10000000
00100000
10000000
,
01000000
00100000
00010000
01000000
,
00001000
00010000
00000100
00001000
,
00000010
00000100
00000001
00000010
,
00000100
00000000
00010000
00000000
00001000
00000000
01000000
00010000
,
01000000
00100000
10000000
00010000
,
10000000
01000000
00010000
00001000
,
00011000
00000100
00001000
00000100
,
00000010
00000010
00000100
00000100
00000010
00000000
00000000
00000000
,
00001002
00000000
00000203
00000000
,
00002300
00000000
00023000
02030000
,
23000000
00000000
30200000
00000000
,
02300000
00000000
03020000
00030000
,
00201000
00010000
00001000
00310000
,
00001020
00010000
00001000
00010030
,
00022000
00000000
00033000
00000000
,
01010000
01001000
01010000
01001000
,
01000000
00000000
00100000
00000000
10000000
01000000
00100000
00000000
,
00010000
00000000
01000000
00000000
00001000
00010000
00001000
00000000
,
00000010
00000000
00000100
00000000
00001000
00000001
00001000
00000000
,
00000010
00000200
00002300
00023000
,
02030000
03200000
00320000
20030000
,
30200000
00000000
01000000
01000000
,
02300000
00010000
00010000
03100000
,
10010000
01100000
10010000
01100000
,
10000000
01000000
00010000
00001000
,
00000010
00000100
00001000
00000001
,
00000100
00000000
00001000
00000000
00010000
00000000
00000100
00001000
,
00000100
00000020
00000032
00000203
,
00000320
00002030
00003200
00020300
,
00032000
00000000
00023000
00000000
,
00130000
00000000
10000000
00000000
01000000
00100000
01000000
00000000
,
10000000
00000000
00000000
10000000
00000000
00000000
10000000
00000000
00200000
00000000
00000000
00000000
00300000
00000000
00000000
00000000
,
01000000
00000000
00000000
01000000
00000000
00000000
01000000
00000000
00002000
00000000
00000000
00000000
00003000
00000000
00000000
00000000
,
00010000
00000000
00000000
00010000
00000200
00000000
00000300
00000000
,
00000010
00000000
00000000
00000010
00000000
00000000
00000010
00000000
00000001
00000000
00000000
00000000
00000100
00000000
00000010
00000000
,
00000100
00000000
00001000
00000000
00010000
00000000
01000000
00100000
,
01000000
00010000
00001000
00000100
,
00001001
00000010
00001001
00000100
,
00000001
00000100
00000001
00000100
00000010
00000000
00000000
00000000
,
00001002
00000000
00000000
00000000
00000000
00000203
00000000
00000000
,
00002300
00000000
00000000
00023000
00000000
00000000
02030000
00000000
,
03200000
00000000
00000000
00320000
00000000
00000000
20030000
00000000
,
30200000
00000000
00000000
20300000
00000000
00000000
30000000
00000000
,
20020000
00000000
00000000
00000000
30030000
00000000
00000000
01000000
,
02200000
00000000
00000000
00000000
03300000
00000000
00000000
00001000
,
00022000
00000000
00033000
00010000
00022000
00000000
00033000
00001000
,
00011000
00011000
00022000
00033000
,
00010100
00011000
00010010
00011000
,
00000010
00001000
00000001
00000010
,
00000100
00001000
00000010
00000100
,
00001000
00000000
00010000
00000000
01000000
00000000
00100000
00100000
,
01100000
20000000
30020000
02030000
,
03002000
00023000
00030200
00002300
,
00003010
00000000
00000100
00000001
00000100
00000000
00000010
00001000
,
00000010
00001000
00000100
00000010
00000001
00000100
00000010
00000000
,
00022000
00000000
00000000
00000000
,
00033000
00000000
00000000
00000000
;

//--------------- dance-double - forcednature ----------------
#NOTES:
     dance-double:
     forcednature:
     Medium:
     12:
     0,0,0,0,0:
00000000
00000000
00000000
00000000
,
00000000
00000000
00000000
00000000
,
00000000
00000000
00000000
00000000
,
00000000
00000000
00000000
00000000
,
00000000
00000000
00000000
00000000
00000000
00000000
00000000
00000000
00000000
00000000
00000000
00000000
00000000
00001000
00010000
00001000
,
00010000
00000000
00000000
00100000
00000000
00000000
10000000
00000000
01000000
00000000
00100000
00000000
01100000
00000000
00000000
00000000
,
10000000
00000000
00000000
01000000
00000000
00000000
00010000
00000000
00001000
00000000
00000010
00000000
00000001
00000000
00001000
00000000
,
00000001
00000000
00000000
00000100
00000000
00000000
00001000
00000000
00010000
00000000
00000000
00100000
00000000
10000000
00000000
00000000
,
00010000
10000000
01000000
00010000
00001000
00010000
00011000
00000000
,
00020100
00100000
00230000
10000000
,
20300000
01000000
00010000
00100000
,
30200000
00010000
00320000
00001000
,
00032000
00000000
00000000
00000000
00000010
00000000
00000000
00000000
00010000
00000000
00010000
00000000
00013000
00000000
00001000
00010000
,
00001000
00000010
00000100
00001000
00000001
00000001
00000100
00000000
,
00001000
00000000
00010000
00000000
00100000
00000000
10000000
00000000
00010000
00100000
00000000
01000000
10000000
00000000
00000000
00000000
,
00100000
00000000
01000000
00000000
00100000
00000000
00010000
00000000
00001000
00000000
00001000
00100000
00000000
00000000
00000000
00000000
,
01000000
00000000
00010000
00000000
00001000
00000000
00000010
00000000
00000100
00000000
00001000
00000000
00000001
00000100
00000001
00000000
,
00000101
00000000
00000000
00000000
00001100
00000000
00000000
00000000
00010000
00001000
00010000
00001000
00010000
00000000
00000000
00000000
,
11000000
00000000
00000000
00000000
01010000
00000000
00000000
00000000
00001000
00010000
00001000
00010000
00001000
00000000
00000000
00000000
,
00000110
00000000
00000001
00000100
00001000
00010000
01000000
00000000
,
00100000
00000000
00100000
00000000
01000000
00000000
01000000
00000000
20020000
00000000
00000000
00000000
30030000
00000000
10000000
01000000
,
00100000
01000000
00010000
00001000
00000010
00000100
00001000
00000001
,
00000100
00000000
00000010
00000000
00000100
00000000
00001000
00000000
00010000
00000000
01000000
00000000
00100000
00000000
00100000
00010000
,
10000000
00100000
01000000
00100000
00010000
00001000
00000010
00000100
,
00000010
00000001
00000100
00000010
00000100
00001000
00010000
00000000
,
01002000
00000000
00000010
00000000
00010000
00000000
01003000
00001000
,
00020000
00000000
00100000
00100000
00001000
00001000
00000100
00030100
,
00010000
00001000
00010000
00001000
00010000
00001000
00010000
00001000
00010000
00000000
00000000
00000000
00000000
00000000
00000000
00000000
,
01001000
00010010
01001000
00010010
,
00010000
00001000
00100000
01000000
00010000
01000000
10000000
00000000
,
00100000
00010000
00001000
00000010
00000100
00001000
00000001
00000000
,
00000100
00001000
00010000
01000000
00100000
00010000
10000000
00010000
,
10010000
00000000
00000000
00000000
10000000
01000000
00000000
00000000
01000000
00010000
00000000
00000000
00010000
00001000
00000000
00000000
,
00001000
00000010
00000000
00000000
00000010
00000001
00000000
00000000
00000001
00000100
00000000
00000000
00000100
00001000
00000000
00000000
,
00020000
00000000
00100000
00000000
00001000
00000000
00030100
00010000
,
00001000
00000000
01000000
00000000
00010000
00000000
10000000
01000000
10000000
00000000
00100000
00000000
00010000
00000000
00000000
00000000
,
00010100
00101000
00010100
00101000
,
00001000
00000010
00000001
00001000
00000010
00000100
00001000
00000000
,
00010000
01000000
00100000
00001000
00010000
00100000
10000000
00000000
,
01000000
00010000
00000100
00010000
00001000
00000100
00000001
00001000
,
00001001
00000000
00000000
00000000
00000001
00000100
00000000
00000000
00000100
00001000
00000000
00000000
00001000
00010000
00000000
00000000
,
00010000
00100000
00000000
00000000
00100000
10000000
00000000
00000000
10000000
01000000
00000000
00000000
01000000
00010000
00000000
00000000
,
00011000
00000000
00000000
00000000
01000000
00000000
00001000
00010000
00001000
00000000
00000000
00000000
00000010
00000000
00000100
00000000
,
00001000
00000000
00001000
00000000
00000001
00000000
00000001
00000000
00001000
00000100
00001000
00000100
00010000
00001000
00010000
00001000
,
01000000
00000000
00000000
01000000
00000000
00000000
01000000
00000000
00001000
00010000
00001000
00010000
00001000
00000000
00010000
00000000
,
00000100
00000000
00000000
00000100
00000000
00000000
00000100
00000000
00010000
00001000
00010000
00001000
00010000
00000000
00001000
00000000
,
00100000
00000000
00100000
00000000
00100000
00000000
00100000
00000000
00001000
00010000
00001000
00010000
00001000
00000000
00001000
00000000
,
00000010
00000000
00000000
00000010
00000000
00000000
00000010
00000000
00000001
00000000
00001000
00000000
00000100
00000000
00010000
00001000
,
00010000
00100000
10000000
01000000
00010000
00001000
00000010
00000000
,
00000100
00000000
00000001
00000000
00000100
00000000
00001000
00000000
00000010
00000000
00000100
00000000
00001000
00000000
00010000
00001000
,
00010000
00100000
01000000
00010000
00100000
10000000
00100000
00001000
,
00010000
00000000
00010000
00000000
00001000
00000000
00001000
00000000
00000100
00000010
00000100
00000010
00001000
00000001
00001000
00000001
,
00000020
00000000
00000000
00000000
00000000
00001030
00010000
01000000
,
00200000
00000000
00301000
00020000
00000000
00000000
00230000
00000000
,
20300000
00000000
31000000
00020000
00000000
00000000
00032000
00000000
,
00003020
00000000
00000031
00002000
00000000
00000000
00003000
00000000
,
00020100
00000000
00001000
00000000
00100000
00000000
00031000
00010000
,
01002000
00000000
00010000
00000000
00000010
00000000
00013000
00001000
,
00011000
00000000
01000000
00001000
01001000
00000000
00000100
00010000
,
00010100
00000000
00000100
00000000
00000010
00000000
00000001
00001000
00000001
00000000
00000000
00000000
00000100
00000000
00001000
00000000
,
01001000
00010100
00101000
00010010
,
00010000
00100000
10000000
00010000
10000000
01000000
00010000
00001000
,
00000010
00000100
00001000
00000001
00000100
00001000
00010000
01000000
,
00100000
00001000
00010000
00100000
10000000
00010000
00100000
01000000
,
10010000
00000000
00000000
00000000
10000000
01000000
00000000
00000000
00100000
00010000
00000000
00000000
00001000
00000100
00000000
00000000
,
00000010
00000001
00000000
00000000
00000100
00001000
00000000
00000000
00010000
00100000
00000000
00000000
10000000
00000000
00010000
00000000
,
01000000
00000000
00001000
00000000
00010000
00000000
00000100
00001000
00000010
00000000
00010000
00000000
00001000
00000000
01000000
00010000
,
00100000
00000000
00100000
00000000
01000000
00000000
01000000
00000000
00010000
00001000
00010000
00001000
00010000
00001000
00010000
00001000
,
00000020
00000000
00000000
00000000
,
00000030
00000000
00000000
00000000
;

//--------------- dance-double - forcednature ----------------
#NOTES:
     dance-double:
     forcednature:
     Hard:
     15:
     0,0,0,0,0:
00000000
00000000
00000000
00000000
,
00000000
00000000
00000000
00000000
,
00000000
00000000
00000000
00000000
,
00000000
00000000
00000000
00000000
,
00000000
00000000
00000000
00000000
00000000
00000000
00000000
00000000
00000000
00000000
00000000
00000000
00000000
00010000
00001000
00010000
,
00001000
00000000
00000010
00000100
00000000
00001000
00000001
00000100
00001000
00000000
00011000
00000000
00011000
00000000
00000000
00000000
,
00010000
00000000
01000000
10000000
00000000
00100000
01000000
00010000
10000000
00000000
01000000
00010000
00000000
00001000
00000010
00000000
,
00000001
00000000
00001000
00000010
00000000
00000100
00000000
00001000
00010000
00000000
01000000
10000000
00000000
00100000
01000000
00010000
,
00100000
00000000
01000000
00010000
00000000
00001000
00000100
00000010
00001000
00000000
00001000
00000000
00000100
00000000
00000100
00000000
,
00021000
00000000
00130000
10000000
02000000
10000000
03010000
00000000
,
00012000
00000000
00003010
00000001
00000200
00000001
00001300
00000000
,
00021000
00000000
00130000
10000000
02000000
10000000
03010000
00000000
,
00002000
00000000
00010000
00000000
00013000
00000000
00000000
00000000
00011000
00000000
00011000
00000000
00011000
00000000
00010000
00001000
,
00000100
00000000
00000010
00000000
00001000
00000000
00000100
00000010
00000001
00000000
00000001
00000000
00000100
00000000
00001000
00010000
,
00001000
00000000
00100000
00010000
00000000
00010000
01000000
00000000
00100000
10000000
01000000
00100000
00010000
00000000
00000000
00100000
,
00001000
00000000
00010000
00000010
00001000
00000000
00000100
00000000
00000010
00000000
00000001
00000100
00000000
00001000
00010000
00000100
,
00001000
00000000
00000010
00010000
00001000
00000000
00100000
00000000
00010000
01000000
00100000
00000000
10000000
01000000
00100000
00000000
,
01100000
00000000
00100000
00000000
00011000
00000000
00000000
00000000
00001000
00000100
00000001
00000100
00001000
00000000
00010000
00000100
,
00001000
00000000
00001000
00100000
00010000
00000000
10000000
00000000
00010000
01000000
10000000
01000000
00010000
00000000
00100000
00000000
,
00011000
00000000
00000010
00000000
00000100
00001000
00000100
00000001
00000010
00000000
00000010
00000000
00000100
00010000
00001000
00100000
,
00010000
00000000
01001000
00000000
00010000
00000000
00101000
00000000
00022000
00000000
00000000
00000000
00033000
00000000
00010000
00100000
,
10000000
00000000
01000000
00200000
00000000
00300000
00000000
00000000
00001000
00010000
00000010
00002000
00000000
00003000
00000100
00000010
,
00000001
00000000
00000100
00002000
00000000
00013000
00100000
00000000
10000000
00000000
10000000
00000000
01000000
00100000
01000000
00010000
,
00001000
00000000
00100000
00001000
00000000
00010000
00000000
00000010
00001000
00000000
00010000
01000000
00000000
00001000
00010000
00000000
,
00020100
00000000
00000000
00130000
00010000
00000000
00000000
00000000
01002000
00000000
00000000
00003010
00001000
00000000
00000000
00000000
,
00021000
00000000
00100000
00000000
00000100
00000000
00030010
00010000
,
00001000
00000000
00000000
00000010
00000000
00000000
00000001
00000000
00000000
00000100
00000000
00001000
00010000
00000000
00000000
01000000
00000000
00000000
10000000
00000000
00000000
00010000
01000000
00010000
,
10000000
00000000
00000000
01000000
00000000
00000000
00100000
00000000
00000000
00010000
00000000
00000000
00001000
00000000
00000000
00000100
00000000
00000000
00000010
00000000
00000000
00000001
00000000
00000000
00000100
00000000
00000000
00000000
00000000
00000000
00001000
00000000
00000000
00000000
00000000
00000000
00010000
00000000
00000000
00000000
00000000
00000000
01000000
00000000
10000000
00000000
01000000
00000000
,
10000000
00000000
00100000
00010000
00001000
00000000
00100000
01000000
10000000
00000000
00100000
00010000
00001000
00000000
00000010
00000000
,
00000100
00001000
00000010
00000100
00000001
00000000
00000010
00000100
00010000
00001000
00010000
00000000
00100000
10000000
00010000
10000000
,
01000000
00010000
00001000
00010000
00000100
00000000
00001000
00000001
00000100
00000010
00001000
00000000
00010000
00100000
01000000
00100000
,
00010000
10000000
00100000
10000000
01000000
00000000
00100000
00001000
00010000
00000000
00000010
00000000
00000110
00000000
00000110
00000000
,
00001001
00000000
00000000
00000000
00000001
00000100
00000010
00000000
00010000
00001000
01000000
00000000
00100000
10000000
00010000
00000000
,
10000000
01000000
00100000
00000000
00001000
00010000
00000100
00000000
00000010
00000001
00000100
00000000
00000010
00010000
00001000
00000000
,
00000200
00000000
00000001
00000000
00010000
00000000
00000310
00010000
,
00011000
00000000
00000000
00011000
00000000
00000000
00011000
00000000
00000000
00001000
00000000
00001000
01000000
00000000
00000000
01000000
00000000
00000000
01000000
00000000
00000000
00100000
00000000
10000000
,
00010000
00000000
10000000
01000000
00010000
00000000
00001000
00000010
00000001
00000000
00000100
00001000
00010000
00000000
00100000
00000000
,
01000000
00010000
10000000
00010000
00100000
00000000
01000000
00010000
00001000
00010000
00000010
00000000
00000100
00001000
00000100
00000001
,
00001000
00000100
00000010
00000001
00000100
00000000
00000010
00010000
00001000
01000000
00010000
00000000
10000000
01000000
00100000
00010000
,
01000000
00001000
00010000
00001000
00100000
00000000
01000000
00010000
00001000
00000000
00000010
00000000
00000110
00000000
00000110
00000000
,
00001001
00000000
00000000
00000000
00000001
00000100
00001000
00000000
00010000
00100000
10000000
00000000
00010000
00100000
01000000
00000000
,
00010000
00001000
00010000
00000000
00100000
10000000
00010000
00000000
00100000
01000000
00010000
00000000
00001000
00000100
00000010
00000000
,
00002001
00000000
00003100
00010000
00200000
00000000
10300000
00000000
,
10010000
00000000
10010000
00000000
10010000
00000000
10000000
00010000
01000000
00001000
01000000
00001000
00010000
00000100
00010000
00000100
,
00000010
00000000
00000000
00000110
00000000
00000000
00001001
00000000
00000001
00000100
00000010
00001000
00000010
00000000
00010000
00001000
,
00100000
00000000
00000000
01100000
00000000
00000000
10010000
00000000
10000000
01000000
00100000
00010000
00100000
00001000
00010000
00000000
,
00011000
00000000
00000010
00010000
00001000
00000000
00000010
00000000
00000001
00000100
00001000
00000100
00000010
00010000
00001000
00100000
,
01000000
00000000
00000000
01100000
00000000
00000000
10010000
00000000
01100000
00000000
10000000
00000000
01000000
00010000
00001000
00010000
,
00000010
00001000
00000100
00001000
00000010
00000000
00000100
00001000
00010000
00001000
01000000
00010000
00100000
00000000
00100000
00000000
,
01000000
00000000
10000000
00010000
10000000
00100000
00000000
01000000
00010000
01000000
00001000
00010000
00000100
00000000
00000100
00000010
,
00000001
00000100
00000000
00000100
00000000
00001000
00010000
00000000
01000000
00000000
00100000
00010000
01000000
00010000
00100000
00000000
,
01100000
00000000
00110000
00000000
00101000
00000000
00110000
00000000
00010000
01000000
00001000
00010000
00000100
00010000
00001000
00000010
,
00000002
00000000
00000000
00000000
00000000
00000203
00002300
00023000
,
00230000
00000000
20300000
32000000
00000000
00000000
03020000
00000000
,
00032000
00000000
00003020
00000032
00000000
00000000
00000203
00000000
,
00020300
00000000
01030000
02000000
00000000
00000000
03000000
00000000
,
00020000
00000000
01000000
00000000
10000000
00000000
00130000
00010000
,
00002000
00000000
00000100
00000000
00000001
00000000
00003010
00001000
,
00010000
01000000
00010000
01000000
00100000
10000000
00100000
10000000
01000000
00010000
01000000
00010000
00001000
00010000
00001000
00010000
,
00000010
00000000
00000000
00000010
00000000
00000000
00000010
00000000
00000000
00001000
00000001
00001000
00000002
00000000
00000000
00000000
00000000
00000000
00000103
00000000
00000000
00001000
00010000
00001000
,
00010000
00000000
00100000
10000000
01000000
10000000
00100000
00010000
00001000
00000000
00000010
00000001
00000100
00000001
00000010
00001000
,
00010000
00100000
10000000
00010000
10000000
01000000
00100000
00010000
00100000
00001000
00010000
00000000
00000010
00010000
00001000
00000000
,
00000010
00000100
00001000
00000001
00000100
00000010
00001000
00000010
00010000
00001000
00100000
00000000
01000000
10000000
00010000
00000000
,
01000000
00001000
00010000
00000100
00010000
00001000
00000010
00000000
00000100
00000000
00010000
00000000
00011000
00000000
01001000
00000000
,
10010000
00000000
00000000
00000000
10000000
01000000
00100000
00010000
01000000
00001000
00010000
00000010
00001000
00000100
00000010
00000001
,
00000100
00000010
00000100
00000001
00000010
00000100
00010000
00001000
01000000
00010000
01000000
00100000
10000000
00000000
10000000
00000000
,
01100000
00000000
10000000
01000000
00010000
00001000
00000010
00000000
00000110
00000000
00000001
00000100
00001000
00010000
00100000
00000000
,
01100000
00000000
01100000
00000000
10010000
00000000
10000000
00010000
10000000
01000000
00010000
00001000
00000010
00000001
00000100
00001000
,
00020000
00000000
00000000
00000000
,
00030000
00000000
00000000
00000000
;
