#TITLE:Bang Bang;
#SUBTITLE:;
#ARTIST:Jessie J ft. Ariana Grande and Nicki Minaj;
#TITLETRANSLIT:;
#SUBTITLETRANSLIT:;
#ARTISTTRANSLIT:;
#GENRE:;
#CREDIT:;
#BANNER:Bang Bang-bn.png;
#BACKGROUND:Bang Bang-bg.png;
#LYRICSPATH:;
#CDTITLE:;
#MUSIC:Bang Bang.ogg;
#OFFSET:0.800000;
#SAMPLESTART:26.400000;
#SAMPLELENGTH:20.000000;
#SELECTABLE:YES;
#DISPLAYBPM:150.000000;
#BPMS:0.000000=150.000000
;
#STOPS:
;
#BGCHANGES:;
#KEYSOUNDS:;
#ATTACKS:;

//---------------dance-single - ----------------
#NOTES:
     dance-single:
     :
     Hard:
     13:
     0.645882,0.594555,0.443745,0.242804,0.000000,540.000000,487.000000,53.000000,29.000000,0.000000,0.000000,0.645882,0.594555,0.443745,0.242804,0.000000,540.000000,487.000000,53.000000,29.000000,0.000000,0.000000:
0000
0000
0000
0000
,
0000
0000
0000
0000
,
0000
0000
0000
0000
,
0000
0000
0000
0000
,
0000
0000
0000
0000
,
1001
0010
0010
0010
1000
0001
0001
0100
,
0120
0000
1000
1030
0000
0001
0001
0100
,
0010
0001
0010
0100
1000
1000
1200
0000
,
0001
0000
1300
0000
0010
0100
0010
0100
,
1001
0000
0010
0100
0101
0000
0101
0000
,
0001
1000
1100
0000
0010
1000
0001
0100
,
0110
0000
0001
0010
0011
0000
0011
0000
,
1000
0001
1010
0000
0100
0010
1000
0001
,
1001
0100
0100
0100
0010
1000
1000
0001
,
0012
0000
0100
0103
0000
0010
1000
0001
,
0110
0000
0001
0010
0100
1000
0002
0000
,
1003
1000
0001
0001
0100
0100
0010
0010
,
0110
0000
0110
0000
1000
0001
0010
0100
,
1000
0010
0100
0001
0010
0001
0100
0010
,
1010
0000
1010
0000
0001
1000
0001
0100
,
0010
0001
0010
1000
0100
0010
0001
0100
,
0010
0101
0000
1000
1000
0001
0010
0100
,
1000
0010
0100
0001
0010
0100
2000
0000
,
3010
1100
0000
0001
0001
1000
0100
0010
,
0001
1000
0100
0010
0001
0100
0010
1000
,
1001
0000
1001
0000
0001
0010
0100
1000
,
0010
0100
0010
0001
0010
1000
0100
0001
,
0011
0000
0011
0000
1000
0100
0001
0010
,
0100
0001
0100
0010
0001
0100
0010
1000
,
0001
0110
0000
0100
0100
0001
1000
0010
,
0100
0001
1000
0001
0010
0100
2000
0000
,
3010
1001
0000
0100
0100
0001
0010
0001
,
0100
0001
0010
0100
1000
0010
1000
0001
,
0010
0010
0010
0001
0100
0100
0100
0010
,
1000
1000
0001
0001
0101
0000
0101
0000
,
0010
0010
0010
1000
0001
0001
0001
0010
,
0100
0100
0010
0010
1001
0000
1001
0000
,
0100
0100
0100
0001
1000
1000
1000
0001
,
0010
0001
0001
1000
1100
0000
1100
0000
,
0001
0001
0010
0100
1000
1000
0010
0100
,
0001
0001
1000
1000
0010
0100
0001
0001
,
0002
1000
1003
0020
0100
0130
0010
1000
,
0200
1000
1300
0002
0010
0013
0001
0100
,
0020
0100
0130
2000
0001
3001
1000
0100
,
2000
0001
3001
0200
1000
1300
0100
0010
,
0200
0001
0301
2000
0100
3100
0010
0001
,
2000
0010
3010
0200
0001
0301
0010
0001
,
1000
1000
0010
0010
0100
0100
0001
0001
,
0020
0001
0031
2000
0100
3100
1000
0000
,
1001
0000
0100
0010
0110
0000
0001
0010
,
0001
0100
0010
1000
0100
0010
0001
0000
,
0101
0000
0010
1000
1100
0000
0001
0100
,
0010
1000
0100
0010
0001
1000
0001
0000
,
1001
0100
0100
0100
0010
0010
1000
0001
,
0021
0000
0001
0031
0000
0100
0010
1000
,
1010
0000
0101
0100
0010
1000
0000
0002
,
0000
0023
0000
0130
0100
0001
0020
0000
,
0031
0001
1000
1000
0010
0010
0100
0100
,
0101
0000
0101
0000
0010
1000
0001
0010
,
1000
0010
0001
0100
0010
1000
0010
0100
,
0110
0000
0110
0000
0010
0100
0001
1000
,
0100
0001
0100
0010
1000
0010
0001
0100
,
0010
1001
0000
1000
1000
0100
0010
0001
,
0100
0001
0010
0100
1000
0010
0200
0000
,
0301
1100
0000
0010
0010
1000
0001
0100
,
0010
1000
0100
0010
0001
1000
0001
0100
,
1010
0000
1010
0000
1000
0001
1000
0010
,
0100
0001
0010
0100
1000
0010
1000
0001
,
0011
0000
0011
0000
0100
0010
1000
0001
,
1000
0100
0010
0001
0100
0010
1000
0001
,
0100
0011
0000
0010
0010
0001
0100
0001
,
2000
0000
3002
0000
0013
0100
0010
0100
,
1000
0101
0000
0001
0001
1000
0100
0010
,
0001
0001
0100
0100
0010
0010
1000
1000
,
0220
0000
0000
0330
;

//---------------dance-single - ----------------
#NOTES:
     dance-single:
     :
     Medium:
     10:
     0.501157,0.531971,0.360019,0.318157,0.000000,419.000000,376.000000,43.000000,38.000000,0.000000,0.000000,0.501157,0.531971,0.360019,0.318157,0.000000,419.000000,376.000000,43.000000,38.000000,0.000000,0.000000:
0000
0000
0000
0000
,
0000
0000
0000
0000
,
0000
0000
0000
0000
,
0000
0000
0000
0000
,
0000
0000
0000
0000
,
1001
0100
0010
0100
,
0001
0010
0001
1000
,
0010
1000
0010
1000
0001
1000
0100
0000
,
0010
0000
0010
0000
0001
1000
0001
1000
,
1001
0000
0000
0100
0010
0000
1010
0000
,
0000
1000
0001
0000
0100
0010
0100
0010
,
0110
0000
0000
0001
1000
0000
0101
0000
,
0000
0100
0010
0000
1000
0100
1000
0100
,
1001
0010
1000
0100
,
1000
0001
0010
0100
,
2000
0000
3100
0010
0001
0100
0002
0000
,
0103
0010
0100
0010
0100
0010
0100
0010
,
0110
0000
0110
0000
1000
0100
0010
0002
,
0000
0000
0000
0103
0001
0010
0001
0010
,
0011
0000
0011
0000
0010
0001
1000
0200
,
0000
0000
0000
1300
0001
0100
0001
0100
,
0000
1001
0000
1000
0010
0100
0010
1000
,
0002
2003
3200
0320
,
0030
1001
0000
0100
0010
1000
0001
1000
,
0020
0000
0100
0000
1030
0010
0100
0001
,
0101
0000
0101
0000
1000
0001
0100
0020
,
0000
0000
0000
0130
0001
0010
0100
1000
,
1010
0000
1010
0000
1000
0010
0100
0002
,
0000
0000
0000
1003
0100
0010
0100
1000
,
0000
1100
0000
0001
0010
0100
1000
0001
,
0200
0320
2030
3002
,
0003
0110
0000
0010
1000
0100
0010
0001
,
0200
0000
0010
0000
0301
1000
0001
1000
,
0010
1000
0100
0000
0100
0010
0001
0000
,
0001
1000
0100
0000
0011
0000
0011
0000
,
0010
0100
1000
0000
1000
0001
0100
0000
,
0100
0010
1000
0000
1100
0000
1100
0000
,
1000
0001
0010
0000
0010
0001
0100
0000
,
0100
0001
1000
0000
1001
0000
1001
0000
,
0100
0001
1000
0000
1000
0010
0001
0000
,
0001
0100
0010
1000
0100
0010
0001
1000
,
0001
0010
0100
1000
0000
0000
0010
0100
,
0010
1000
0100
1000
0000
0000
0001
0100
,
0010
1000
0100
0010
0000
0001
1000
0000
,
0001
0100
0010
0100
0000
0000
0001
1000
,
0100
0010
0100
1000
0000
0000
0102
0000
,
0013
0001
1000
0100
0000
0000
1000
0010
,
1000
0100
0010
0001
0100
0010
0100
0010
,
1000
0100
0010
0001
0000
0000
1100
0000
,
1001
0000
0000
0100
0010
0000
0000
1000
,
0001
1000
0001
0100
0000
0010
0010
0000
,
0110
0000
0000
0001
1000
0000
0000
0100
,
0010
0001
0010
0001
0000
0200
0000
0000
,
0310
1000
0001
0000
0010
0100
1000
0000
,
0002
0000
0103
0010
0000
1000
0001
0000
,
0110
0000
1001
0000
1000
0001
0000
0200
,
0000
0320
0000
1030
0002
0000
0203
0000
,
0301
1000
0001
1000
0001
1000
0001
1000
,
1001
0000
1001
0000
0010
0001
1000
0020
,
0000
0000
0000
0130
0001
0010
0100
1000
,
1010
0000
1010
0000
0100
0010
1000
0002
,
0000
0000
0000
1003
0001
1000
0100
0010
,
0000
0011
0000
0100
0010
1000
0010
0100
,
0002
0023
0230
2300
,
3000
0101
0000
0010
0100
0001
0010
0100
,
2000
0000
0001
0000
3010
1000
0100
0010
,
0011
0000
0011
0000
0100
0001
1000
0200
,
0000
0000
0000
0310
0100
0010
0001
1000
,
1100
0000
1100
0000
0001
1000
0001
0200
,
0000
0000
0000
0310
1000
0001
1000
0100
,
2002
0000
0000
3000
,
0100
0000
0103
0000
0001
1000
0001
1000
,
0220
0000
0000
0330
,
0010
0100
0010
0100
0001
1000
0001
1000
,
2002
0000
0000
3003
;

//---------------dance-single - ----------------
#NOTES:
     dance-single:
     :
     Easy:
     7:
     0.349255,0.438093,0.485608,0.318157,0.000000,292.000000,234.000000,58.000000,38.000000,0.000000,0.000000,0.349255,0.438093,0.485608,0.318157,0.000000,292.000000,234.000000,58.000000,38.000000,0.000000,0.000000:
0000
0000
0000
0000
,
0000
0000
0000
0000
,
0000
0000
0000
0000
,
0000
0000
0000
0000
,
0000
0000
0000
0000
,
1001
0100
0010
0100
,
0001
0010
0001
1000
,
0010
1000
0100
0010
,
0001
0001
0100
0010
,
0110
0000
0001
1000
,
0000
1100
0000
0101
,
1001
0000
0010
0100
,
0000
0011
1000
1000
,
1010
0001
1000
0001
,
0010
0100
1000
0010
,
0100
0100
0010
1000
,
0220
0000
0000
0330
,
1001
1001
1000
0001
,
0020
0000
0001
0031
,
0101
0101
0010
1000
,
0200
0000
0001
0310
,
0110
0000
1000
0001
,
1000
0100
0020
0030
,
1001
0000
0100
0010
,
1000
0001
1000
0100
,
1100
1100
0010
1000
,
0002
0000
0010
1003
,
0101
0101
0100
0010
,
2000
0000
0001
3001
,
0011
0000
0100
0010
,
0100
0001
2000
3000
,
1010
0000
1000
0100
,
0001
0010
0001
1000
,
0010
0010
0100
0100
,
0001
1000
1100
1100
,
0001
0001
0100
0100
,
0010
1000
0110
0110
,
0001
0001
0010
0010
,
1000
0100
1001
1001
,
0010
0010
1000
1000
,
0011
1100
0011
1100
,
0001
1000
1010
0100
,
0001
0010
0101
1000
,
0010
0100
1001
0010
,
1000
0100
0011
0100
,
0001
0010
0110
1000
,
0010
0100
1010
0001
,
0100
0100
0110
1001
,
1000
0001
0010
0100
,
2200
3300
0202
0303
,
2000
3002
0100
0103
,
0022
0033
2020
3030
,
0200
0320
0001
1030
,
1001
0010
0100
0001
,
0010
0100
1000
0001
,
0010
0010
0010
0010
,
0002
0000
1000
0103
,
2002
0000
0000
3003
,
0101
0101
1000
0100
,
0002
0000
0010
0103
,
1010
1010
1000
0100
,
2000
0000
0010
3001
,
1001
0000
0010
0010
,
2000
0001
0200
3300
,
0011
0000
0100
0010
,
1000
0100
0010
0001
,
0110
0110
0010
0001
,
2000
0000
0100
3100
,
1010
1010
0100
0001
,
0020
0000
1000
0130
,
0022
0000
0000
0030
,
1000
1000
2000
3003
,
2200
0000
0000
3300
,
0202
0000
0000
0303
,
2002
0000
0000
3003
;

//---------------dance-single - ----------------
#NOTES:
     dance-single:
     :
     Beginner:
     3:
     0.185392,0.247827,0.184196,0.000000,0.000000,155.000000,133.000000,22.000000,0.000000,0.000000,0.000000,0.185392,0.247827,0.184196,0.000000,0.000000,155.000000,133.000000,22.000000,0.000000,0.000000,0.000000:
0000
0000
0000
0000
,
0000
0000
0000
0000
,
0000
0000
0000
0000
,
0000
0000
0000
0000
,
0000
0000
0000
0000
,
1001
0000
0000
0000
,
0001
0001
0000
0000
,
1000
0000
0010
0010
,
0000
0110
0000
0000
,
1001
0000
0001
0001
,
0000
1000
0000
0000
,
0110
0000
0100
0100
,
0000
0010
0000
0000
,
1001
0000
0000
0000
,
0010
0010
0000
0000
,
0001
0000
1000
0000
,
0110
0000
0000
0000
,
0001
0001
0001
0000
,
0010
0000
0100
0000
,
1000
1000
1000
0000
,
0001
0000
0100
0000
,
0110
0000
1000
0000
,
0100
0100
0100
0000
,
1001
0000
0010
0000
,
0100
0000
0000
0000
,
0010
0010
0010
0000
,
0100
0000
0001
0000
,
0100
0100
0100
0000
,
0010
0000
1000
0000
,
1001
0000
1000
0000
,
0001
0001
0001
0000
,
0110
0000
0010
0000
,
1000
0000
0000
0000
,
0001
0000
0001
0000
,
0001
0000
0001
0000
,
1000
0000
1000
0000
,
1000
0000
1000
0000
,
0010
0000
0010
0000
,
0010
0000
0010
0000
,
0100
0000
0100
0000
,
0100
0000
0100
0000
,
0001
0000
0001
0000
,
0010
0000
0010
0000
,
0100
0000
0100
0000
,
1000
0000
1000
0000
,
0010
0000
0010
0000
,
1000
0000
1000
0000
,
0001
0001
0001
0000
,
1000
1000
1000
0000
,
1001
0000
0110
0000
,
0001
0001
0000
0000
,
0110
0000
1001
0000
,
0100
0100
0000
0000
,
1001
0000
0000
0000
,
0000
0000
0000
0000
,
0000
0000
0000
0000
,
0000
0000
0000
0000
,
0110
0000
0000
0000
,
0100
0100
0100
0000
,
0010
0000
1000
0000
,
0010
0010
0010
0000
,
1000
0000
0001
0000
,
1001
0000
1000
0000
,
0010
0010
0010
0000
,
0110
0000
0010
0000
,
0100
0000
0000
0000
,
0001
0001
0001
0000
,
0100
0000
0001
0000
,
1000
1000
1000
0000
,
0010
0000
0100
0000
,
0110
0000
0000
0000
,
0000
0000
0000
0000
,
1001
0000
0000
0000
,
1001
0000
0000
0000
,
0110
0000
0000
0000
;

//---------------dance-single - ----------------
#NOTES:
     dance-single:
     :
     Challenge:
     16:
     0.913803,0.938772,0.987960,0.133961,0.544215,764.000000,646.000000,118.000000,16.000000,0.000000,0.000000,0.913803,0.938772,0.987960,0.133961,0.544215,764.000000,646.000000,118.000000,16.000000,0.000000,0.000000:
// measure 0
0000
0000
0000
0000
,  // measure 1
0000
0000
0000
0000
,  // measure 2
0000
0000
0000
0000
,  // measure 3
0000
0000
0000
0000
,  // measure 4
0000
0000
0000
0000
,  // measure 5
1001
1000
1000
1000
0010
0010
0100
0100
,  // measure 6
0102
1000
1003
1100
0010
0100
0100
0100
,  // measure 7
0001
0001
1000
1000
1010
0110
0101
2000
,  // measure 8
0001
0000
0000
0000
3010
0100
0010
0100
0002
0000
0013
0000
0200
0000
1300
0000
,  // measure 9
1100
0000
0001
0011
0101
1000
1100
0000
,  // measure 10
0010
1001
0110
0000
0002
0013
0200
1300
,  // measure 11
1001
0000
0010
1010
0101
0001
0011
0000
,  // measure 12
0100
1100
0110
0000
0002
0013
0200
1300
,  // measure 13
1001
0001
0001
0001
0010
0010
0100
0100
,  // measure 14
1200
0010
0310
0011
0000
1000
1000
1000
,  // measure 15
0101
0000
0010
1000
0100
0010
0002
0000
,  // measure 16
1003
0100
1000
0100
0010
0001
0010
0001
0100
0010
0100
0010
1000
0001
1000
0001
,  // measure 17
0100
0010
0110
0010
1000
0100
0010
0001
,  // measure 18
0010
0000
0100
0000
1000
0000
0001
0000
0001
1000
0010
0000
1000
0100
0010
0000
,  // measure 19
0011
1000
0011
0001
1000
0010
0100
0001
,  // measure 20
0010
0000
0001
0000
0100
0000
0010
0000
0010
1000
0100
0000
1000
0001
0100
0000
,  // measure 21
0110
0000
1001
0000
0000
0000
1100
0000
0001
0010
0001
0000
0100
0000
0100
0000
,  // measure 22
0101
0000
0001
0000
0011
0000
0010
0000
0100
1000
0001
0000
1000
0010
0100
0000
,  // measure 23
0101
0000
0011
0000
0000
0000
1100
0000
0001
1000
0010
0000
1000
0100
0001
0000
,  // measure 24
0010
0001
0010
0001
0100
0010
0100
0010
1000
0001
1000
0001
1000
0100
1000
0100
,  // measure 25
0010
0001
1100
0001
0100
0010
1000
0100
,  // measure 26
0010
0000
0011
0000
0011
0000
0011
0000
0001
0100
0010
0000
1000
0100
0001
0000
,  // measure 27
0110
0100
0110
0001
1000
0010
0100
0001
,  // measure 28
0010
0000
1100
0000
1100
0000
1100
0000
0010
1000
0001
0000
1000
0100
0001
0000
,  // measure 29
0011
0000
1100
0000
0000
0000
1001
0000
0100
0010
1000
0000
0001
0000
0001
0000
,  // measure 30
0011
0000
0100
0000
1010
0000
0100
0000
0001
0010
0100
0000
1000
0001
1000
0000
,  // measure 31
1010
0000
0011
0000
0000
0000
1001
0000
0100
0010
1000
0000
0001
0010
0100
0000
,  // measure 32
1000
0010
1000
0010
1000
0100
1000
0100
0010
0001
0010
0001
0100
0001
0100
0001
,  // measure 33
0010
0000
0010
0000
0010
0001
0100
0000
0010
0000
0010
1000
0010
1000
0100
0000
,  // measure 34
1000
0100
0010
0000
0001
0100
0010
0000
1001
0000
0000
0000
1001
0000
0000
0000
,  // measure 35
0010
1000
0010
0100
0010
0001
0010
0000
0010
0001
0010
0100
0010
1000
0010
0000
,  // measure 36
1000
0100
0010
0001
0010
0100
1000
0000
0101
0000
0000
0000
0101
0000
0000
0000
,  // measure 37
1000
0001
0100
0000
0100
0000
0100
0000
0010
1000
0001
0000
0001
0000
1000
0010
,  // measure 38
0100
0000
0001
0010
1000
0010
0001
0000
1100
0000
0000
0000
1100
0000
0000
0000
,  // measure 39
0110
0000
0110
0000
0001
0100
1000
0000
1001
0000
1001
0000
0010
1000
0100
0000
,  // measure 40
0011
0000
0010
0001
0100
0010
1000
0000
0001
0100
1000
0000
1100
0000
1100
0000
,  // measure 41
1001
0100
0010
1010
1000
0100
0011
0011
,  // measure 42
0110
1000
0010
0101
0001
0010
1001
1001
,  // measure 43
1100
0001
0100
1010
0001
1000
0110
0110
,  // measure 44
1001
0001
0010
0110
1000
0010
1001
1001
,  // measure 45
0101
1000
0100
1010
0001
1000
1100
1100
,  // measure 46
0011
0010
0001
1010
0100
0010
1001
1001
,  // measure 47
1100
0100
0110
0010
0011
0001
0101
1000
,  // measure 48
1001
0010
0100
0101
1000
0100
0110
0000
,  // measure 49
1001
0000
0000
0000
0010
0000
1000
0100
0001
0000
0000
0000
0010
0000
1000
0100
,  // measure 50
0001
0000
0001
0100
1000
0000
1000
0100
0001
0000
0011
0000
1100
0000
0000
0000
,  // measure 51
1001
0000
0000
0000
0010
0000
1000
0100
0001
0000
0000
0000
0010
0000
1000
0100
,  // measure 52
0001
0000
0001
0100
1000
0000
1000
0100
0001
0000
1020
0000
0200
0000
0330
0000
,  // measure 53
0110
0000
0001
0000
0001
0000
0001
0000
0010
0100
1000
0000
0010
0000
0100
0000
,  // measure 54
0102
1000
1003
1010
0000
0100
0100
0100
,  // measure 55
0101
0000
0011
0100
1100
1001
0000
1010
,  // measure 56
0100
0000
0000
0010
0000
0000
1000
0000
0000
0000
0000
0000
0000
0000
0000
0000
0000
0000
0101
0000
0000
0000
0000
0000
0001
0000
0000
0000
0010
0000
0000
0000
0001
0000
0000
0000
1000
0000
0000
0000
0010
0000
0000
0000
1000
0000
0000
0000
,  // measure 57
0010
0100
0010
0100
0001
1000
0001
1000
0010
0100
0010
0100
0001
1000
0001
1000
,  // measure 58
0100
0010
0001
0000
0100
0010
1000
0000
0001
0000
0010
0000
0100
0000
1000
0000
,  // measure 59
0010
0000
0100
0000
0010
0000
1000
0000
1000
0001
0100
0000
0001
0010
1000
0000
,  // measure 60
0001
0100
0001
0000
1000
0100
1000
0000
0010
0000
0100
0000
0001
0000
0010
0000
,  // measure 61
0100
0000
1000
0000
0010
0000
1000
0000
1000
0001
0010
0000
0001
0100
0010
0000
,  // measure 62
1010
0000
0101
0000
0000
0000
1100
0000
0010
1000
0100
0000
0010
0001
0100
0000
,  // measure 63
0001
0010
0100
0000
1000
0100
1000
0000
0001
0010
0001
0000
0100
0010
1000
0000
,  // measure 64
1010
0000
1100
0000
0000
0000
0011
0000
0100
0010
1000
0000
0100
0010
0001
0000
,  // measure 65
1000
0010
1000
0010
0100
0010
0100
0010
0100
0001
0100
0001
1000
0001
1000
0001
,  // measure 66
0010
0001
1000
0000
0010
1000
0100
0000
0010
0000
0001
0000
1000
0000
0001
0000
,  // measure 67
0100
0000
0010
0000
1000
0000
0001
0000
0001
0010
0100
0000
0010
0001
1000
0000
,  // measure 68
0100
0010
0100
0000
1000
0001
1000
0000
0001
0000
0010
0000
0001
0000
0100
0000
,  // measure 69
0010
0000
1000
0000
0100
0000
0001
0000
0001
0010
0001
0000
1000
0010
0100
0000
,  // measure 70
0110
1001
0000
1000
0010
0010
0100
0100
,  // measure 71
0001
1000
0001
0100
0002
0013
0200
1300
,  // measure 72
1100
0101
0000
0010
1000
1000
0001
0001
,  // measure 73
0100
0001
0100
0001
1000
0100
1000
0100
0010
0001
0010
0001
1000
0010
1000
0010
,  // measure 74
0200
0000
0000
0300
;
