#TITLE:BEMANI PRO LEAGUE Theme;
#SUBTITLE:;
#ARTIST:BEMANI Sound Team 'Sota F.';
#TITLETRANSLIT:;
#SUBTITLETRANSLIT:;
#ARTISTTRANSLIT:;
#GENRE:;
#CREDIT:;
#MUSIC:BEMANI PRO LEAGUE Theme.ogg;
#BANNER:;
#BACKGROUND:;
#CDTITLE:;
#SAMPLESTART:16.169;
#SAMPLELENGTH:14.328;
#SELECTABLE:YES;
#OFFSET:-0.050;
#BPMS:0.000=134.000;
#STOPS:;
#BGCHANGES:;
#FGCHANGES:;

//--------------- dance-single - eataninja ----------------
#NOTES:
     dance-single:
     eataninja:
     Beginner:
     2:
     0,0,0,0,0:
0000
0000
0000
0000
,
0000
0000
0000
0000
,
0000
0000
0000
0000
,
0000
0000
0000
0000
,
0000
0000
0000
0000
,
1000
0000
1000
0000
,
0001
0000
0010
0000
,
0001
0000
0001
0000
,
2000
0000
3000
0000
,
0010
0000
0100
0000
,
0010
0000
1000
0000
,
0001
0000
0000
0000
,
0010
0010
0010
0000
,
0010
0000
0100
0000
,
0010
0000
0001
0000
,
1000
0000
0000
0000
,
0010
0010
0010
0000
,
0200
0000
0300
0000
,
0001
0001
0001
0000
,
1000
0000
0000
0000
,
0100
0100
0100
0000
,
0100
0000
0000
0000
,
1000
1000
1000
0000
,
0001
0000
0000
0000
,
0100
0100
0100
0000
,
0100
0000
0000
0000
,
0010
0000
0100
0000
,
0010
0000
0010
0000
,
1000
0000
0001
0000
,
1000
0000
0000
0000
,
0100
0000
0010
0000
,
0100
0000
0100
0000
,
0000
1000
1000
0000
,
0001
0000
0000
0000
,
1001
0000
0000
0000
,
0100
0000
0000
0000
,
1001
0000
0000
0000
,
0010
0000
0000
0000
,
0100
0100
0100
0000
,
1001
0000
0000
0000
,
0010
0010
0010
0000
,
1001
0000
0000
0000
,
0000
0000
0000
0000
,
1000
0000
0100
0000
,
1000
0000
1000
0000
,
0001
0000
0100
0000
,
0001
0000
0001
0000
,
1000
0000
0010
0000
,
1000
0000
1000
0000
,
0001
0000
0010
0000
,
0001
0000
0000
0000
,
0001
0000
0010
0000
,
0100
0000
0100
0000
,
1000
0000
0010
0000
,
0100
0000
0100
0000
,
0001
0000
1000
0000
,
0100
0000
0100
0000
,
1000
0000
0001
0000
,
0100
0000
0000
0000
,
0020
0000
0030
0000
,
0010
0010
0010
0000
,
0100
0000
0000
0000
,
0001
0001
0001
0000
,
1000
0000
0000
1001
;

//--------------- dance-single - eataninja ----------------
#NOTES:
     dance-single:
     eataninja:
     Easy:
     5:
     0,0,0,0,0:
0000
0000
0000
0000
,
0000
0000
0000
0000
,
0000
0000
0000
0000
,
0000
0000
0000
0000
,
0000
0000
0000
0000
,
0001
0001
0100
0000
,
0100
0100
0010
0000
,
1000
1000
0001
0000
,
0010
0000
0110
0000
,
1000
0001
1000
0000
,
0010
0100
0001
1000
,
0100
0000
0000
0000
,
0100
0010
0001
0000
,
0001
1000
0001
0000
,
0100
0010
1000
0001
,
0010
0000
0000
0000
,
0100
0000
1000
1001
,
0002
0000
0000
0003
,
0100
0010
0100
0100
,
0001
0000
0001
0000
,
0010
0100
0010
0010
,
0000
0010
0100
1000
,
0010
0100
0010
0010
,
1000
0000
1000
0000
,
0100
0010
0100
0100
,
0000
1001
1001
1001
,
0010
0100
0002
1003
,
0100
0010
0001
1000
,
0010
0100
0010
0010
,
1001
0000
1000
0000
,
0100
0010
0002
1003
,
0010
0100
0001
1000
,
0000
0100
0010
0100
,
1001
0000
0010
0000
,
1000
0010
0001
0010
,
1000
0000
0000
0000
,
0001
0010
0100
0100
,
1000
0000
0000
0000
,
0001
0100
1000
0100
,
0001
0000
0001
0000
,
1000
0100
0010
0010
,
0001
0000
2002
0000
,
0000
0000
0000
3003
,
1000
0010
1000
0010
,
0100
0001
0010
0100
,
1000
0001
1000
0001
,
0010
0100
0100
0000
,
1000
0001
0100
0001
,
0010
0100
1000
0001
,
0100
0010
0100
0001
,
1000
0000
1000
0000
,
0100
0010
0001
1000
,
0010
0100
0001
1000
,
0010
0100
0010
1000
,
0001
0010
0100
0000
,
1000
0100
1000
0100
,
0010
0001
0100
0010
,
1000
0001
1000
0010
,
0100
0100
1001
0002
,
0000
0000
0000
0003
,
0001
0100
1000
1000
,
0100
0100
0001
0000
,
1000
0100
0001
0001
,
0100
0100
0010
1001
;

//--------------- dance-single - eataninja ----------------
#NOTES:
     dance-single:
     eataninja:
     Medium:
     8:
     0,0,0,0,0:
0000
0000
0000
0000
,
0000
0000
0000
0000
,
0000
0000
0000
0000
,
0000
0000
0000
0000
,
0000
0000
0000
0000
,
0001
0000
0001
0000
0010
0010
0010
0000
,
0100
0100
0100
0000
0001
0100
1000
0000
,
0001
0000
0001
0000
0100
0100
0100
0000
,
0010
0000
1000
0000
0100
0010
0110
0000
,
2000
0001
0100
3001
,
1000
0010
0100
1000
0000
0100
0000
0001
,
0000
0101
1000
1100
,
0020
0000
0130
0000
1000
0001
1000
0000
,
0002
1000
0010
1003
,
0001
0100
0010
0001
0000
0010
0000
1000
,
0000
1010
0001
0011
,
1000
0000
1000
0000
0001
0100
0110
0000
,
2000
0000
0000
3000
,
0001
0000
0010
0000
1000
0010
1000
0000
,
0001
0000
0100
0000
1000
1000
1000
0000
,
0001
0000
0100
0000
1000
0100
1000
0000
,
0000
0000
0110
0000
0100
0001
1000
0000
,
1000
0000
0100
0000
0001
0100
0001
0000
,
1000
0000
0010
0000
0001
0001
0001
0000
,
1000
0000
0010
0000
0001
0010
0001
0000
,
0000
0110
1001
0110
,
1000
0000
1000
0001
0010
1000
0010
0000
,
0100
0010
0100
0100
1000
1000
0001
0000
,
1000
0000
0010
0000
0001
1000
0100
0000
,
0102
0000
1000
1003
,
0001
0000
0001
1000
0100
0001
0100
0000
,
0010
0100
0010
0010
0001
0001
1000
0000
,
0000
0000
0010
0000
0001
0010
1000
0000
,
1001
0000
0000
0000
0000
0000
0000
0000
0010
0000
0000
0100
0000
0000
0100
0000
,
1000
0001
0100
0010
,
0100
0100
0100
0000
0101
0000
1010
0000
,
0001
1000
0100
0010
,
0100
0100
0100
0000
1100
0000
0011
0000
,
1000
0001
1000
0000
0010
0100
0010
0000
,
1000
1000
0001
0001
0010
0010
0100
0000
,
1000
0001
1000
0001
0100
0001
0100
0001
,
0020
0000
0100
0130
,
0000
0000
0000
1001
,
1000
0000
0001
0100
0001
0000
0100
1000
,
0100
0000
0010
1000
0001
0000
0110
0000
,
1000
0000
0001
0010
0100
0000
1000
0001
,
1000
0000
0010
0100
0002
0000
2003
0000
,
3001
0000
1000
0100
1000
0000
0100
0001
,
0100
0000
0010
0001
1000
0000
0110
0000
,
0001
0000
1000
0010
0100
0000
0001
1000
,
0001
0000
0010
0100
1000
1000
0001
0000
,
0101
0000
1000
0001
0010
0000
1000
0010
,
0001
0000
0010
0100
1000
1000
1000
0000
,
1100
0000
0001
1000
0010
0000
0001
0010
,
1000
1000
0002
0023
,
0130
0000
0001
0100
1000
0000
1000
0010
,
0001
0000
0010
0100
0001
0001
1000
0000
,
1010
0000
0001
0010
0100
0000
0100
1000
,
0010
0001
0010
0000
0100
0001
2000
0000
,
0100
0100
3100
1001
,
0001
0000
0100
0000
0010
0010
0010
0000
,
1000
1000
1000
0000
0001
0010
0100
0000
,
1000
0000
0010
0000
1000
1000
1000
0000
,
0001
0001
1000
1000
0010
0100
1001
0000
;

//--------------- dance-single - eataninja ----------------
#NOTES:
     dance-single:
     eataninja:
     Hard:
     12:
     0,0,0,0,0:
0000
0000
0000
0000
,
0000
0000
0000
0000
,
0000
0000
0000
0000
,
0000
0000
0000
0000
,
0000
0000
0000
0000
,
1000
0000
0000
0000
1000
0000
0010
0100
0000
0100
0000
0100
0000
0000
0001
0000
,
1000
0000
1000
0000
1000
0000
0000
0100
0000
0001
0000
0100
0000
0000
1000
0000
,
0001
0000
0000
0000
0001
0000
0100
0010
0000
0010
0000
0010
0000
0000
1000
0000
,
0200
0000
0000
0000
0000
0000
0300
0000
0010
0100
0010
0000
1001
0000
0000
0000
,
1000
0010
0001
0010
0100
0010
1000
0000
,
0001
0000
0010
0000
0100
0000
0001
0000
0100
0000
1000
0000
0001
0000
0100
0010
,
0100
0000
0110
0000
0010
1000
1001
0000
,
2000
0000
0000
0000
0100
0000
0000
0001
3000
0000
0001
0000
0101
0000
0000
0000
,
0001
0100
1000
0100
0010
0100
0001
0000
,
1000
0000
0100
0000
0010
0000
1000
0000
0010
0000
0001
0000
1000
0000
0010
0100
,
0010
0000
0110
0000
0100
0001
1001
0000
,
1000
0000
0000
0000
1000
0000
0000
0000
0100
0010
0100
0000
1001
0000
0000
0000
,
1000
0000
0000
0010
0000
0000
0010
0000
0100
0001
1000
0000
0001
0000
0000
0000
,
0021
1000
0100
0031
,
1000
0000
0000
0000
0000
0000
0010
0000
0000
0100
0000
0000
0001
0000
1000
0000
0001
0000
1000
0000
0000
0000
0000
0000
,
1200
0001
0010
1300
,
0000
0000
1000
0100
0010
0001
0100
0000
,
0201
1000
0010
0301
,
1000
0000
0000
0000
0000
0000
0100
0000
0000
0010
0000
0000
0001
0000
1000
0000
0001
0000
1000
0000
0000
0000
0000
0000
,
1020
0001
0100
1030
,
0000
1010
0011
0101
,
1000
0000
0010
0100
1000
0100
0001
0000
,
1000
0100
0001
0001
0100
0100
1000
1000
,
0001
0000
0100
0100
1000
0100
0001
1000
,
0100
0010
0001
0001
0100
0010
1000
1000
,
0001
0000
0100
0010
0001
0010
1000
0000
,
0001
0010
1000
1000
0010
0010
0001
0000
,
0000
0000
0100
0010
0001
0010
1000
0100
,
0001
0000
0100
0000
1000
0000
0010
0000
0100
0000
0000
0010
0000
0000
0010
0000
,
1000
0000
0000
0000
0001
0000
0000
0000
0010
0000
0000
0000
0010
0100
0000
1000
,
0000
0000
1000
0000
0001
0000
0001
0000
0100
0000
0000
0010
0000
0000
0010
0000
,
1000
0000
0000
0000
0001
0000
0000
0000
0100
0000
0000
0000
0100
1000
0000
0100
,
0000
0000
0010
0000
1000
0000
1000
0000
0001
0000
0000
0010
0000
0000
0010
0000
,
0100
0100
1000
1000
0001
0001
1000
1000
,
0100
0010
0001
1000
0010
0100
0001
1000
,
0100
0010
0100
0010
0001
1000
0001
1000
,
0100
0000
0010
0000
0001
0000
0001
0000
0100
0000
0000
1001
0000
0000
2002
0000
,
0000
0000
0000
3003
,
0011
0000
0000
0000
0010
0001
0000
1000
0000
0001
0000
0000
0100
0010
0000
0100
,
0000
0001
0000
0000
0010
0100
0000
1000
0000
1000
0000
0001
0000
0000
0100
0000
,
0110
0000
0000
0000
0010
1000
0000
0001
0000
1000
0000
0000
0100
0010
0000
0001
,
0000
1000
0000
0000
0010
0100
0010
0000
0200
0000
0000
0000
0302
0000
0000
0000
,
1003
0000
0000
0000
1000
0100
0000
0001
0000
0100
0000
0000
0010
0100
0000
1000
,
0000
0001
0000
0000
0100
0010
0000
1000
0000
1000
0000
0001
0000
0000
0100
0000
,
0110
0000
0000
0000
0001
0100
0000
1000
0000
0100
0000
0000
0010
0100
0000
0001
,
0000
1000
0000
0000
0100
0010
0000
0001
0000
0001
0000
0100
0000
0000
0010
0000
,
1001
0000
0000
0000
0010
0000
0100
0001
0000
1000
0000
0100
0010
0000
0100
1000
,
0000
0001
0000
0100
0010
0000
0100
1000
0000
1000
0000
0100
0000
0000
0001
0000
,
1001
0000
0000
0000
0100
0000
0010
0001
0000
1000
0000
0010
0100
0000
1000
0100
,
0000
0001
0000
0010
0100
0000
1000
0000
0002
0000
0000
0000
0203
0000
0000
0000
,
0310
0000
0000
0000
1000
0000
0001
0010
0000
0100
0000
1000
0001
0000
0010
1000
,
0000
0010
0000
0100
1000
0000
0010
0100
0000
0100
0000
0001
0000
0000
1000
0000
,
1100
0000
0000
0000
1000
0000
0001
0100
0000
0010
0000
0001
0010
0000
0100
0001
,
0000
0010
0000
0100
0001
0000
0100
1000
0000
1000
0000
0010
0000
0000
0100
0000
,
0000
0000
0000
0000
0000
0000
0000
0000
0010
0100
0010
0000
1001
0000
0000
0000
,
1000
0000
0000
0000
1000
0000
0100
0010
0000
0010
0000
0010
0000
0000
0001
0000
,
1000
0000
1000
0000
1000
0000
0000
0010
0000
0001
0000
0010
0000
0000
1000
0000
,
0001
0000
0000
0000
0001
0000
0010
0100
0000
0100
0000
0100
0000
0000
0010
0000
,
0001
0000
0001
0000
0100
0000
0001
0000
1000
0100
0010
0000
1001
0000
0000
0000
;

//--------------- dance-single - eataninja ----------------
#NOTES:
     dance-single:
     eataninja:
     Challenge:
     14:
     0,0,0,0,0:
0000
0000
0000
0000
,
0000
0000
0000
0000
,
0000
0000
0000
0000
,
0000
0000
0000
0000
,
0000
0000
0000
0000
,
0001
0000
0000
0000
0001
0000
0100
0010
0000
0010
0000
0010
0000
1000
0001
1000
,
0100
0000
0100
0000
0100
0000
0000
0010
0000
0001
0000
0100
0000
0000
0010
0000
,
1000
0000
0000
0000
1000
0000
0001
0010
0000
0010
0000
0010
0000
0100
0010
0001
,
2000
0000
0000
0000
3000
0000
0000
0000
0010
0100
0010
0000
1001
0000
0000
0000
,
1000
0100
0001
0100
MMMM
0001
1000
0000
,
0010
0100
1000
0100
MMMM
1000
MMMM
0010
,
0001
0000
1001
0000
1000
0010
0100
0000
,
0020
0000
0000
0000
2030
0000
0000
3001
0000
0000
0010
0000
0011
0000
0000
0000
,
0001
0100
1000
0100
MMMM
1000
0001
0000
,
0010
0100
0001
0100
MMMM
0001
MMMM
0010
,
1000
0000
1001
0000
0001
0100
0010
0000
,
1000
0000
0000
0000
1100
0000
0000
0000
0001
0010
0100
0000
1001
0000
0000
0000
,
1000
0000
0000
0010
0000
0000
0010
0000
0100
0010
0100
0010
1000
0000
0000
0000
,
MMMM
0000
0000
0000
1000
0100
0010
0001
0000
0001
0100
0010
1000
0001
1000
0001
,
0010
0000
0000
0000
0000
0000
0100
0000
0000
0001
0000
0000
0100
0000
0010
0000
0010
0000
0001
0000
0000
0000
0000
0000
,
MMMM
0000
0000
0000
0001
0100
0010
1000
0000
1000
0010
0100
0001
1000
0001
1000
,
0000
0000
0000
0000
0100
0000
0010
0000
0001
0000
0100
0010
1000
0000
0000
0000
,
MMMM
0000
0000
0000
1000
0001
0010
0100
0000
0100
1000
0001
0100
0010
0100
0010
,
1000
0000
0000
0000
0000
0000
0010
0000
0000
0001
0000
0000
0010
0000
0100
0000
0100
0000
0001
0000
0000
0000
0000
0000
,
MMMM
0000
0000
0000
0001
1000
0100
0010
0000
0010
0001
1000
0001
0100
0001
0100
,
0000
0000
0101
MMMM
1010
MMMM
1001
0000
,
1100
0000
1100
0100
0001
0100
0010
0000
,
0001
0000
1000
0010
0100
0000
0100
0000
0001
0000
1000
0001
0010
0000
0010
0000
,
0100
0000
0100
0100
0001
0100
1000
0001
,
0100
MMMM
1000
MMMM
0100
0100
0010
0010
,
1010
0000
1010
0010
0001
0010
0100
0000
,
0001
0000
1000
0100
0010
0000
0010
0000
0001
0000
1000
0001
0100
0000
0000
0000
,
MMMM
0000
0010
0010
0001
0010
1000
0001
,
0010
0000
0100
0000
1000
0000
1000
0000
0001
0000
0000
MMMM
0000
0000
MMMM
0000
,
1100
0000
0000
0000
0011
0000
0000
0000
0101
0000
0000
0000
0100
0010
0000
2000
,
0000
0000
3001
0000
0010
0000
0010
0000
0100
0000
0000
1000
0000
0000
1000
0000
,
1010
0000
0000
0000
0101
0000
0000
0000
1001
0000
0000
0000
1000
0010
0000
0200
,
0000
0000
0301
0000
1000
0000
1000
0000
0001
0000
0000
0010
0000
0000
0010
0000
,
0100
0100
1000
1000
0001
0001
0100
0100
,
0010
0100
0010
0000
0100
0001
0100
0000
0001
1000
0001
0000
1000
0100
1000
0000
,
0001
0010
0001
0010
0001
0010
0001
0010
0100
1000
0100
1000
0100
1000
0100
1000
,
0001
0100
0010
0000
1000
0000
1000
0000
0001
0000
0000
0011
0000
0000
0011
0000
,
0000
0000
0000
MMMM
0000
0000
MMMM
0000
1000
0000
0010
0000
0101
0000
0000
0000
,
MMMM
0000
0000
0000
1000
0100
0010
1000
0000
0010
0000
0100
0010
0001
1000
0010
,
0000
0100
0000
0010
0100
0001
1000
0100
0000
0100
0000
0010
0000
0000
0001
0000
,
MMMM
0000
0000
0000
0001
0100
0010
0001
0000
0010
0000
0100
0010
1000
0001
0010
,
0000
1000
0000
0010
0100
1000
0001
0100
0020
0000
0000
0000
0230
0000
0300
0000
,
MMMM
0000
0000
0000
1000
0001
0010
1000
0000
0010
0000
0100
1000
0001
1000
0010
,
0000
0100
0000
0010
0100
0001
1000
0100
0000
0100
0000
0010
0000
0000
0001
0000
,
MMMM
0000
0000
0000
0001
1000
0010
0001
0000
0010
0000
0100
0001
1000
0100
0010
,
0000
1000
0000
0010
0100
1000
0001
0100
0000
0100
0000
0010
0000
0000
1000
0000
,
1001
0000
0000
0000
1000
0100
0010
0001
0000
MMMM
0000
0001
0100
0010
0100
0001
,
0000
MMMM
0000
0100
0010
0001
1000
0010
0000
0010
0000
0100
0000
0000
0001
0000
,
1001
0000
0000
0000
0001
0100
0010
1000
0000
MMMM
0000
1000
0100
0010
0001
1000
,
0000
MMMM
0000
0100
0010
0100
0001
0010
0200
0000
0000
0000
1300
0000
0000
0000
,
1100
0000
0000
0000
1000
0001
0100
0010
0000
MMMM
0000
0001
1000
0100
0010
0001
,
0000
MMMM
0000
0100
0010
0001
1000
0010
0000
0010
0000
0100
0000
0000
0001
0000
,
0101
0000
0000
0000
0100
0010
1000
0001
0000
MMMM
0000
0100
0010
0001
1000
0010
,
0000
MMMM
0000
0001
1000
0010
0100
0001
0000
0001
0000
1000
0000
0000
0100
0000
,
0000
0000
0000
MMMM
0000
0000
MMMM
0000
0001
1000
0010
0000
1001
0000
0000
0000
,
0001
0000
0000
0000
0001
0000
0010
0100
0000
0100
0000
0100
0000
1000
0001
1000
,
0010
0000
0010
0000
0010
0000
0000
0100
0000
0001
0000
0010
0000
0000
0100
0000
,
1000
0000
0000
0000
1000
0000
0100
0010
0000
0010
0000
0010
0000
0001
1000
0001
,
0100
0000
0100
0000
0100
0000
0000
0100
0010
0100
0001
1000
0100
0000
0000
0000
;
