#TITLE:Another Xronixle;
#ARTIST:かめりあ;
#ARTISTTRANSLIT:Camellia;
#BANNER:Another Xronixle.png;
#BACKGROUND:Another Xronixle-bg.png;
#JACKET:Another Xronixle-jacket.png;
#CDTITLE:./CDTITLES/NONE.PNG;
#MUSIC:Another Xronixle.ogg;
#SAMPLESTART:82.409;
#SAMPLELENGTH:15;
#BPMS:0=166,164=83,180=166;

//---------------dance-single - t7r----------------
#NOTES:
     dance-single:
     t7r:
     Beginner:
     5:
     :
0000
0000
0000
0000
,
0000
0000
0000
0000
,
0000
0000
0000
0000
,
0000
0000
0000
0000
,
0000
0000
0000
0000
,
0001
0000
0000
0000
,
0000
0000
0000
0000
,
1000
0000
0000
0000
,
0010
0000
0010
0000
,
0100
0000
0000
0000
,
0001
0000
0000
0000
,
0010
0000
0000
0000
,
0100
0000
0000
0000
,
1000
0000
1000
0000
,
0010
0000
0010
0000
,
0100
0100
0100
0000
,
0001
0000
0000
0000
,
0000
0010
0000
0010
,
0010
0000
0100
0000
,
0000
1000
0000
1000
,
1000
0000
0010
0000
,
0000
0100
0000
0100
,
0100
0000
0001
0000
,
0000
0010
0000
0010
,
0010
0000
0000
0000
,
0100
0000
1000
0000
,
0100
0000
0010
0000
,
0001
0001
0001
0000
,
1000
1000
1000
0000
,
0000
0010
0000
0010
,
0000
0100
0000
0100
,
0100
0000
0010
0000
,
1000
0000
0000
0000
,
0001
0000
0010
0000
,
0100
0000
1000
0000
,
0010
0000
0100
0000
,
0001
0000
1000
0000
,
0100
0000
0001
0000
,
0100
0000
0010
0000
,
0001
0000
1000
0000
,
0010
0000
0000
0000
,
0100
0000
0000
0000
,
0000
0000
0000
0000
,
0010
0000
0000
0000
,
1000
0000
0001
0000
,
0010
0000
0000
0000
,
0010
0000
0000
0000
,
0001
0000
0000
0000
,
0001
0000
0000
0000
,
1000
1000
1000
0000
,
0001
0001
0001
0000
,
0100
0100
0100
0100
,
0100
0000
0000
0000
,
0001
0000
0100
0000
,
1000
0000
0100
0000
,
0001
0000
0010
0000
,
1000
0000
0010
0000
,
0100
0100
0100
0000
,
0010
0010
0010
0000
,
0001
0001
0001
0000
,
1000
1000
1000
0000
,
0010
0000
0010
0000
,
1000
0000
1000
0000
,
0001
0000
0001
0000
,
0010
0000
0010
0000
,
0100
0100
0100
0000
,
0010
0010
0010
0000
,
0001
0001
0001
0000
,
1000
1000
1000
0000
,
0100
0000
0000
0000
,
0100
0000
0100
0000
,
0000
0010
0000
0010
,
0010
0000
0010
0000
,
0001
0000
0001
0000
,
1000
0000
1000
0000
,
0010
0010
0010
0000
,
0100
0100
0100
0000
,
1001
0000
0000
0000
,
0010
0000
0010
0000
,
0010
0010
0010
0000
,
0100
0000
0100
0000
,
0100
0100
0100
0000
,
1001
0000
0000
0000
;

//---------------dance-single - t7r----------------
#NOTES:
     dance-single:
     t7r:
     Easy:
     11:
     :
0000
0000
0000
0000
,
0000
0000
0000
0000
,
0000
0000
0000
0000
,
0000
0000
0000
0000
,
0000
0000
0000
0000
,
1000
0000
0000
1000
0000
0000
0001
0000
0000
0001
0000
0000
0200
0000
0000
0000
,
0000
0000
0000
0000
0000
0000
0000
0000
0000
0000
0000
0320
0000
0000
0000
0000
,
1030
0000
0000
1000
0000
0000
0100
0000
0000
0010
0000
0000
0002
0000
0000
0000
,
1000
0010
0103
1001
,
0001
0010
0200
0000
,
1300
0000
0010
0000
,
1000
1000
0100
0010
,
0001
0001
0100
0010
,
1000
0100
1000
0000
0001
0100
0001
0000
,
1000
0010
1000
0000
0001
0010
0001
0000
,
1000
0001
1000
0001
1000
1000
0001
0001
,
2000
0000
3000
0110
,
1000
0000
0100
0000
1000
0000
0010
0010
,
0100
0000
0001
0000
0010
0000
0001
0001
,
1000
0000
0100
0000
0010
0000
0100
0100
,
1000
0000
0001
0000
0100
0010
0000
0010
,
1000
0000
0001
0000
0010
0000
0001
0001
,
0100
0000
0010
0000
1000
0000
0100
0100
,
0010
0000
0000
0000
0001
0000
0000
0000
1000
0000
0000
1000
0000
0000
0010
0000
,
0200
0000
0000
0310
,
1000
0000
0100
0000
0001
0000
0100
0100
,
1000
0000
0001
0000
0100
0000
0010
0010
,
1000
0000
0010
0000
0001
0000
0010
0010
,
1000
0000
0001
0000
0010
0100
0000
0100
,
0020
0030
1001
0000
,
0200
0300
1001
0000
,
1010
0000
0101
0000
,
2100
0001
3010
1000
,
0001
0000
0000
0010
0000
0000
0001
0000
2000
0000
3000
0000
2000
0000
3000
0000
,
0001
0000
0100
0000
0010
1000
0001
0000
,
1000
0000
0000
0100
0000
0000
0010
0000
0002
0000
0003
0000
0002
0000
0003
0000
,
1000
0000
0000
0010
0000
0000
0100
0000
0010
0000
1000
0000
0001
0000
0000
0000
,
1000
0000
0000
0100
0000
0000
0001
0000
0200
0000
0300
0000
0200
0000
0300
0000
,
1000
0000
0000
0010
0000
0000
0001
0000
0020
0000
0030
0000
0020
0000
0030
0000
,
1000
0100
0010
0000
0001
0100
0010
0000
,
2000
0010
3001
1000
,
0220
0000
0000
0000
,
0330
0000
0000
0000
,
1000
0000
0000
0000
0000
0000
0100
0000
0000
0000
0000
0000
0020
0000
0000
0000
0000
0000
0000
0000
0000
0000
0000
0000
0000
0000
0000
0130
0000
0000
0000
0000
,
1000
0000
0000
0001
0000
0000
0100
0000
0010
0000
2000
0000
3001
0010
0001
0000
,
2000
0100
0001
0010
,
3002
0100
2003
0010
,
3200
1000
0010
0001
,
0320
1000
0130
0110
,
0001
0100
0001
0100
0001
1000
0010
0000
,
1000
0100
1000
0100
1000
0001
0010
0000
,
0002
0003
0202
0303
2000
3000
2200
3300
,
2000
0000
3000
1001
,
1000
0000
0000
0001
0000
0000
1000
0000
0010
0000
0000
0100
0000
0000
0001
0000
,
1000
0000
0000
0100
0000
0000
0010
0000
0100
0000
0000
1000
0000
0000
0001
0000
,
0010
0000
0000
0001
0000
0000
1000
0000
0010
0000
0000
0100
0000
0000
0010
0000
,
1000
0000
0000
0001
0000
0000
0010
0000
0100
0000
0000
0010
0000
0000
0001
0000
,
1000
0000
0000
0100
0000
1000
0000
0100
0000
1000
0000
0000
0001
0000
0000
0000
,
1000
0000
0000
0010
0000
1000
0000
0010
0000
1000
0000
0000
0001
0000
0000
0000
,
1000
0000
0000
0100
0000
0010
0000
0000
0001
0000
0000
0100
0000
0010
0000
0000
,
1000
0000
0000
0010
0000
0100
0000
0010
0000
0100
0000
0010
0000
0000
0000
0000
,
0100
0000
0000
0001
0000
0000
1000
0000
0010
0000
0000
1000
0000
0000
0100
0000
,
0001
0000
0000
0100
0000
0000
0010
0000
0100
0000
0000
1000
0000
0000
0010
0000
,
0100
0000
0000
0010
0000
0000
0001
0000
0010
0000
0000
0100
0000
0000
0010
0000
,
1000
0000
0000
0001
0000
0000
1000
0000
0100
0000
0000
0010
0000
0000
0001
0000
,
1000
0000
0000
0010
0000
1000
0000
0001
0000
1000
0000
0000
0001
0000
0001
0000
,
1000
0000
0000
0100
0000
1000
0000
0001
0000
1000
0000
0000
0010
0000
0010
0000
,
0100
0000
0000
0100
0000
0000
0001
0000
0000
0001
0000
0000
0000
0000
0000
0000
,
1000
0000
0000
0010
0000
0000
0100
0000
0000
2020
0000
0000
0000
0000
3030
0000
,
2000
0100
3001
0000
,
0002
0100
1003
0000
,
1000
0000
0100
0000
0010
0000
0001
0001
,
0000
0000
0100
0000
0000
0100
0000
0000
0010
0000
0000
0010
0000
0000
1000
0000
,
0001
0010
0001
0010
0001
0010
0002
0000
,
1003
0010
1000
0010
1000
0010
2000
0000
,
3001
1000
0001
1000
0001
0001
2000
0000
,
3010
0000
0000
0010
0000
0000
0100
0000
0000
0100
0000
0000
0001
0000
1000
0000
,
0020
0000
0030
1001
,
1000
0100
1000
0000
0001
0100
0001
0000
,
1000
0010
1000
0000
0001
0010
0002
0000
,
1003
0100
0010
0001
1000
0100
0010
0001
,
1000
1000
0001
0001
0100
0000
0010
0000
,
2002
0000
0000
0000
,
0000
0000
0000
0000
,
3003
0000
0000
0000
;

//---------------dance-single - t7r----------------
#NOTES:
     dance-single:
     t7r:
     Medium:
     14:
     :
0000
0000
0000
0000
,
0000
0000
0000
0000
,
0000
0000
0000
0000
,
0000
0000
0000
0000
,
0000
0000
0000
0000
,
1000
0000
0000
0100
0000
0000
1000
0000
0000
1001
0000
0000
2200
0000
0000
0000
,
0000
0000
0000
0000
0000
0000
0000
0000
3300
0000
0000
2010
0000
0000
0000
0000
,
3001
0000
0000
0010
0000
0000
0001
0000
0000
0011
0000
0000
1002
0000
0000
0000
,
1003
0100
0010
0001
0100
0010
1010
0000
,
1000
0000
0000
0001
0100
0000
0000
0002
0010
0000
0000
0000
1003
0000
0000
0000
,
0001
0000
0000
0010
0100
0000
1000
0000
0010
0000
0000
0100
0001
0000
1000
0000
,
0010
0000
0000
0100
0010
0000
0001
0000
0010
0000
0000
0100
0010
0000
1000
0000
,
0100
0000
0000
0001
0100
0000
1000
0000
0001
0000
0000
0000
1001
0000
0000
0000
,
1000
0000
0010
1000
0010
0000
1000
0000
0001
0000
0010
0001
0010
0000
0001
0000
,
1000
0000
0100
1000
0100
0000
1000
0000
0001
0100
0000
0001
1000
0000
0001
0000
,
1000
0100
0000
0000
0010
0100
0000
0000
0010
0001
0000
0000
1000
0010
0000
0000
,
2001
0010
3001
1001
,
0001
0000
0100
0000
0001
0000
0010
0000
0010
0000
0001
0010
0001
0000
0001
0000
,
1000
0000
0100
0000
1000
0000
0010
0000
0010
0000
1000
0010
1000
0000
1000
0000
,
0001
0000
0010
0000
0001
0000
0100
0000
0100
0000
0001
0100
0001
0000
0001
0000
,
1000
0000
0100
0010
0000
0100
1000
0000
0001
0000
0010
0000
0100
0000
1000
0000
,
0001
0000
0100
0000
1000
0000
0100
0000
0100
0000
0001
0100
0001
0000
0001
0000
,
1000
0000
0100
0000
0001
0000
0100
0000
0100
0000
1000
0100
1000
0000
1000
0000
,
0001
0000
0010
0000
1000
0000
0010
0000
0010
0000
0000
0011
0000
0000
0001
1000
,
0020
0100
0001
1030
,
1001
0000
0000
0000
1000
0000
0001
0100
0001
0000
1000
0001
0100
0000
0100
0000
,
0001
0000
0000
0000
1000
0000
0001
0010
0001
0000
1000
0001
0010
0000
0010
0000
,
0001
1000
0000
1000
0000
0000
0010
0100
0010
0000
1000
0100
0010
0000
0010
0000
,
0001
0000
0100
1000
0000
0100
0010
0000
0100
0000
0010
0000
1000
0000
0001
0000
,
2001
0000
0000
0000
3010
0000
0000
0000
1000
0100
1000
0100
1000
0000
1000
0000
,
0002
0000
0000
0000
0103
0000
0000
0000
0001
0010
0001
0010
0001
0000
0001
0000
,
1000
0000
0100
0010
0000
0000
0001
0000
1000
0000
0010
0100
0000
0000
0001
0000
,
0020
1000
0031
1001
,
1000
0000
0100
0010
0000
0001
0000
0100
0010
2000
0000
3001
0200
0000
0000
0000
,
0310
0000
1000
0000
0100
0010
0000
0010
0001
0000
0100
0000
0010
0000
1000
0000
,
0001
0000
0100
0010
0000
1000
0000
0010
0100
0002
0000
1003
0200
0000
0000
0310
,
0001
0010
0000
0001
0000
0001
0100
0000
0010
0000
0010
0000
1000
0000
0001
0000
,
1000
0000
0000
1200
0000
0000
0310
0100
1000
0002
0000
1003
0002
0000
0103
0010
,
0100
0000
0000
0201
0000
0000
0310
0100
0001
2000
0000
3001
2000
0000
3001
0000
,
1000
0000
0010
1000
0010
0000
1000
0000
0001
0000
0010
0001
0010
0000
0001
0000
,
0200
0000
0000
0000
0320
0030
1000
0000
0001
0000
0100
0000
0020
0000
0030
0000
,
2002
0000
0000
0000
,
3003
0000
0000
0000
,
1000
0000
0000
0100
0000
0000
0010
0000
0000
0001
0000
0000
2000
0000
0000
0000
0000
0000
0000
0000
0000
0000
0000
0000
0000
0000
0000
3020
0000
0000
0000
0000
,
0130
0000
0000
0001
0000
0000
1000
0000
0000
0010
0000
0000
0200
0000
0000
0000
0301
0000
0020
0000
1030
0000
0010
0000
0001
0000
0100
0000
0001
1000
0001
0000
,
0200
0000
0000
0010
0000
0000
0001
0000
0001
0000
0000
0010
0300
0000
1000
0000
,
2000
0000
0000
0100
0000
0000
0001
0000
3002
0000
0000
0010
0000
0000
1003
0000
,
2000
0000
0000
0010
0000
0000
0001
0000
0001
0000
0000
0001
3000
0000
0100
0000
,
0200
0000
0000
1000
0000
0000
0010
0000
0320
0000
0000
0000
0230
0000
0000
0000
,
0301
0000
0010
0001
0010
0000
0001
0000
1000
0000
0010
1000
0010
0000
1000
0000
,
0001
0000
0100
0001
0100
0000
0001
0000
1000
0100
0000
1000
0001
0000
0000
0100
,
0001
1000
0000
0100
1000
0001
0000
0100
0001
0010
0000
0100
1000
0010
0000
0100
,
0020
0000
0130
1001
,
1000
0000
0000
0010
0000
0100
0000
0000
0010
0000
1000
0001
0000
0000
1000
0000
,
0001
0000
0000
0010
0000
0100
0000
0000
0010
0000
0001
1000
0000
0000
0010
0000
,
1000
0000
0000
0100
0000
0010
0000
0000
0100
0000
1000
0010
0000
0000
1000
0000
,
0001
0000
0000
0100
0000
0010
0000
0000
0100
0000
0001
0000
2000
0000
3002
0000
,
1003
0000
0100
0001
0000
0100
0000
0010
0000
0100
0000
1000
0000
0001
1000
0000
,
0001
0000
0100
1000
0000
0100
0000
0010
0000
0100
0000
0001
0000
1000
0001
0000
,
1000
0000
0010
0100
0000
1000
0000
0100
0010
0100
0000
0001
0000
1000
0000
0001
,
0010
0000
0000
0001
0000
0001
0000
1000
0000
1000
0000
2002
0000
0000
3003
0000
,
0001
0000
0100
1000
0000
0100
0000
0010
0100
0010
0100
0000
0002
0000
0000
0000
,
1003
0000
0100
0001
0000
0100
0000
0010
0100
0010
0100
0000
2000
0000
0000
0000
,
3001
0000
0100
0010
0000
0001
0000
0010
1000
0010
1000
0000
0002
0000
0000
0000
,
1003
0000
0100
0010
0000
1000
0000
0010
0001
0000
0000
1000
0020
0000
0000
0000
,
1030
0000
0100
1000
0000
0010
0000
0001
0000
0010
0000
0100
0010
0000
0010
0000
,
1000
0000
0100
0001
0000
0100
0000
0010
0000
0100
0000
1000
0001
0000
0001
0000
,
0010
0000
0000
0011
0000
0000
1001
0000
0000
1010
0000
1000
0000
0000
0001
0010
,
0001
0000
0000
0110
0000
0000
1001
0000
0000
2010
0000
0000
0002
0000
3003
0000
,
0200
0000
0000
0000
0000
0310
0000
0000
1001
0000
0000
0000
0000
0000
0010
0000
,
0200
0000
0000
0000
0000
0310
0000
0000
1001
0000
0001
0000
0100
0000
0000
0000
,
0001
0010
0000
0001
0000
0100
0000
0001
0010
0000
0001
0000
1000
0000
0100
0000
,
0000
0000
1000
0000
0000
1010
0000
0000
0001
0000
0000
0011
0000
0000
1000
0001
,
0020
0100
0100
0100
0100
0130
0020
0000
,
0032
0000
1000
0000
1000
0000
1003
0000
0001
1000
0001
1000
0020
0000
0000
0000
,
0130
0000
0001
0100
0010
0000
1000
0100
0010
0000
0001
0100
0020
0000
0000
0000
,
2030
3000
0000
0220
0330
0000
0002
0003
0000
0220
0330
0000
2000
0000
3001
1000
,
0020
0000
0100
0000
1030
0001
2001
0000
,
3001
0100
0001
0000
0100
0001
0000
0100
0001
0000
1000
0001
0000
1000
0001
0000
,
1000
0000
0000
0100
0000
0000
1000
0000
0000
0000
0001
0000
1000
0000
0000
0000
0001
0000
1000
0000
0000
0000
0010
0000
0200
0000
0000
0000
0000
0000
0000
0000
,
0301
1000
0001
0000
1000
0100
0000
0001
0100
1000
0010
0000
1000
0010
0000
0001
,
0020
0030
0020
0030
2000
3000
2000
3000
0001
0000
0010
0000
0100
0000
1000
0000
,
2002
0000
0000
0000
,
0000
0000
0000
0000
,
3003
0000
0000
0000
;

//---------------dance-single - t7r----------------
#NOTES:
     dance-single:
     t7r:
     Hard:
     17:
     :
0000
0000
0000
0000
,
0000
0000
0000
0000
,
0000
0000
0000
0000
,
0000
0000
0000
0000
,
0000
0000
0000
0000
,
1000
0000
0000
1010
0000
0000
1100
0000
0000
1010
0000
0000
2002
0000
0000
0000
,
0000
0000
0000
0000
0000
0000
0000
0000
3003
0000
0000
0201
0000
0000
0000
0000
,
0301
0000
0000
0011
0000
0000
1001
0000
0000
1010
0000
0000
2001
0000
0000
0000
,
3010
0000
0100
0001
0100
0000
0001
0000
1000
0000
0100
0010
0002
0000
0000
0000
,
1003
0000
0000
0010
1000
0000
0000
0020
0100
0000
0000
0000
1030
0000
0000
0000
,
0001
0010
0000
0001
0010
0000
0100
0000
1000
0010
0000
1000
0010
0000
0100
0000
,
0001
1000
0000
1000
0100
0000
0010
0000
0001
1000
0000
1000
0010
0000
0100
0000
,
0001
0000
0000
0010
0100
0000
0010
0000
0001
0000
1000
0000
1001
0000
0000
0000
,
1000
0100
1000
0100
0010
0001
0020
0000
0031
0100
0001
0100
0010
1000
0020
0000
,
1030
0010
1000
0010
0100
0001
2000
0000
3001
0020
0000
0130
0020
0000
0000
0031
,
2000
0100
0000
3001
2000
0100
0000
3001
0200
0010
0000
0301
0200
0010
0000
0301
,
1000
0000
0001
0000
0100
0000
0010
1000
0000
0001
1000
0000
1002
0000
0000
0000
,
1003
0000
0100
0000
0010
0001
0010
0001
1000
0001
1000
0001
0010
0000
0010
0000
,
0001
0000
0100
0000
0010
1000
0010
1000
0001
1000
0000
1000
0001
0000
1001
0000
,
1000
0000
0010
0000
0100
0010
0100
0010
1000
0001
1000
0001
0100
0000
0100
0000
,
0001
0000
1000
0010
0000
0100
0010
0000
1000
0000
0100
0000
0010
0000
0001
0000
,
1000
0000
0010
0000
0100
1000
0100
1000
0100
0010
0100
0010
0100
0000
0100
0000
,
0001
0000
0010
0000
0100
0001
0100
0001
0100
0010
0000
0010
0001
0100
0020
0000
,
1030
0000
0100
0000
0010
1000
0010
1000
0010
0000
0000
0110
0000
0000
1001
0000
,
0002
0000
0000
0000
0100
0000
0000
0000
1000
0000
0000
0000
0013
0000
0001
1000
,
0001
0000
0100
0000
1000
0000
0100
0010
0100
0010
0100
0001
0100
0000
0100
0000
,
1000
0000
0100
0000
0001
0000
0010
0100
0000
0100
0000
1000
0010
0000
0110
0000
,
0100
0001
0000
0010
0000
0010
0100
0010
0001
0100
0001
0100
0010
0000
0010
0000
,
1000
0000
0100
0010
0000
1000
0010
0100
0010
0000
0001
0000
0100
0000
0010
0000
,
2000
0000
0000
0000
3100
1000
0000
0000
0001
0010
0001
0010
0100
0010
0001
0000
,
0200
0000
0000
0000
0310
0100
0000
0000
0010
1000
0010
1000
0001
0010
0001
0000
,
1001
0000
0001
0100
0010
0000
1000
0000
1001
0000
1000
0100
0010
0000
0001
0000
,
0200
0000
0000
1300
0100
0000
0010
0000
0100
0001
0000
1000
0001
0010
0100
1000
,
0001
0000
0010
0100
0000
0010
0000
0001
1000
0020
0000
0130
0020
0000
1030
0000
,
0001
0000
0010
0000
1000
0010
0000
0100
0010
0000
0001
0000
1000
0010
0100
0001
,
1000
0000
0100
0010
0000
0100
0000
1000
0001
0200
0000
0310
0200
0000
0301
1000
,
0100
0010
0000
0100
0000
0100
0001
0000
0100
0000
0100
0000
1000
0010
0100
0001
,
1000
0000
0000
1200
0000
0000
0301
0100
1000
0020
0000
0031
0020
0000
1030
0001
,
0100
0000
0000
1200
0000
0000
1300
0100
0001
0020
0000
1030
0020
0000
0031
1000
,
0001
0100
0001
0100
0010
1000
0010
1000
0001
0010
0100
1000
0010
0100
0001
1000
,
0020
0000
0000
0000
0230
0300
0010
0000
1000
0001
1000
0001
2000
0000
3000
0000
,
0220
0000
0000
0000
,
0330
0000
0000
0000
,
1000
0000
0000
0010
0000
0000
0100
0000
0000
0001
0000
0000
0020
0000
0000
0000
0000
0000
0000
0000
0000
0000
0000
0000
0000
0000
0000
0032
0000
0000
0000
0000
,
0103
0000
0000
0010
0000
0000
1000
0000
0000
0001
0000
0000
0020
0000
0000
0000
0031
0000
0200
0000
1300
0000
0100
0000
0010
0100
0000
0100
0001
0010
0100
1000
,
0002
0000
0000
0100
0000
0000
1000
0000
1000
0000
0000
0010
0003
0000
0001
1000
,
0020
0000
0000
0100
0000
0000
1030
0010
2000
0000
0000
0100
0000
0000
3001
1000
,
0200
0000
0000
0010
0000
0000
1000
0000
1000
0000
0000
0010
0000
0000
1300
0001
,
0020
0000
0000
0001
0000
0000
0130
0000
2000
0000
0000
0000
3002
0000
0000
0000
,
1003
0010
1000
0010
1000
0010
0200
0000
0301
0010
0001
0010
0001
0010
0200
0000
,
1300
0001
1000
0001
1000
0001
0020
0000
0031
0200
0000
1300
0200
0000
0000
0301
,
2000
0100
0000
3001
2000
0100
0000
3001
0020
0100
0000
1030
0020
0100
0000
0031
,
2000
0000
0000
0000
0000
0000
0000
0000
3001
0000
0000
0000
1000
0010
0100
0001
,
1000
0100
0000
0010
0000
0100
0000
1000
0001
0100
0010
0200
0000
0310
1000
0000
,
0001
0010
0000
0100
0000
0010
0000
0001
1000
0010
0100
0010
1000
0000
0002
0000
,
1003
0100
0000
0010
0000
0001
0000
1000
0001
0010
0100
1000
0000
0001
0010
0000
,
0001
0000
0100
0010
0000
0001
0010
0100
0010
0000
1000
0100
0020
0000
0032
0000
,
1003
0000
0010
0100
0000
0010
0000
1000
0000
0001
0000
0200
0000
0301
0010
0100
,
1000
0000
0010
0100
0000
0001
0000
1000
0000
0010
0000
0002
0000
0013
0100
0010
,
1000
0000
0100
0001
0000
0100
0000
0010
0001
1000
0000
0010
0000
0100
0010
0100
,
0001
0000
0000
1100
0000
1100
0000
1001
0000
1001
0000
0202
0000
0000
0303
0000
,
0011
0000
0001
0100
0000
0010
0000
0100
1000
0100
0010
0200
0000
0301
1000
0000
,
1100
0000
1000
0100
0000
0010
0000
0100
0001
0100
0010
0200
0000
0000
1300
0000
,
1010
0000
0010
0001
0000
1000
0000
0001
0010
0100
0010
2000
0000
0000
3001
0000
,
0011
0000
0010
1000
0000
0001
0100
1000
0020
0000
0000
0130
0001
0100
0010
0000
,
1000
0000
0100
0001
0000
1000
0000
0001
0000
0100
1000
0010
0100
0000
0100
0000
,
0001
0000
0100
1000
0000
0001
0000
1000
0000
0100
0001
0010
0100
0000
0100
0000
,
1100
0000
1000
0010
0000
0100
0010
0000
0001
0010
0000
0110
0000
0000
0010
1000
,
0001
0000
0000
0011
0000
0000
0110
0000
0000
0012
0000
0000
2000
0000
3003
0000
,
0020
0000
0000
0000
0000
0100
0000
1030
0001
0000
0000
0000
0000
0000
1000
0001
,
0200
0000
0000
0000
0000
0010
0000
0301
1000
0000
0100
0000
1100
0000
0000
0000
,
1000
0010
0000
0100
0000
0010
0000
1000
0100
0010
0001
0000
1000
0000
1001
0000
,
0000
0000
0110
0000
0000
1010
0000
0000
1001
0000
0000
0011
0000
0000
0001
1000
,
0020
0000
0100
0000
1000
0000
1000
0000
0100
0000
0130
0000
0110
0000
0010
1000
,
0002
0000
0010
0000
1000
0000
1000
0000
0013
0001
1000
0001
0200
0000
0310
0100
,
0010
0000
0001
0010
0100
0001
1000
0100
0010
0001
1000
0010
2000
0000
0000
0000
,
3002
0003
0000
0022
0033
0000
2002
3003
0000
2100
0000
0000
3010
0100
0001
1000
,
0020
1000
1000
0000
0130
0010
1002
0000
,
1003
0100
0020
0000
1030
0020
0000
0130
0020
0000
0031
0020
0000
0130
0020
0000
,
0031
0000
0000
0100
0000
0000
0002
0000
0000
0000
1003
0000
0020
0000
0000
0000
0031
0000
0020
0000
0000
0000
1030
0000
0002
0000
0000
0000
0000
0000
0000
0000
,
1003
0100
0020
0000
1030
0020
0000
0031
0100
0010
0200
0000
1300
0200
0000
0301
,
2000
3000
0220
0330
2002
3003
0202
0303
2000
0000
0100
0000
3002
0000
0013
0000
,
2002
0000
0000
0000
,
0000
0000
0000
0000
,
3003
0000
0000
0000
;

//---------------dance-single - t7r----------------
#NOTES:
     dance-single:
     t7r:
     Edit:
     18:
     :
0000
0000
0000
0000
,
0000
0000
0000
0000
,
0000
0000
0000
0000
,
0000
0000
0000
0000
,
0000
0000
0000
0000
,
1100
0000
0000
0011
0000
0000
0101
0000
0000
1010
0000
0000
0220
0000
0000
0000
,
0000
0000
0000
0000
0000
0000
0000
0000
0330
0000
0000
0202
0000
0000
0303
0000
,
0011
0000
0000
0110
0000
0000
1100
0000
0000
1010
0000
0000
2001
0000
0000
0000
,
3001
0000
0000
0010
0000
0000
0001
0000
0000
0010
0000
0000
0100
0000
0000
1000
0000
0000
0100
0000
0000
1000
0000
0000
0001
0000
1000
0000
0001
0000
1000
0000
0000
0000
0000
0000
0020
0000
0000
0000
0000
0000
0000
0000
0000
0000
0000
0000
,
1030
0100
0000
0010
0001
0000
1000
0020
0000
0100
0000
0000
0130
0000
0000
0000
,
0001
0010
0001
0010
0100
0010
0100
0010
0001
0100
0001
0100
0010
0100
0010
0100
,
0001
0010
0000
0100
0010
0000
1000
0010
0000
0100
0010
0000
0001
0000
0100
0000
,
0010
0000
0000
0100
0000
0000
0010
0000
0000
0100
0000
0000
0001
0000
0000
0100
0000
0000
0001
0000
0000
0100
0000
0000
0001
0000
0000
0010
0000
0000
0100
0000
1000
0000
0100
0000
1000
0000
0000
0000
0000
0000
0000
0000
0000
0000
0000
0000
,
0001
1000
0001
1000
0001
1000
0100
M100
0001
1000
0001
1000
0001
1000
0100
M100
,
0001
1000
0001
1000
0001
1000
0010
M010
0001
0100
010M
1000
0100
M100
0001
1000
,
0100
M100
0001
1000
0100
M100
0001
1000
0010
M010
0001
1000
0010
M010
0001
1000
,
0010
0000
0100
0010
0100
0000
0001
0100
0000
010M
1000
0000
1002
0000
0000
0000
,
1003
0000
0100
0000
1000
0010
1000
0010
0100
0010
0100
0001
0100
0000
01M0
0000
,
1000
0000
0010
0000
0100
0001
0100
0001
0010
0100
0000
0100
0010
0001
0100
0010
,
1000
0000
0010
0000
0100
0010
0100
0010
1000
0100
1000
0001
0100
0000
010M
0000
,
1000
0000
0100
0010
0000
0100
0001
0000
0100
0000
1001
0000
0010
0000
1001
0000
,
0001
0000
0100
0000
0001
0010
0001
0010
0100
0010
0100
1000
0100
0000
01M0
0000
,
0001
0000
0010
0000
0100
1000
0100
1000
0010
0100
0000
0100
0010
1000
0100
0010
,
0001
0000
0100
0000
0010
1000
0010
1000
0001
0010
0100
0001
0000
1000
0010
0100
,
1000
0010
0100
0001
1000
0100
0010
0001
0100
0010
1000
0001
0010
0100
1000
0010
,
0100
0000
0010
0000
1000
0000
0001
0010
0001
1000
0001
0010
0100
0000
01M0
0000
,
0010
0000
0100
0000
0001
0000
1000
0010
1000
0001
1000
0010
0100
0000
01M0
0000
,
1000
0100
0000
1100
0000
1000
0010
0100
0010
1000
0001
1000
0100
0000
M100
0000
,
0001
0000
1000
0100
0000
M100
0001
1000
0100
0000
1001
0000
0010
0000
1001
0000
,
1000
0100
1000
0100
0010
0100
0000
0000
1000
0100
M100
0001
1000
0100
M100
0000
,
0001
0010
0001
0010
0100
0010
0000
0000
0001
0100
010M
1000
0001
0100
010M
0000
,
1000
0010
0100
0001
0010
0100
1000
0010
0100
0001
1000
0100
0010
0001
0100
0010
,
1000
0010
1000
0010
0100
0010
0100
0010
1000
0001
0100
0010
1000
0100
0010
0001
,
1000
0010
0100
0001
0000
0010
0100
0001
0100
2000
0000
3010
0200
0000
0000
0000
,
1300
0000
0100
0001
0100
010M
0000
1000
0100
0000
M100
0000
0001
1000
0100
0010
,
0001
0000
0010
0000
0100
0000
1000
0000
0000
0000
0010
0000
0100
0000
1000
0000
0100
0000
0002
0000
0000
0000
0013
0000
0200
0000
0000
0000
0000
0000
4300
3000
,
0100
M100
0000
0010
0000
0100
01M0
0000
1000
0000
0200
0000
0310
0001
1000
0010
,
0100
0001
0100
1000
0000
0001
0010
1000
0100
0002
0000
0103
0020
0000
0031
1000
,
0010
1000
0010
0001
0000
1000
0100
0001
0010
2000
0000
3010
0200
0000
1300
0001
,
1000
0010
1000
0010
0100
0010
0100
0010
0001
0010
1000
0100
0010
0100
1000
0001
,
0020
0000
0000
0000
0430
0300
1000
0000
0001
0100
0001
0100
0010
0100
0001
1000
,
0200
0000
0000
0000
,
0300
0000
0000
0000
,
1000
0000
0010
1000
0000
0000
0001
0000
0010
0001
0000
0000
0200
0000
0000
0000
0000
0000
0000
0000
0000
0000
0000
0000
0000
0000
0000
0320
0000
0000
0000
0000
,
1030
0000
0100
0010
0000
0000
0001
0000
0100
0010
0000
0000
2000
0000
0000
0000
3001
0000
0400
0000
1300
0000
0100
0000
0010
0000
1000
0000
0001
0010
0100
1000
,
0020
0000
0000
0001
0000
0000
0100
0000
0100
0000
0000
1000
0000
0000
0130
0001
,
2000
0000
0000
0100
0000
0000
3001
1000
0002
0000
0000
0010
0000
0000
1003
0010
,
0200
0000
0000
0010
0000
0000
0001
0000
0001
0000
0000
0010
0000
0000
0301
1000
,
0020
0000
0000
0100
0000
0000
1030
0000
0220
0000
0330
0000
2002
0000
3003
0000
,
1000
0001
1000
0001
1000
0001
0100
010M
1000
0001
1000
0001
1000
0001
0100
010M
,
1000
0001
1000
0001
1000
0001
0010
001M
1000
0100
M100
0001
0100
010M
1000
0001
,
0100
010M
1000
0001
0010
001M
1000
0001
0100
010M
1000
0001
0010
001M
1000
0001
,
0100
0000
0010
1000
0000
0001
0000
0010
0000
0001
0000
1000
0010
0100
0001
1000
,
0001
0100
0000
010M
0000
1000
0001
1000
0100
0010
0001
0100
0000
010M
1000
0000
,
0001
0010
0000
001M
0000
1000
0001
1000
0010
0100
0001
0010
0000
001M
2000
0000
,
3001
0100
0000
010M
0000
1000
0001
0100
0010
0001
0010
0100
0000
0010
1000
0000
,
0001
0000
1000
0100
0000
M100
0001
1000
0010
0100
0001
0010
0100
0000
010M
0000
,
0001
0000
1000
0100
0000
M100
0000
0001
0000
0M01
0000
0010
1000
0100
0010
0001
,
1000
0000
0001
0100
0000
010M
0000
1000
0000
1M00
0000
0010
0001
0100
0010
1000
,
0001
0000
0100
1000
0000
0001
0000
0010
1000
0001
0010
1000
0001
0100
1000
0010
,
0100
0000
1000
0100
0000
1100
0000
0110
0000
1010
0000
2002
0000
0000
3003
0000
,
1000
0010
0000
M010
0000
0001
0100
0010
1000
0100
0010
0001
2000
3200
2300
0000
,
3001
0100
0000
010M
0000
1000
0010
0100
0001
0010
0100
1000
0002
0023
0032
0000
,
0103
0010
0000
0M10
0000
0001
1000
0010
0100
0001
0010
0100
2000
3020
2030
0000
,
3100
0000
0000
0010
0000
0000
0000
0000
0000
0M10
0000
0000
0000
0000
0000
1000
0000
0000
0100
0000
0000
0010
0000
0000
0002
0000
0000
0000
0000
0000
0000
0000
0000
1003
0000
0000
0001
0000
0010
0000
0001
0000
0010
0000
0000
0000
0000
0000
,
0001
0000
0100
1000
0100
0010
0100
0001
0100
0010
0100
1000
0100
0000
0110
0000
,
1000
0000
0100
0001
0100
0010
0100
0001
0100
0010
0100
1000
0010
0000
0110
0000
,
0101
0000
0001
0100
0000
010M
1000
0000
0001
0010
0000
001M
1000
0000
0001
1000
,
0001
0000
0010
0100
0000
01M0
0001
0000
1000
0020
0000
0000
0200
0000
0330
0000
,
0020
0000
0000
0100
0000
0100
0000
1030
0001
0000
0100
0020
0000
0000
1030
0001
,
0200
0000
0000
0010
0000
0010
0000
0301
1000
0000
0100
0000
0210
0000
0000
0000
,
1300
0000
0001
0100
0000
010M
0000
1000
0001
0010
0100
0001
0100
0000
1100
0000
,
0000
0000
0011
0000
0000
1001
0000
0000
0101
0000
0000
1010
0000
0000
1000
0001
,
0020
0000
0001
1000
0000
0000
1000
0001
0000
0000
0001
1000
0030
0000
1000
0001
,
0020
0000
0001
0100
0000
0000
1000
0100
0030
0001
0100
0001
1000
0000
0100
1000
,
0020
0000
0100
0001
0000
0000
0100
1000
0030
0100
0001
0010
0002
0000
0000
0000
,
2003
3000
0000
0202
0303
0000
2020
3030
0000
2002
3003
0000
1000
0100
0010
0001
,
0100
1000
0100
0001
0100
0000
0010
0000
1001
0000
0010
0000
1200
0000
0000
0000
,
1300
0100
1000
0001
0100
010M
1000
0100
M100
0001
0010
001M
1000
0010
M010
0001
,
1000
0000
0000
0001
0000
0000
0001
0000
1000
0000
0100
0000
M100
0000
0001
0000
0010
0000
001M
0000
1000
0000
0001
0000
0200
0000
0000
0000
0000
0000
0000
0000
,
0301
0100
010M
1000
0001
0100
1000
0100
0001
0010
001M
1000
0001
0010
1000
0010
,
0400
0300
0400
0300
0400
0300
0400
0300
1000
0000
0010
0000
0100
0000
0010
0000
,
2002
0000
0000
0000
,
0000
0000
0000
0000
,
3003
0000
0000
0000
;

//---------------dance-double - t7r----------------
#NOTES:
     dance-double:
     t7r:
     Easy:
     11:
     :
00000000
00000000
00000000
00000000
,
00000000
00000000
00000000
00000000
,
00000000
00000000
00000000
00000000
,
00000000
00000000
00000000
00000000
,
00000000
00000000
00000000
00000000
,
10000000
00000000
00000000
10000000
00000000
00000000
00010000
00000000
00000000
00010000
00000000
00000000
02000000
00000000
00000000
00000000
,
00000000
00000000
00000000
00000000
00000000
00000000
00000000
00000000
00000000
00000000
00000000
03200000
00000000
00000000
00000000
00000000
,
10300000
00000000
00000000
01000000
00000000
00000000
00010000
00000000
00000000
00001000
00000000
00000000
00000020
00000000
00000000
00000000
,
00000032
00000000
00000003
00001001
,
00000002
00000000
00000000
00000003
,
00000100
00000000
00001000
00000000
,
00010000
00100000
01000000
00010000
,
10000000
01000000
00010000
00001000
,
00010000
01000000
00100000
00010000
,
00001000
00000010
00000100
00001000
,
00010000
00000000
00010000
00000000
00001000
00010000
00001000
00010000
,
02000000
00000000
03000000
10010000
,
10000000
00000000
00100000
00000000
01000000
00000000
00100000
00100000
,
10000000
00000000
01000000
00000000
00100000
00000000
00001000
00010000
,
00001000
00000000
00000100
00000000
00000010
00000000
00001000
00001000
,
00000001
00000000
00000010
00000000
00001000
00010000
00000000
00010000
,
00001000
00000000
00010000
00000000
01000000
00000000
00100000
00100000
,
00010000
00000000
10000000
00000000
00100000
00000000
01000000
00010000
,
00100000
00000000
00000000
00000000
00001000
00000000
00000000
00000000
00010000
00000000
00000000
00010000
00000000
00000000
00001000
00000000
,
00000200
00000000
00000000
00000310
,
00001001
00000001
00000100
00000000
,
00001000
00010000
01000000
00000000
,
10000000
00000000
00100000
00000000
01000000
00000000
00010000
00010000
,
00100000
00000000
00001000
00000000
00010000
00001000
00000000
00001000
,
00000010
00000000
00000000
00000000
00000001
00001000
00000001
00001000
,
00000000
00000000
00000000
00000000
00000100
00010000
00000100
00010000
,
00001000
00000000
00011000
00000000
,
02010000
00100000
03010000
10010000
,
10000000
00000000
00000000
01000000
00000000
00000000
00100000
00000000
02000000
00000000
03000000
00000000
02000000
00000000
03000000
00000000
,
10000000
00000000
00100000
00000000
01000000
00001000
00010000
00000000
,
00001000
00000000
00000000
00010000
00000000
00000000
00001000
00000000
00000200
00000000
00000300
00000000
00000200
00000000
00000300
00000000
,
00000010
00000000
00000000
00001000
00000000
00000000
00000001
00000000
00000010
00000000
00000100
00000000
00001000
00000000
00000000
00000000
,
00010000
00000000
00000000
00110000
00000000
00000000
00000000
00000000
20020000
00000000
30030000
00000000
20020000
00000000
30030000
00000000
,
10000000
00000000
00000000
01000000
00000000
00000000
00010000
00000000
00002000
00000000
00003000
00000000
00002000
00000000
00003000
00000000
,
00010000
00001000
00000010
00000000
00000001
00000000
00000100
00001000
,
00020000
00000000
00000000
00000000
00030200
00000300
00000000
00000000
00010000
00000000
00001000
00000000
00010000
00000000
00000000
00000000
,
00022000
00000000
00000000
00000000
,
00033000
00000000
00000000
00000000
,
00100000
00000000
00000000
00000000
00000000
00000000
00010000
00000000
00000000
00000000
00000000
00000000
10000000
00000000
00000000
00000000
00000000
00000000
00000000
00000000
00000000
00000000
00000000
00000000
00000000
00000000
00000000
00100000
00000000
00000000
00000000
00000000
,
00010000
00000000
00000000
00001000
00000000
00000000
00000010
00000000
00000001
00000000
00000200
00000000
00000310
00001000
00000001
00000000
,
00000020
00000000
00000000
00000000
00000000
00000000
00000000
00000031
,
00000200
00000000
00002300
00000000
,
00023000
00000000
00000000
00000000
00000000
00000000
00000000
00031000
,
00000200
00000000
00000000
00000310
00010000
00000000
00001000
00000000
,
00010000
01000000
00010000
00000000
00001000
00000100
00001000
00000000
,
00010000
00100000
00010000
00000000
00001000
00000010
00001000
00000000
,
00010000
00000000
00010000
00000000
00001000
00010000
01000000
00000000
,
20000000
00000000
30000000
10010000
,
10000000
00000000
00000000
00100000
00000000
00000000
10000000
00000000
01000000
00000000
00000000
00000000
10000000
00000000
00000000
00000000
,
00100000
00000000
00000000
01000000
00000000
00000000
00010000
00000000
00100000
00000000
00000000
00000000
00001000
00000000
00000000
00000000
,
00010000
00000000
00000000
00000100
00000000
00000000
00001000
00000000
00000010
00000000
00000000
00000000
00000100
00000000
00000000
00000000
,
00000001
00000000
00000000
00000010
00000000
00000000
00000001
00000000
00001000
00000000
00000000
00000000
00000001
00000000
00000000
00000000
,
00000100
00000000
00000000
00001000
00000000
00010000
00000000
00001000
00000000
00010000
00000000
00001000
00000000
00000000
00010000
00000000
,
01000000
00000000
00000000
00010000
00000000
00001000
00000000
00010000
00000000
00001000
00000000
00010000
00000000
00000000
00001000
00000000
,
00000010
00000001
00000100
00001000
,
00010000
00000000
00000000
00100000
00000000
01000000
00000000
00100000
00000000
01000000
00000000
00100000
00000000
00000000
00000000
00000000
,
10000000
00000000
01000000
00000000
00100000
00000000
01000000
01000000
,
10000000
00000000
00100000
00000000
01000000
00000000
00010000
00010000
,
00100000
00000000
00001000
00000000
00010000
00000000
00000010
00000010
,
00001000
00000001
00000100
00000002
,
00000013
00000000
00000000
00001000
00000000
00010000
00000000
00001000
00000000
00010000
00000000
00000000
00001000
00000000
00010000
00000000
,
00100000
00000000
00000000
00010000
00000000
00001000
00000000
00010000
00000000
00001000
00000000
00000000
00010000
00000000
00001000
00000000
,
00000010
00000000
00000000
00000001
00000000
00000000
00001000
00000000
00000000
00001000
00000000
00000000
00000000
00000000
00000000
00000000
,
00000001
00000000
00000000
00000100
00000000
00000000
00001000
00000000
00000000
00022000
00000000
00000000
00000000
00000000
00033000
00000000
,
00020000
02030000
13000000
00000000
,
00200000
00320000
00032000
00003100
,
00000010
00000000
00001000
00000000
00000001
00000010
00000100
00000100
,
00000000
00000000
00001000
00000000
00000000
00010000
00000000
00000000
00100000
00000000
00000000
01000000
00000000
00000000
00010000
00000000
,
00002000
00000100
00000100
00003100
,
00021000
01000000
01000000
01030000
,
00012000
00000100
00003100
00000020
,
00001030
00000000
00000000
00000001
00000000
00000000
00000010
00000000
00000000
00001000
00000000
00000000
00010000
00000000
00100000
00000000
,
20000000
00000000
30000000
01100000
,
10000000
01000000
10000000
00000000
01000000
00100000
00010000
00000000
,
00100000
00001000
00100000
00000000
00001000
00010000
00002000
00000000
,
00003010
00000001
00000100
00000000
00001000
00010000
00100000
00000000
,
10000000
10000000
00010000
00010000
01000000
00000000
00001000
00000000
,
00022000
00000000
00000000
00000000
,
00000000
00000000
00000000
00000000
,
00033000
00000000
00000000
00000000
;

//---------------dance-double - t7r----------------
#NOTES:
     dance-double:
     t7r:
     Medium:
     15:
     :
00000000
00000000
00000000
00000000
,
00000000
00000000
00000000
00000000
,
00000000
00000000
00000000
00000000
,
00000000
00000000
00000000
00000000
,
00000000
00000000
00000000
00000000
,
00000100
00000000
00000000
00001000
00000000
00000000
00000100
00000000
00000000
00001100
00000000
00000000
00020100
00000000
00000000
00000000
,
00000000
00000000
00000000
00000000
00000000
00000000
00000000
00000000
00000000
00000000
00000000
00032000
00000000
00000000
00000000
00000000
,
00013000
00000000
00000000
01000000
00000000
00000000
10000000
00000000
00000000
10100000
00000000
00000000
01200000
00000000
00000000
00000000
,
10300000
01000000
00010000
00001000
00010000
00000000
00011000
00000000
,
00001000
00000000
00000000
00000000
00000100
00000000
00000000
00000020
00000000
00000000
00000000
00000000
00000000
00000000
00000000
00000000
,
00001030
00000000
00000000
00000001
00000010
00000000
00000001
00000000
00000100
00000000
00000000
00000010
00001000
00000000
00000100
00000000
,
00010000
00000000
00000000
00001000
00010000
00000000
00001000
00000000
00010000
00000000
00000000
01000000
10000000
00000000
00100000
00000000
,
01000000
00000000
00000000
00100000
10000000
00000000
01000000
00000000
00010000
00000000
00000000
00000000
00011000
00000000
00000000
00000000
,
00001000
00000000
00000100
00001000
00000100
00000000
00001000
00000000
00010000
00000000
01000000
00010000
01000000
00000000
00010000
00000000
,
00001000
00000000
00000010
00001000
00000010
00000000
00001000
00000000
00010000
00100000
00000000
00010000
00100000
00000000
00010000
00000000
,
00100000
01000000
00000000
00000000
00100000
10000000
00000000
00000000
01000000
00010000
00000000
00000000
00001000
00010000
00000000
00000000
,
00021000
00000100
00031000
00011000
,
00010000
00000000
00001000
00000000
00000100
00000000
00000010
00000000
00001000
00000000
00000010
00000100
00000010
00000000
00000010
00000000
,
00001000
00000000
00000001
00000000
00000010
00000000
00000100
00000000
00000010
00000000
00000001
00000010
00000001
00000000
00000001
00000000
,
00000100
00000000
00000010
00000000
00010000
00000000
00000100
00000000
00010000
00000000
00001000
00010000
00001000
00000000
00001000
00000000
,
00010000
00000000
01000000
10000000
00000000
00100000
01000000
00000000
00100000
00000000
10000000
00000000
01000000
00000000
00100000
00000000
,
00010000
00000000
01000000
00000000
00100000
00000000
10000000
00000000
10000000
00000000
01000000
00100000
01000000
00000000
01000000
00000000
,
10000000
00000000
01000000
00000000
00010000
00000000
00001000
00000000
00001000
00000000
00010000
00001000
00010000
00000000
00010000
00000000
,
00001000
00000000
00000100
00000000
00000001
00000000
00000010
00000000
00000010
00000000
00000000
00000110
00000000
00000000
00000001
00000000
,
00000200
00000000
00002300
00000000
00013000
00100000
10000000
00000000
,
10010000
00000000
00000000
00000000
10000000
00000000
00100000
00000000
00100000
00000000
10000000
00010000
10000000
00000000
10000000
00000000
,
01000000
00000000
00000000
00000000
00010000
00000000
00001000
00000000
00001000
00000000
00010000
00001000
00010000
00000000
00010000
00000000
,
00001000
00000100
00000000
00000100
00000000
00000000
00000010
00000000
00001000
00000000
00000010
00000100
00000010
00000000
00000010
00000000
,
00001000
00000000
00000001
00000010
00000000
00000100
00001000
00000000
00010000
00000000
00100000
00000000
10000000
00000000
00100000
00000000
,
02000000
00000000
00000000
00000000
03020000
00000000
00000000
00000000
00031000
00010000
00001000
00000000
00010000
00000000
00010000
00000000
,
00002000
00000000
00000000
00000000
00003020
00000000
00000000
00000000
00000031
00001000
00000001
00000000
00001000
00000000
00001000
00000000
,
00000001
00000000
00000100
00001000
00000000
00010000
00001000
00000000
00010000
00000000
01000000
10000000
00000000
00100000
01000000
00000000
,
00200000
00010000
10300000
10010000
,
10000000
00000000
01000000
00100000
00000000
01000000
00000000
10000000
00010000
20000000
00000000
30010000
20000000
00000000
00000000
00000000
,
30010000
00000000
01000000
00000000
00010000
00100000
00000000
00100000
00001000
00000000
00010000
00000000
00001000
00000000
00000010
00000000
,
00000001
00000000
00000100
00000001
00000000
00000010
00000000
00000001
00001000
00000002
00000000
00001003
00000002
00000000
00000000
00000000
,
00000103
00001000
00000000
00010000
00000000
00010000
01000000
00000000
10000000
00000000
10000000
00000000
00200000
00000000
00000000
00000000
,
10300000
00000000
00000000
12000000
00000000
00000000
03010000
00001000
00010000
00002000
00000000
00013000
00002000
00000000
00000000
00000000
,
00003100
00000000
00000000
00000110
00000000
00000000
00000010
00001000
00000001
00002000
00000000
00003001
00002000
00000000
00000000
00000000
,
00003001
00000100
00001000
00010000
00100000
10000000
01000000
00010000
,
00002000
00000000
00000000
00000000
00023000
00030000
01000000
00000000
10000000
00000000
00100000
00000000
02000000
00000000
03000000
00000000
,
20020000
00000000
00000000
00000000
,
30030000
00000000
00000000
00000000
,
00000001
00000000
00000000
00000010
00000000
00000000
00000100
00000000
00000000
00001000
00000000
00000000
00020000
00000000
00000000
00000000
00000000
00000000
00000000
00000000
00000000
00000000
00000000
00000000
00000000
00000000
00000000
02030000
00000000
00000000
00000000
00000000
,
03100000
00000000
00000000
10000000
00000000
00000000
01000000
00000000
00000000
00010000
00000000
00000000
00001000
00000000
00010000
00000000
00001000
00000000
00000020
00000000
00000130
00000000
00000010
00000000
00000001
00000000
00000100
00000000
00001000
00010000
00001000
00000000
,
00020000
00000000
00000000
00001000
00000000
00000000
00000100
00000000
00000100
00000000
00000000
00001000
00030000
00000000
00010000
00000000
,
02000000
00000000
00000000
10000000
00000000
00000000
03100000
00000000
00020000
00000000
00000000
01000000
00000000
00000000
10030000
00000000
,
02000000
00000000
00000000
00100000
00000000
00000000
10000000
00000000
10000000
00000000
00000000
10000000
03000000
00000000
00100000
00000000
,
00020000
00000000
00000000
00001000
00000000
00000000
00000100
00000000
00030100
00000000
00000000
00000000
00011000
00000000
00000000
00000000
,
00001000
00000000
00000100
00001000
00000100
00000000
00001000
00000000
00010000
00000000
01000000
00010000
01000000
00000000
00010000
00000000
,
00001000
00000000
00000010
00001000
00000010
00000000
00001000
00000000
00010000
00000000
00100000
00010000
00100000
00000000
00010000
00000000
,
00100000
01000000
00000000
00010000
01000000
00001000
00000000
00010000
00000100
00001000
00000000
00000010
00000100
00000000
00000001
00000000
,
00000020
00000000
00000130
00001001
,
00000001
00000000
00000000
00000100
00000000
00000001
00000000
00000000
00001000
00000000
00000100
00000010
00000000
00000000
00000001
00000000
,
00000100
00000000
00000000
00001000
00000000
00010000
00000000
00000000
00001000
00000000
00100000
00010000
00000000
00000000
10000000
00000000
,
00100000
00000000
00000000
01000000
00000000
00010000
00000000
00000000
00100000
00000000
00001000
00010000
00000000
00000000
00001000
00000000
,
00000100
00000000
00000000
00000010
00000000
00001000
00000000
00000000
00000001
00000000
00000010
00000000
00000002
00000000
00002003
00000000
,
00003001
00000000
00000100
00001000
00000000
00010000
00000000
00001000
00000000
00010000
00000000
01000000
10000000
00000000
00010000
00000000
,
10000000
00000000
01000000
00010000
00000000
00001000
00000000
00010000
00000000
00001000
00000000
00000100
00000001
00000000
00001000
00000000
,
00000001
00000000
00000010
00001000
00000000
00010000
00000000
00001000
00010000
00100000
00000000
10000000
00000000
00010000
00000000
10000000
,
01000000
00000000
00000000
00010000
00000000
00010000
00000000
00001000
00000000
00001000
00000000
00022000
00000000
00000000
00033000
00000000
,
00001000
00000000
00000100
00000010
00000000
00000100
00000000
00000001
00000010
00000001
00000010
00000000
00000002
00000000
00000000
00000000
,
00000103
00000000
00000010
00001000
00000000
00000100
00000000
00010000
00001000
00010000
00001000
00000000
00020000
00000000
00000000
00000000
,
01030000
00000000
10000000
00100000
00000000
01000000
00000000
00100000
10000000
00100000
10000000
00000000
00020000
00000000
00000000
00000000
,
10030000
00000000
01000000
00100000
00000000
00010000
00000000
00001000
00000100
00000000
00000000
00000010
00000002
00000000
00000000
00000000
,
00000103
00000000
00001000
00010000
00000000
00000100
00000000
00001000
00000000
00010000
00000000
01000000
00010000
00000000
00010000
00000000
,
00100000
00000000
00010000
00001000
00000000
00000010
00000000
00010000
00000000
00001000
00000000
00000010
00000100
00000000
00000100
00000000
,
00001000
00000000
00000000
00001001
00000000
00000000
00000101
00000000
00000000
00000001
00000000
00000001
00000000
00000000
00001000
00000100
,
00010000
00000000
00000000
00011000
00000000
00000000
01010000
00000000
00000000
02100000
00000000
00000000
00020000
00000000
03030000
00000000
,
20000000
00000000
00000000
00000000
00000000
31000000
00000000
00000000
10010000
00000000
00000000
00000000
00000000
00000000
10000000
00000000
,
00020000
00000000
00000000
00000000
00000000
00130000
00000000
00000000
00101000
00000000
00001000
00000000
00010000
00000000
00000000
00000000
,
00001000
00000100
00000000
00000010
00000000
00000100
00000000
00000001
00000010
00000000
00000001
00000000
00001000
00000000
00000001
00000000
,
00000000
00000000
00000100
00000000
00000000
00001000
00000000
00000000
00010000
00000000
00000000
00011000
00000000
00000000
00010000
00000000
,
02000000
00100000
00100000
00100000
00100000
03100000
00020000
00000000
,
20030000
00000000
00100000
00000000
00100000
00000000
30100000
00000000
00100000
01000000
00100000
01000000
00010000
00000000
00001000
00000000
,
00000100
00000000
00000010
00000001
00000010
00000000
00000001
00000000
00001000
00000000
00000100
00010000
00000100
00000000
00010000
00000000
,
00002000
00003000
00000000
00022000
00033000
00000000
00020000
00030000
00000000
02200000
03300000
00000000
10000000
00000000
00100000
00000000
,
00020000
00000100
00031000
00011000
,
00001000
00000100
00001000
00000000
00000100
00001000
00000000
00000100
00001000
00000000
00010000
01000000
00000000
00010000
01000000
00000000
,
00010000
00000000
00000000
00001000
00000000
00000000
00010000
00000000
00000000
00000000
00001000
00000000
00000100
00000000
00000000
00000000
00001000
00000000
00000100
00000000
00000000
00000000
00001000
00000000
00020000
00000000
00000000
00000000
00000000
00000000
00000000
00000000
,
00031000
00000010
00001000
00000000
00010000
00001000
00000000
00010000
00100000
00010000
00100000
00000000
00010000
00001000
00000000
00000010
,
00000200
00000300
00002000
00003000
00020000
00030000
20000000
30000000
00100000
00000000
00010000
00000000
00001000
00000000
00010000
00000000
,
00022000
00000000
00000000
00000000
,
00000000
00000000
00000000
00000000
,
00033000
00000000
00000000
00000000
;

//---------------dance-double - t7r----------------
#NOTES:
     dance-double:
     t7r:
     Hard:
     18:
     :
00000000
00000000
00000000
00000000
,
00000000
00000000
00000000
00000000
,
00000000
00000000
00000000
00000000
,
00000000
00000000
00000000
00000000
,
00000000
00000000
00000000
00000000
,
01000000
00000000
00000000
01010000
00000000
00000000
00110000
00000000
00000000
00011000
00000000
00000000
00020200
00000000
00000000
00000000
,
00000000
00000000
00000000
00000000
00000000
00000000
00000000
00000000
00030300
00000000
00000000
00012000
00000000
00000000
00000000
00000000
,
00003100
00000000
00000000
00000110
00000000
00000000
00001010
00000000
00000000
00001001
00000000
00000000
00000012
00000000
00000000
00000000
,
00000103
00000000
00000001
00000010
00000001
00000000
00000100
00000000
00000010
00000000
00002000
00000000
00003001
00000000
00000000
00000000
,
00000100
00000000
00000000
00000001
00000010
00000000
00000000
00000200
00001000
00000000
00000000
00000000
00000310
00000000
00000000
00000000
,
00000001
00000100
00000000
00000010
00000100
00000000
00000001
00000000
00000010
00000100
00000000
00000010
00000100
00000000
00001000
00000000
,
00000100
00010000
00000000
00001000
00010000
00000000
00001000
00000000
01000000
00001000
00000000
00010000
00001000
00000000
00010000
00000000
,
01000000
00000000
10000000
00100000
00000000
01000000
00100000
00000000
00010000
00000000
00001000
00000000
00011000
00000000
00000000
00000000
,
00010000
01000000
00010000
01000000
00010000
00001000
00010000
00000000
00001000
00000100
00001000
00000100
00001000
00010000
00001000
00000000
,
00010000
00100000
00010000
00100000
00010000
00001000
00010000
00000000
00001000
00000010
00000000
00000100
00000010
00000000
00000001
00000000
,
00000200
00000000
00001300
00010000
02000000
00000000
03010000
00001000
00000200
00000000
00001300
00010000
00002000
00000000
00013000
01000000
,
10000000
00100000
00010000
00001000
00000100
00000010
00001001
00000000
,
00000001
00000000
00000100
00000000
00000001
00000010
00000001
00000010
00000001
00001000
00000001
00001000
00000001
00000000
00000001
00000000
,
00000100
00000000
00001000
00000000
00010000
00001000
00010000
00001000
00010000
01000000
00000000
01000000
10000000
00000000
10000000
00000000
,
00100000
00000000
01000000
00000000
00100000
10000000
00100000
10000000
00100000
01000000
00100000
01000000
00100000
00000000
00100000
00000000
,
10000000
00000000
01000000
00100000
00000000
01000000
00010000
00000000
00001000
00000000
00010000
00000000
00000100
00000000
00001000
00000000
,
00000001
00000000
00000100
00000000
00000010
00000001
00000010
00000001
00000010
00000100
00000010
00000100
00000010
00000000
00000010
00000000
,
00001000
00000000
00000100
00000000
00000010
00001000
00000010
00001000
00000010
00000100
00000000
00000100
00001000
00000001
00000200
00000000
,
00001300
00000000
00010000
00000000
00001000
00100000
00001000
00100000
00001000
00000000
00000000
00011000
00000000
00000000
00001000
00010000
,
00200000
00000000
00010000
00000000
01000000
00000000
10300000
00010000
,
10000000
00000000
01000000
00000000
00010000
00000000
00001000
00010000
00001000
00010000
00001000
00010000
00001000
00000000
00001000
00000000
,
00000100
00000000
00000001
00000000
00000010
00000000
00000100
00000010
00000000
00000010
00000000
00000001
00001000
00000000
00001001
00000000
,
00000001
00000100
00000000
00000010
00000000
00000010
00001000
00000001
00001000
00000100
00001000
00000100
00010000
00000000
00010000
00000000
,
00001000
00000000
00010000
01000000
00000000
00100000
00010000
10000000
00100000
00000000
01000000
00000000
00010000
00000000
10000000
00000000
,
02000000
00000000
00000000
00000000
13000000
00100000
00000000
00000000
10000000
00010000
10000000
00010000
10000000
01000000
00100000
00000000
,
00020000
00000000
00000000
00000000
00130000
00001000
00000000
00000000
00010000
00001000
00010000
00001000
00010000
00000010
00000100
00000000
,
00000101
00000000
00000001
00000010
00000100
00000000
00001000
00000000
00010000
00000000
00100000
01000000
10000000
00000000
00010000
00000000
,
20000000
00000000
00000000
30100000
01000000
00000000
00100000
00000000
10000000
01000000
00000000
00010000
00000100
00010000
00001000
00000000
,
00000100
00000000
00000010
00000100
00000000
00000001
00000000
00000010
00000100
00000020
00000000
00000031
00002000
00000000
00003001
00000000
,
00000100
00000000
00001000
00000000
00010000
00001000
00000000
00010000
01000000
00000000
10000000
00000000
00100000
01000000
00100000
00000000
,
10000000
00000000
01000000
00100000
00000000
10000000
00000000
00100000
01000000
00200000
00000000
00301000
00020000
00000000
00000000
00031000
,
00000100
00000010
00000000
00000100
00000000
00000100
00000001
00000000
00000100
00000000
00000010
00000000
00001000
00000001
00001000
00000000
,
00000001
00000000
00000000
00000021
00000000
00000000
00001030
00000010
00000001
00002000
00000000
00003001
00000100
00000000
00001000
00010000
,
00001000
00000000
00000000
00021000
00000000
00000000
00031000
00010000
00100000
20000000
00000000
30010000
20000000
00000000
30010000
00100000
,
00010000
00000000
01000000
00010000
01000000
00000000
00010000
00100000
00010000
00000000
00100000
00001000
00010000
00000000
00001000
00000010
,
00000200
00000000
00000000
00000000
00000320
00000030
00000001
00000000
00001000
00000001
00001000
00000001
00001000
00000000
00000000
00000000
,
00002002
00000000
00000000
00000000
,
00003003
00000000
00000000
00000000
,
10000000
00000000
00000000
01000000
00000000
00000000
00100000
00000000
00000000
00010000
00000000
00000000
00002000
00000000
00000000
00000000
00000000
00000000
00000000
00000000
00000000
00000000
00000000
00000000
00000000
00000000
00000000
00003020
00000000
00000000
00000000
00000000
,
00000130
00000000
00000000
00000001
00000000
00000000
00000010
00000000
00000000
00001000
00000000
00000000
00020000
00000000
00000000
00000000
00031000
00000000
00020000
00000000
01030000
00000000
10000000
00000000
00100000
01000000
00000000
01000000
00010000
00100000
00001000
00010000
,
00002000
00000000
00000000
00000100
00000000
00000000
01000000
00000000
01000000
00000000
00000000
00000000
00013000
00000000
01000000
10000000
,
02000000
00000000
00000000
10000000
00000000
00000000
03100000
01000000
00200000
00000000
00000000
00010000
00000000
00000000
00301000
00010000
,
00002000
00000000
00000000
00000100
00000000
00000000
01003000
00000000
00020000
00000000
00000000
00000000
00030000
00000000
00100000
00001000
,
00020000
00000000
00000000
00100000
00000000
00000000
00030010
00000000
00020000
00000000
00000000
00000000
00032000
00000000
00000000
00000000
,
00013000
01000000
00010000
01000000
00010000
01000000
00020000
00000000
00031000
00000100
00001000
00000100
00001000
00000100
00002000
00000000
,
00013000
00100000
00010000
00100000
00010000
00100000
00020000
00000000
00031000
00000020
00000000
00000031
00000020
00000000
00000000
00000130
,
00020000
00001000
00000000
00030100
00020000
00001000
00000000
00030100
00020000
00000000
00031000
00010000
02000000
00000000
13000000
00000000
,
00200000
00000000
01300000
01100000
,
10000000
01000000
00000000
00100000
00000000
01000000
00000000
10000000
00010000
01000000
00010000
00200000
00000000
00000000
00301000
00000000
,
00010000
00000100
00000000
00001000
00000000
00000010
00000000
00000100
00000001
00001000
00000010
00002000
00000000
00000000
00003002
00000000
,
00000013
00000100
00000000
00000010
00000000
00000001
00000000
00001000
00000010
00000100
00000001
00001000
00000000
00000100
00000010
00000000
,
00000001
00000000
00000100
00001000
00000000
00010000
00001000
00010000
01000000
00000000
00100000
00010000
20000000
00000000
30020000
00000000
,
10030000
00000000
00100000
01000000
00000000
00010000
00000000
00100000
00000000
01000000
00000000
20000000
00000000
31000000
00100000
01000000
,
00010000
00000000
00001000
00000010
00000000
00000100
00000000
00000010
00000000
00000001
00000000
00002000
00000000
00003010
00000001
00000010
,
00000100
00000000
00000001
00000010
00000000
00000001
00000000
00000100
00000010
00000100
00000000
00000020
00000000
00000000
00001030
00000001
,
00000010
00000000
00000000
00001100
00000000
00001100
00000000
00011000
00000000
00011000
00000000
02020000
00000000
00000000
03030000
00000000
,
01100000
00000000
01000000
00100000
00000000
10000000
00010000
00000000
10000000
01000000
00100000
00020000
00000000
01030000
00010000
00000000
,
10000000
00000000
01000000
00100000
00000000
01000000
00000000
00100000
00010000
10000000
00100000
02000000
00000000
00000000
03010000
00000000
,
00100000
00000000
00010000
00001000
00000000
00000010
00000000
00000100
00001000
00000100
00000020
00000000
00000000
00000000
00000130
00000000
,
00000001
00000000
00000010
00001000
00000000
00010000
00001000
00010000
00200000
00000000
00000000
01300000
00010000
01000000
00100000
00000000
,
10000000
00000000
01000000
00010000
00000000
10000000
00000000
00010000
00000000
01000000
00000000
00010000
00001000
00000000
00000010
00000000
,
00000001
00000000
00000100
00001000
00000000
00000001
00000000
00001000
00000000
00000100
00000000
00001000
00010000
00100000
01000000
00000000
,
00010000
00000000
00100000
01000000
00000000
00010000
01000000
00000000
00100000
00001000
00000000
00011000
00000000
00000000
00001000
00000100
,
00000001
00000000
00000000
00000011
00000000
00000000
00001001
00000000
00000000
00001020
00000000
00000000
00000200
00000000
00000330
00000000
,
00000002
00000000
00000000
00000000
00000000
00000010
00000000
00001003
00000001
00000000
00000000
00000000
00000000
00000000
00000010
00000100
,
00020000
00000000
00000000
00000000
00000000
00001000
00000000
00030100
00010000
00000000
00001000
00000000
00011000
00000000
00000000
00000000
,
00010000
01000000
00000000
00100000
00000000
00010000
00000000
10000000
00100000
10000000
00010000
00000000
10000000
00000000
10100000
00000000
,
00000000
00000000
01100000
00000000
00000000
01010000
00000000
00000000
00110000
00000000
00000000
00011000
00000000
00000000
00001000
00000100
,
00000020
00000000
00000100
00000000
00001000
00000000
00001000
00000000
00000100
00000000
00000130
00000000
00000110
00000000
00000001
00000010
,
00000002
00000000
00000100
00000000
00001000
00000000
00001000
00000000
00000013
00000001
00000010
00000001
00001000
00000000
00000100
00010000
,
00001000
00000000
00010000
01000000
00100000
00010000
10000000
00100000
01000000
00010000
10000000
00100000
20000000
00000000
00000000
00000000
,
32000000
03000000
00000000
00020000
00030000
00000000
00022000
00033000
00000000
00020200
00030300
00000000
00010000
00001000
00000010
00000001
,
00002000
00003100
00010000
00011000
,
00010000
01000000
00020000
00000000
00031000
00000200
00000000
00001300
00020000
00000000
01030000
00020000
00000000
00031000
00000200
00000000
,
00001300
00000000
00000000
00010000
00000000
00000000
00002000
00000000
00000000
00000000
00003100
00000000
00002000
00000000
00000000
00000000
00013000
00000000
02000000
00000000
00000000
00000000
03010000
00000000
00002000
00000000
00000000
00000000
00000000
00000000
00000000
00000000
,
00013000
00001000
00000020
00000000
00000130
00020000
00000000
00031000
00010000
00100000
02000000
00000000
03010000
00200000
00000000
00301000
,
00020000
00030000
00022000
00033000
02002000
03003000
00022000
00033000
00001000
00000000
00000100
00000000
00000001
00000000
00000010
00000000
,
00002002
00000000
00000000
00000000
,
00000000
00000000
00000000
00000000
,
00003003
00000000
00000000
00000000
;

//---------------dance-double - t7r----------------
#NOTES:
     dance-double:
     t7r:
     Edit:
     18:
     :
00000000
00000000
00000000
00000000
,
00000000
00000000
00000000
00000000
,
00000000
00000000
00000000
00000000
,
00000000
00000000
00000000
00000000
,
00000000
00000000
00000000
00000000
,
00000011
00000000
00000000
00000101
00000000
00000000
00000110
00000000
00000000
00001010
00000000
00000000
00002200
00000000
00000000
00000000
,
00000000
00000000
00000000
00000000
00000000
00000000
00000000
00000000
00003300
00000000
00000000
00022000
00000000
00000000
00033000
00000000
,
01001000
00000000
00000000
01010000
00000000
00000000
01100000
00000000
00000000
10100000
00000000
00000000
20010000
00000000
00000000
00000000
,
31000000
00000000
00000000
00100000
00000000
00000000
01000000
00000000
00000000
00100000
00000000
00000000
00001000
00000000
00000000
00010000
00000000
00000000
00001000
00000000
00000000
00010000
00000000
00000000
00000100
00000000
00001000
00000000
00000100
00000000
00001000
00000000
00000000
00000000
00000000
00000000
00001002
00000000
00000000
00000000
00000000
00000000
00000000
00000000
00000000
00000000
00000000
00000000
,
00000103
00000010
00000000
00001000
00000001
00000000
00000010
00000200
00000000
00000010
00000000
00000000
00000310
00000000
00000000
00000000
,
00000001
00000010
00000001
00000010
00000100
00001000
00000100
00001000
00000100
00010000
00000100
00010000
00001000
00010000
00001000
00010000
,
01000000
10000000
00000000
01000000
00010000
00000000
01000000
00100000
00000000
00010000
10000000
00000000
00100000
00000000
00010000
00000000
,
00001000
00000000
00000000
00000100
00000000
00000000
00000010
00000000
00000000
00000000
00000000
00000000
00001000
00000000
00000000
00000100
00000000
00000000
00000010
00000000
00000000
00000000
00000000
00000000
00000001
00000000
00000000
00000000
00000000
00000000
00001000
00000000
00000100
00000000
00001000
00000000
00000100
00000000
00000000
00000000
00000000
00000000
00001000
00000000
00000000
00000000
00000000
00000000
,
00000001
00000010
00000001
00000010
00000001
00000100
00000002
00000103
00000010
00001000
00000010
00001000
00000100
00001000
00000200
00001300
,
00000100
00010000
00000100
00010000
00001000
00010000
00002000
00013000
00001000
00020000
00130000
10000000
00020000
00130000
01000000
10000000
,
02000000
03010000
01000000
00010000
00002000
00013000
00001000
00010000
00002000
00003100
00001000
00000100
00000020
00000130
00000010
00000100
,
00000001
00000000
00000010
00000001
00001000
00000000
00000001
00000000
00000100
00000000
00001000
00000000
00011000
00000000
00000000
00000000
,
00001000
00000000
00010000
00000000
01000000
10000000
01000000
10000000
01000000
00100000
01000000
00100000
00010000
00000000
00001000
00000000
,
00000001
00000000
00000100
00000000
00000010
00001000
00000010
00001000
00000001
00000010
00000000
00000001
00001000
00000100
00010000
00001000
,
00010000
00000000
00001000
00000000
01000000
00010000
01000000
00010000
01000000
00100000
01000000
00100000
10000000
00000000
00010000
00000000
,
00001000
00000000
00000001
00000100
00000000
00000010
00001000
00000000
00000001
00000000
00000110
00000000
00001000
00000000
00000110
00000000
,
00000001
00000000
00000100
00000000
00000001
00000010
00000100
00000001
00000100
00000010
00000001
00001000
00000001
00000000
00001000
00000000
,
00010000
00000000
10000000
00000000
00100000
01000000
10000000
01000000
00100000
10000000
01000000
00100000
00010000
01000000
00001000
00010000
,
00001000
00000000
00000100
00000000
00000010
00001000
00000001
00000010
00000001
00000010
00000100
00000001
00000100
00001000
00000100
00010000
,
00001000
00010000
01000000
00100000
00010000
10000000
00100000
01000000
00010000
10000000
01000000
00100000
00010000
10000000
00100000
01000000
,
00100000
00000000
10000000
00000000
11000000
00000000
10000000
00010000
10000000
00010000
10000000
00010000
10000000
00000000
00010000
00000000
,
00001000
00000000
00000010
00000000
00000110
00000000
00000010
00001000
00000010
00001000
00000010
00001000
00000001
00000000
00001000
00000000
,
00010000
01000000
00000000
01010000
00000000
00010000
00100000
00010000
10000000
00010000
10000000
00010000
10000000
00000000
00010000
00000000
,
00001000
00000010
00000100
00000001
00001000
00000100
00000010
00000001
00000100
00000000
00001000
00000000
00010000
00000000
00100000
00000000
,
20000000
01000000
00000000
01000000
00000000
31000000
00000000
00000000
10000000
01000000
00100000
00010000
00001000
00000100
00000010
00000000
,
00000002
00000100
00000000
00000100
00000000
00000103
00000000
00000000
00000001
00000010
00000100
00001000
00010000
00100000
01000000
00000000
,
10000000
00100000
01000000
00010000
10000000
01000000
00100000
00010000
01000000
00001000
00010000
00001000
00010000
00000100
00001000
00000001
,
00000100
00000010
00000100
00000010
00001000
00000100
00000010
00000001
00000100
00000010
00001000
00000100
00010000
00001000
01000000
00010000
,
10000000
01000000
00100000
00010000
00000000
10000000
00100000
01000000
00010000
00002000
00000000
00003001
00002000
00000000
00000000
00013000
,
10000000
00100000
01000000
00010000
00100000
00100000
00000000
00001000
00010000
00000000
00010000
00000000
00001000
00000100
00000010
00001000
,
00000001
00000010
00000100
00001000
00000000
00000001
00000100
00000010
00001000
00020000
00000000
10030000
00020000
00000000
00000000
00031000
,
00000100
00000001
00000000
00000010
00000000
00000001
00001000
00000000
00000001
00000000
00000200
00000000
00000301
00000010
00000100
00001000
,
00010000
00000000
10000000
01000000
00000000
00010000
01000000
10000000
00010000
00002000
00000000
00003001
00002000
00000000
00013000
10000000
,
00100000
00000000
10000000
00100000
00000000
00010000
00100000
10000000
00010000
00002000
00000000
00003001
00002000
00000000
00013000
10000000
,
01000000
00100000
01000000
00100000
00001000
00010000
00001000
00010000
00001000
00000100
00000001
00001000
00000001
00000010
00000100
00001000
,
00020000
00000000
00000000
00000000
00032000
00003000
00010000
00000000
01000000
10000000
01000000
10000000
00100000
01000000
00010000
10000000
,
00200000
00000000
00000000
00000000
,
00300000
00000000
00000000
00000000
,
00000001
00000000
00000010
00000001
00000000
00000000
00001000
00000000
00000010
00001000
00000000
00000000
00000200
00000000
00000000
00000000
00000000
00000000
00000000
00000000
00000000
00000000
00000000
00000000
00000000
00000000
00000000
00020300
00000000
00000000
00000000
00000000
,
00031000
00000000
00010000
00100000
00000000
00000000
01000000
00000000
00010000
10000000
00000000
00000000
02000000
00000000
00000000
00000000
03010000
00000000
00002000
00000000
00003010
00000000
00000001
00000000
00000100
00000000
00000010
00000000
00001000
00000100
00000010
00000001
,
00000200
00000000
00000000
00000001
00000000
00000000
00000010
00000000
00000010
00000000
00000000
00001000
00000000
00000000
00000301
00001000
,
00000002
00000000
00000000
00000100
00000000
00000000
00001003
00000001
00002000
00000000
00000000
00000010
00000000
00000000
00003100
00010000
,
00002000
00000000
00000000
01000000
00000000
00000000
00010000
00000000
00010000
00000000
00000000
00100000
00000000
00000000
01003000
00010000
,
20000000
00000000
00000000
01000000
00000000
00000000
30100000
00000000
02200000
00000000
03300000
00000000
20020000
00000000
30030000
00000000
,
10000000
00100000
10000000
00100000
10000000
01000000
20000000
31000000
00100000
00010000
00100000
00010000
01000000
00010000
02000000
03010000
,
01000000
00001000
01000000
00001000
00010000
00001000
00020000
00031000
00010000
00002000
00003010
00000001
00002000
00003010
00000100
00000001
,
00000200
00001300
00000100
00001000
00020000
00031000
00010000
00001000
00020000
01030000
00010000
01000000
00200000
01300000
00100000
01000000
,
10000000
00000000
01000000
00010000
00000000
00001000
00000000
00000010
00000000
00000001
00000000
00001000
00000001
00000100
00001000
00010000
,
00001000
00010000
00000000
01000000
00100000
01000000
00000000
10000000
00100000
01000000
00010000
00100000
00000000
00001000
00010000
00000000
,
00001000
00000100
00000000
00000010
00001000
00000010
00000000
00000100
00000001
00000010
00000100
00001000
00000000
00000010
00000002
00000000
,
00000013
00001000
00000000
00000010
00000100
00000010
00000000
00001000
00000100
00000001
00001000
00010000
00000000
00100000
10000000
00010000
,
00100000
00000000
00010000
01000000
00100000
01000000
00000000
10000000
01000000
00000000
00010000
10000000
00010000
00000000
00001000
00000000
,
00001001
00000000
00001000
00000001
00000100
00001000
00000000
00010000
00000000
00000100
00000000
00000010
00000000
00001000
00010000
00100000
,
10000000
00010000
00000000
00100000
00001000
00010000
01000000
10000000
00010000
01000000
00001000
00010000
00100000
10000000
01000000
00000000
,
11000000
00000000
00000000
00100000
00001000
00010000
00000000
00000010
00000000
00000100
00000000
00010000
00000000
00100000
00010000
10000000
,
00010000
00000000
10000000
01000000
00000000
01010000
00000000
01010000
00000000
00011000
00000000
00022000
00000000
00000000
00033000
00000000
,
00001000
00000100
00000000
00000010
00000100
00000010
00000000
00001000
00000010
00000100
00000001
00000010
00000001
00001000
00000002
00000000
,
00000103
00001000
00000000
00010000
00000000
00001000
00000000
00010000
01000000
10000000
00100000
01000000
00010000
00100000
00002000
00000000
,
00013000
00001000
00000000
00000010
00000000
00000001
00000000
00001000
00000010
00000100
00000001
00000010
00000100
00010000
00002000
00000000
,
00013000
00100000
00000000
10000000
00000000
00010000
10000000
01000000
00100000
00000000
00001000
00010000
00001000
00000100
00000020
00000000
,
00001030
00000000
00000100
00000001
00000100
00000010
00000100
00001000
00000001
00000100
00000010
00001000
00000001
00000000
00001000
00000000
,
00010000
00000000
01000000
10000000
01000000
00100000
01000000
00010000
01000000
00100000
10000000
00010000
10000000
00000000
00010000
00000000
,
10010000
00000000
00000000
10010000
00000000
00000000
00011000
00000000
00000000
00001001
00000000
00000001
00000200
00000000
00000301
00000010
,
00000011
00000000
00000010
00001000
00000000
00001000
00010000
00000000
00100000
20000000
00000000
00000000
00020000
00000000
30030000
00000000
,
00200000
00000000
00000000
00010000
00000000
00010000
00000000
00301000
00010000
00000000
00001000
00000200
00000000
00000000
00000310
00001000
,
00000002
00000000
00000000
00000010
00000000
00000010
00000000
00001003
00000001
00000000
00000100
00000000
00000210
00000000
00000000
00000000
,
00000301
00000010
00000000
00000001
00000100
00000010
00000000
00001000
00000100
00010000
00001000
00010000
01000000
00000000
11000000
00000000
,
00000000
00000000
10100000
00000000
00000000
00110000
00000000
00000000
00011000
00000000
00000000
00000110
00000000
00000000
00001000
00000001
,
00000020
00000000
00000001
00001000
00000000
00000000
00001000
00000001
00000000
00000000
00000001
00001000
00000030
00000000
00001000
00000001
,
00000200
00000000
00000001
00000010
00000000
00000000
00001000
00000010
00000000
00000000
00000001
00000010
00000300
00000000
00010000
00000100
,
00002000
00000000
00000100
01000000
00000000
00000000
01000000
00000100
00000000
00000000
00000100
01000000
00003000
00000000
00000000
00000000
,
00022000
00033000
00000000
02020000
03030000
00000000
00022000
00033000
00000000
00002200
00003300
00000000
00001000
00000100
00000010
00000001
,
00000100
00001000
00010000
00001000
00010000
00000000
01000000
00000000
10010000
00000000
00100000
00000000
10020000
00000000
00000000
00000000
,
10030000
01000000
20000000
30100000
10000000
02000000
13000000
00010000
02000000
03010000
00100000
00002000
00013000
00001000
00000020
00000031
,
00001000
00000000
00000000
00000001
00000000
00000000
00000001
00000000
00000100
00000000
00000010
00000000
00002000
00000000
00003001
00000000
00000010
00000000
00000200
00000000
00010300
00000000
00001000
00000000
00020000
00000000
00000000
00000000
00000000
00000000
00000000
00000000
,
01030000
10000000
00200000
01300000
00100000
20000000
31000000
00010000
00001000
00010000
00002000
00003100
00000001
00002000
00003001
00000010
,
00000002
00000103
00002000
00013000
00000200
00010300
00002000
00013000
01000000
00000000
10000000
00000000
00100000
00000000
00010000
00000000
,
00022000
00000000
00000000
00000000
,
00000000
00000000
00000000
00000000
,
00033000
00000000
00000000
00000000
;
