#TITLE:アゲハ蝶;
#SUBTITLE:;
#ARTIST:Peaky P-key;
#TITLETRANSLIT:Agehachou;
#SUBTITLETRANSLIT:;
#ARTISTTRANSLIT:;
#GENRE:;
#CREDIT:;
#BANNER:Agehachou.png;
#BACKGROUND:Agehachou-bg.png;
#LYRICSPATH:;
#CDTITLE:cdtitle.png;
#MUSIC:Agehachou.ogg;
#OFFSET:-0.251000;
#SAMPLESTART:75.943001;
#SAMPLELENGTH:14.769000;
#SELECTABLE:YES;
#BPMS:0.000000=130.000000
;
#STOPS:
;
#BGCHANGES:;
#KEYSOUNDS:;
#ATTACKS:;

//---------------dance-single - MEGAtive----------------
#NOTES:
     dance-single:
     :
     Beginner:
     2:
     0.136264,0.184084,0.071316,0.187204,0.000000,107.000000,99.000000,8.000000,21.000000,0.000000,0.000000,0.136264,0.184084,0.071316,0.187204,0.000000,107.000000,99.000000,8.000000,21.000000,0.000000,0.000000:
0000
0000
0000
0000
,
0000
0000
0000
0000
,
0000
0000
0000
0000
,
0000
0000
0000
0000
,
0000
0000
0000
0000
,
1001
0000
0000
0000
,
0110
0000
0000
0000
,
1001
0000
0000
0000
,
0110
0000
0000
0000
,
1000
0100
0000
0100
,
1000
0010
0000
0010
,
0100
0000
0001
0000
,
2000
0000
3200
0000
,
0310
0000
0000
0000
,
0000
0000
0000
0000
,
0001
0000
0100
0100
,
0100
0000
0010
0000
,
1000
0000
0100
0100
,
0100
0000
0010
0000
,
0001
0000
1000
1000
,
1000
0000
0100
0000
,
1000
0000
0001
0001
,
0001
0000
0100
0000
,
1001
0000
0000
0000
,
0001
0000
0000
0000
,
0100
0000
0000
0000
,
0010
0000
0000
0000
,
1001
0000
0000
0000
,
1000
0000
0000
0000
,
0001
0000
0000
0000
,
0010
0000
0100
0100
,
2000
0000
0000
3000
,
0020
0000
0000
0030
,
0100
0000
0001
0000
,
1000
0000
0100
0000
,
0020
0000
0000
0030
,
0200
0000
0000
0300
,
2002
0000
0000
0000
,
3003
0000
0000
0000
,
1000
0000
1000
0000
,
0002
0000
0003
0000
,
1000
0000
0100
0100
,
1000
0000
0010
0010
,
0200
0000
0302
0000
,
2003
0000
3200
0000
,
0310
0000
0001
0001
,
0100
0000
0010
0010
,
2000
0000
3200
0000
,
0320
0000
0032
0000
,
0203
0000
0000
0000
,
0320
0000
0030
0000
,
1000
0000
0001
0001
,
0010
0000
0100
0000
,
0010
0000
0001
0001
,
0100
0000
0010
0000
,
1000
0000
0100
0100
,
0010
0000
0100
0000
,
1000
0000
0010
0010
,
0100
0000
0000
2002
,
3003
0000
0000
0000
;

//---------------dance-single - MEGAtive----------------
#NOTES:
     dance-single:
     :
     Easy:
     5:
     0.235597,0.289275,0.106974,0.187204,0.000000,185.000000,173.000000,12.000000,21.000000,0.000000,0.000000,0.235597,0.289275,0.106974,0.187204,0.000000,185.000000,173.000000,12.000000,21.000000,0.000000,0.000000:
0000
0000
0000
0000
,
0000
0000
0000
0000
,
0000
0000
0000
0000
,
0000
0000
0000
0000
,
0000
0000
0000
0000
,
1001
0000
0110
0000
,
0110
0000
1001
0000
,
1001
0000
0110
0000
,
0110
0000
1001
0000
,
1000
0000
0100
0000
0000
1001
0000
0000
,
0001
0000
0100
0000
0000
1001
0000
0000
,
1000
0100
0010
0100
,
1000
0001
0100
0010
,
0200
0000
0000
0000
,
0301
0000
0000
0000
,
1000
0001
0010
0100
,
0010
0001
0001
0000
,
1000
0010
0100
0001
,
1000
0010
0010
0000
,
0100
0001
0010
0100
,
1000
0001
0001
0000
,
0100
0010
0100
0001
,
1000
0010
0010
0000
,
1001
0000
1000
0100
,
0001
0000
0001
0100
,
1000
0010
0100
0010
,
2000
0000
3001
0010
,
0001
0000
0001
0100
,
1000
0000
1000
0100
,
0001
0010
0100
1000
,
0020
0000
0130
0100
,
0002
0000
0000
0000
0003
0020
0000
0000
,
2030
0000
0000
0000
3000
0020
0000
0000
,
0031
1000
0010
0100
,
0001
0010
0100
0010
,
0002
0000
0000
0000
0003
0200
0000
0000
,
2300
0000
0000
0000
3000
0200
0000
0000
,
0302
0000
0023
0000
,
0230
0000
2300
0000
,
3001
0010
0100
1000
,
0020
0000
0030
0000
,
1000
0000
0010
0000
0100
0000
0001
1000
,
0001
0000
0010
0000
0100
0000
1000
0001
,
2000
0000
3010
0100
,
0001
1000
0100
0010
,
0001
0000
1000
0000
0010
0000
0100
0001
,
0100
0000
0010
0000
1000
0000
0100
0010
,
0200
0000
0310
0001
,
1000
0010
0100
0001
,
2000
0000
0100
0000
,
0001
0000
3010
0000
,
1000
0010
0100
0001
,
0010
0100
0100
0010
,
0001
0100
0010
1000
,
0001
0010
0010
0100
,
1000
0001
0010
0100
,
1000
0010
0010
0100
,
0001
1000
0010
0100
,
0001
1000
1000
2002
,
3003
0000
0000
0000
;

//---------------dance-single - MEGAtive----------------
#NOTES:
     dance-single:
     :
     Medium:
     8:
     0.360400,0.394466,0.035658,0.160461,0.031201,283.000000,279.000000,4.000000,18.000000,0.000000,0.000000,0.360400,0.394466,0.035658,0.160461,0.031201,283.000000,279.000000,4.000000,18.000000,0.000000,0.000000:
0000
0000
0000
0000
,
0000
0000
0000
0000
,
0000
0000
0000
0000
,
0000
0000
0000
0000
,
0000
0000
0000
0000
,
2002
0000
0000
0000
3003
0000
0000
0000
0001
0000
0000
0100
0000
0000
0010
0000
,
0200
0000
0000
0000
0300
0000
0000
0000
0001
0000
0000
0010
0000
0000
0100
0000
,
0020
0000
0000
0000
0030
0000
0000
0000
0001
0000
0000
1000
0000
0000
0100
0000
,
2000
0000
3002
0000
,
0103
0000
0010
1000
0000
0001
0010
0000
,
0011
0000
1000
0100
0000
0010
0001
0000
,
0101
0000
0100
0010
0100
0000
0001
0000
,
1000
0100
1000
0100
0010
0001
0100
0010
,
2000
0000
0000
0000
,
3001
0100
0001
0100
0010
0000
0000
0000
,
1000
0000
0100
0010
0100
0000
0001
0000
,
0100
0000
1000
0001
0100
0000
0010
1000
,
0001
0000
0100
0010
0100
0000
1000
0000
,
0100
0000
0001
1000
0100
0000
0010
0001
,
1000
0000
0010
0100
0010
0000
0001
0000
,
0010
0000
0100
0001
0010
0000
0100
1000
,
0001
0000
0010
0100
0010
0000
1000
0000
,
0010
0000
0100
1000
0001
0000
0010
0100
,
1000
0000
0010
0100
0001
0000
0010
0100
,
0010
0000
0001
0010
0001
0010
0100
0000
,
1000
0000
0010
0100
0010
0000
0001
0000
,
1000
0000
0100
0010
0100
0000
0001
0000
,
0001
0000
0010
0100
1000
0000
0010
0100
,
0001
0000
1000
0010
0100
0010
0100
0000
,
0001
0000
0010
0100
0010
0000
0100
0000
,
2000
0000
0010
3001
,
0001
0000
0000
0100
0000
0000
1000
0000
0000
0000
0100
0000
0010
0000
0000
0000
,
1000
0000
0000
0100
0000
0000
0001
0000
0000
0000
0100
0000
0010
0000
0000
0000
,
0002
0000
0103
0010
2000
0000
3100
0010
,
0002
0000
0013
0100
0010
0100
2000
0000
,
3010
0000
0000
0001
0000
0000
0010
0000
0000
0000
0100
0000
0001
0000
0000
0000
,
0010
0000
0000
1000
0000
0000
0010
0000
0000
0000
0100
0000
1000
0000
0000
0000
,
0002
0100
0100
0100
,
2003
0100
0100
0100
,
3001
0010
0001
0010
0100
0010
0100
1000
,
0002
0000
0003
0000
,
0001
0100
0010
0100
0010
0000
0001
0000
,
0010
0100
0010
0100
0001
0000
0010
0100
,
0010
0000
0001
1000
0010
0000
0100
0010
,
1000
0100
1000
0000
0001
0100
0010
0000
,
1000
0100
0010
0100
0010
0000
1000
0000
,
0010
0100
0010
0100
1000
0000
0001
0100
,
0010
0000
1000
0100
0010
0000
0001
0100
,
0010
0000
0001
0000
0010
0100
0010
0000
,
2000
0010
0010
0010
,
0001
0001
3001
0000
,
1000
0000
0001
0010
1000
0000
1000
0010
,
0001
0000
1000
0100
1000
0000
0001
0000
,
0001
0000
1000
0010
0001
0000
0001
0010
,
1000
0000
0001
0010
0100
0010
0100
0000
,
1000
0000
0001
0010
1000
0000
0010
0100
,
0010
0000
0001
1000
0100
0000
0010
0000
,
0001
0000
1000
0010
0001
0000
0010
0100
,
0010
0000
1000
0100
0010
0000
2002
0000
,
3003
0000
0000
0000
;

//---------------dance-single - MEGAtive----------------
#NOTES:
     dance-single:
     :
     Hard:
     12:
     0.497938,0.525954,0.106974,0.312007,0.191661,391.000000,379.000000,12.000000,35.000000,0.000000,0.000000,0.497938,0.525954,0.106974,0.312007,0.191661,391.000000,379.000000,12.000000,35.000000,0.000000,0.000000:
// measure 0
0000
0000
0000
0000
,  // measure 1
0000
0000
0000
0000
,  // measure 2
0000
0000
0000
0000
,  // measure 3
0000
0000
0000
0000
,  // measure 4
0000
0000
0000
0000
,  // measure 5
0022
0000
0000
0000
0033
0000
0000
0000
1020
0000
0000
0001
0000
0000
0130
0000
,  // measure 6
0202
0000
0000
0000
0303
0000
0000
0000
0021
0000
0000
1000
0000
0000
0130
0000
,  // measure 7
2200
0000
0000
0000
3300
0000
0000
0000
0201
0000
0000
1000
0000
0000
0310
0000
,  // measure 8
0220
0000
0330
0000
2002
0000
0000
3003
,  // measure 9
0001
0000
0100
1000
0000
0100
0010
1000
,  // measure 10
0001
0000
0010
1000
0000
0010
0100
0010
,  // measure 11
0001
0000
0001
0100
0010
0000
1000
0100
,  // measure 12
0010
0001
0100
0010
0001
0010
0100
0001
,  // measure 13
2000
0100
0001
0010
,  // measure 14
0002
0000
3003
0000
,  // measure 15
1000
0000
0010
0000
0001
0000
0010
0000
0100
0000
0010
0000
1000
0001
1000
0000
,  // measure 16
0100
0010
0100
0001
1000
0010
0001
0001
,  // measure 17
1000
0000
0100
0000
0001
0000
0100
0000
0010
0000
0100
0000
1000
0001
1000
0000
,  // measure 18
0010
0100
0010
0001
1000
0100
0001
1000
,  // measure 19
0001
0000
0010
0000
1000
0000
0010
0000
0100
0000
0010
0000
0100
1000
0100
0000
,  // measure 20
1000
0010
0100
0010
0001
1000
0100
0010
,  // measure 21
1000
0000
0010
0000
0001
0000
0010
0000
0100
0000
0010
0000
0100
0001
0100
0000
,  // measure 22
0001
0010
0100
0010
1000
0001
0100
0100
,  // measure 23
1000
0000
0000
0100
0010
0000
0100
0000
1000
0000
0001
0000
1000
0000
0010
0000
,  // measure 24
0100
0000
0000
0100
0010
0000
0100
0000
1000
0000
0100
0000
0002
0000
0000
0000
,  // measure 25
0013
0000
0000
0100
1000
0000
0001
0000
0010
0000
1000
0000
0010
0000
0001
0000
,  // measure 26
0100
0000
0000
0100
0010
0000
0001
0000
0010
0000
0100
0000
0001
0000
1000
0000
,  // measure 27
0001
0000
0000
0100
0010
0000
0100
0000
0001
0000
1000
0000
0001
0000
0010
0000
,  // measure 28
0100
0000
0000
0100
0010
0000
0100
0000
0001
0000
0100
0000
0020
0000
0000
0000
,  // measure 29
0130
0000
0000
1000
0001
0000
0100
0000
0010
0000
0100
0000
0001
0000
1000
0000
,  // measure 30
0020
0000
0000
0100
0000
0000
0100
0000
0130
0000
0001
0000
0020
0000
0030
0000
,  // measure 31
0021
0000
0000
1000
0000
0000
0031
0000
0000
0000
1000
0000
0010
0000
0100
0000
,  // measure 32
0200
0000
0000
1000
0000
0000
0301
0000
0000
0000
0100
0000
0102
0000
0000
0000
,  // measure 33
1003
0100
0010
0100
0001
0100
0010
0001
,  // measure 34
1000
0010
0100
0010
0001
0010
0100
0001
,  // measure 35
0020
0000
0000
1000
0000
0000
0031
0000
0000
0000
0010
0000
0001
0000
0100
0000
,  // measure 36
0020
0000
0000
0001
0000
0000
1030
0000
0000
0000
0010
0000
2010
0000
0000
0000
,  // measure 37
3002
0100
1000
0023
,  // measure 38
0230
1000
0010
2300
,  // measure 39
3001
0100
0001
0100
1000
0100
0010
0100
,  // measure 40
0002
0000
0003
0000
,  // measure 41
1000
0000
0001
0010
0001
0000
1000
0000
0100
0010
0000
0200
0000
0000
1300
0000
,  // measure 42
0001
0000
0100
0010
0100
0000
1000
0000
0100
0010
0000
0100
0001
0000
1000
0000
,  // measure 43
0100
0010
0100
0001
1000
0010
0100
0010
,  // measure 44
0001
0000
1000
0010
1000
0000
0001
0000
0100
0000
0010
0200
0000
0000
0301
0000
,  // measure 45
1000
0000
0001
0010
0100
0000
0001
0000
0100
0000
0020
0100
0000
0000
0130
0000
,  // measure 46
1000
0000
0001
0100
0010
0000
0001
0000
0010
0000
0000
0100
0010
0000
1000
0000
,  // measure 47
0100
0000
0010
0000
0100
0000
0001
0000
1000
0000
0010
0100
0010
0000
0001
0000
,  // measure 48
0100
0000
1000
0000
0100
0000
0010
0000
1000
0000
0100
0000
0010
0100
0010
0000
,  // measure 49
0002
1000
0010
1000
,  // measure 50
0100
0000
1000
0000
0013
0000
0000
0001
,  // measure 51
0011
0000
0010
0000
0001
0000
0100
0000
1000
0000
0100
0000
0010
0100
0010
0000
,  // measure 52
1000
0000
0100
0000
0001
0000
0100
0000
0010
0000
0100
0000
1000
0000
0010
0100
,  // measure 53
0010
0000
1000
0000
0010
0000
0001
0000
0010
0000
0100
0000
0001
1000
0001
0000
,  // measure 54
0010
0000
0100
0000
0010
0000
1000
0000
0010
0100
0000
0000
1000
0001
1000
0000
,  // measure 55
0001
0000
0100
0000
0001
0000
1000
0000
0100
0000
0001
0000
0100
0010
0100
0000
,  // measure 56
1000
0000
0001
0000
0100
0000
0010
0000
0100
0000
1000
0000
0100
0000
0010
0100
,  // measure 57
0010
0000
1000
0000
0100
0000
0001
0000
0100
0000
0010
0000
0100
1000
0100
0000
,  // measure 58
1000
0000
0000
0001
0000
0000
0100
0000
0000
0010
0000
0000
1000
0000
0100
0000
0010
0000
0002
0000
0000
0000
0000
0000
,  // measure 59
0003
0000
0000
0000
;

//---------------dance-single - MEGAtive----------------
#NOTES:
     dance-single:
     :
     Challenge:
     15:
     0.620193,0.657443,0.374408,0.347665,0.543783,487.000000,445.000000,42.000000,39.000000,12.000000,0.000000,0.620193,0.657443,0.374408,0.347665,0.543783,487.000000,445.000000,42.000000,39.000000,12.000000,0.000000:
0000
0000
0000
0000
,
0000
0000
0000
0000
,
0000
0000
0000
0000
,
0000
0000
0000
0000
,
0000
0000
0000
0000
,
0202
0000
0000
0000
0303
0000
0000
0000
1001
0000
0000
1100
0000
0000
0011
0000
,
0220
0000
0000
0000
0330
0000
0000
0000
1100
0000
0000
1001
0000
0000
0110
0000
,
0202
0000
0000
0000
0303
0000
0000
0000
1001
0000
0000
0011
0000
0000
0110
0000
,
2200
0000
3300
0000
2002
0000
0000
3003
,
1010
0000
0010
0110
0000
0101
0001
1000
,
1100
0000
0001
0011
0000
0110
0100
1000
,
1010
0010
0100
0001
1000
0001
0010
0100
,
0010
0000
0001
0000
0001
0000
0100
0000
0100
0010
1000
0001
1000
0100
0010
0001
,
1000
0010
1000
0010
0100
0001
0100
0001
,
1000
0100
0001
0100
1000
0000
0000
0000
,
1100
0000
1000
0010
0100
0000
1000
0100
0010
0000
0100
0000
0001
1000
0100
0010
,
0100
0000
1000
0000
0001
0000
0010
0000
0100
1000
0000
1000
0010
0100
0010
0100
,
0001
0000
0010
0100
0001
0000
0100
0010
0001
0000
1000
0000
0010
0100
0001
1000
,
0010
0000
0100
0000
0001
0000
1000
0000
0010
0100
0000
0100
0001
0010
0001
0000
,
0010
0000
0100
1000
0010
0000
0001
0010
0100
0000
0010
0000
0100
0001
1000
0100
,
0010
0000
0100
0000
1000
0000
0001
0000
0010
0100
0000
0100
0010
0001
1000
0001
,
0100
0000
1000
0100
0010
0000
0100
0001
0010
0000
0100
0000
0010
0001
1000
0010
,
0100
0000
0010
0000
0100
0000
0001
0000
1000
0100
0000
0100
1000
0010
0100
0001
,
1000
0000
0100
0010
0000
0010
0000
1000
0010
0000
0100
0000
0010
0000
0001
1000
,
0001
0000
0100
0010
0000
0010
0000
0001
0010
0000
0100
0000
0001
0000
1000
0001
,
1000
0000
0100
0010
0000
0010
0000
1000
0010
0000
0100
0000
1000
0000
0001
0000
,
0100
0000
1000
0000
0100
0000
0010
0000
0100
0000
0001
0000
1000
0000
0100
0010
,
0100
0000
0010
0001
0000
0001
0000
1000
0010
0000
0001
0000
0010
0000
0100
0010
,
0100
0000
0010
1000
0000
1000
0000
0001
0010
0000
1000
0000
0010
0000
0100
0010
,
0100
0000
1000
0010
0000
0010
0100
0010
0001
0000
0010
0000
0100
0000
0010
1000
,
0002
0000
1000
0000
0000
1000
0000
0000
0013
0000
0100
0000
1100
0000
0000
0000
,
1010
0000
0000
0110
0000
0000
0101
0000
0000
0000
1001
0000
0001
0000
0010
0000
,
0110
0000
0100
1000
0000
0010
0100
0000
0000
0000
0101
0000
0101
0000
0000
0000
,
0100
0000
1000
0000
0100
0000
0010
0100
0010
0000
1000
0000
0100
0000
0001
0000
,
0100
1000
0010
0100
0001
0010
0022
0033
,
1100
0000
0000
0110
0000
0000
0011
0000
0000
0000
1001
0000
0001
0000
0100
0000
,
0110
0000
0010
0100
0000
0100
0001
0000
0000
0000
0011
0000
0011
0000
0000
0000
,
2100
0001
0010
0001
,
3200
0010
0001
0010
,
1300
0100
1000
0001
0100
1000
0100
0010
,
0220
0000
0330
0000
,
2010
0000
3010
0100
2000
0000
3100
0010
1000
0010
0M00
0020
0000
0000
0031
0000
,
0002
0000
0013
0100
0002
0000
0103
0010
0001
0010
000M
0020
0000
0000
1030
0000
,
2000
0000
3010
0001
0010
1000
0100
0010
,
0001
0000
1000
0100
1000
0000
0010
0000
0001
0000
0020
0100
0000
0000
1030
0000
,
0002
0000
0103
0010
0002
0000
0013
1000
0100
M000
0200
0001
0000
0000
0310
0000
,
2000
0000
3100
0010
2000
0000
3010
0001
0100
000M
0200
1000
0000
0000
0310
0000
,
0002
0000
0000
0000
0013
0000
1000
0000
0010
0000
0001
0100
0010
0000
0100
0000
,
1000
0000
0100
0000
0010
0100
0010
0000
1000
0000
0001
0000
0010
0100
0010
0000
,
0002
1000
0100
1000
,
0010
0000
0000
0000
1000
0000
0000
0000
0103
0000
0000
0000
0100
0001
0100
0001
,
0020
0000
0100
1000
000M
0000
0100
0001
M000
0000
0100
0000
0000
0130
1000
0001
,
0100
0000
0010
0000
0100
0000
1000
0000
0100
0010
0000
0100
0001
1000
0100
0010
,
0200
0000
0010
0001
M000
0000
0010
1000
000M
0000
0010
0000
0000
0310
0001
1000
,
0010
0000
0100
0000
0010
0000
0001
0000
0010
0100
0000
0001
0010
0100
1000
0000
,
0002
0000
0100
0010
M000
0000
0010
0100
M000
0000
0010
0000
0000
0013
0001
1000
,
0100
0000
0010
0000
0100
0000
0001
0000
0100
0010
0000
0100
1000
0010
0100
0001
,
2000
0000
0100
0010
000M
0000
0010
0100
000M
0000
0010
0000
0000
3010
0100
0001
,
1000
0000
0000
0100
0000
0000
0001
0000
0000
0100
0000
0000
1000
0000
1000
0000
0010
0000
0220
0000
0000
0000
0000
0000
,
0330
0000
0000
0000
;
