#TITLE:アガット;
#SUBTITLE:;
#ARTIST:Bazole;
#TITLETRANSLIT:Agate;
#SUBTITLETRANSLIT:;
#ARTISTTRANSLIT:;
#GENRE:;
#CREDIT:;
#MUSIC:Agate.ogg;
#BANNER:Agate.png;
#BACKGROUND:Agate-bg.png;
#CDTITLE:;
#SAMPLESTART:69.759;
#SAMPLELENGTH:15.000;
#SELECTABLE:YES;
#OFFSET:0.596;
#BPMS:0.000=199.985;
#STOPS:;
#BGCHANGES:;
#FGCHANGES:;

//--------------- dance-single - ----------------
#NOTES:
     dance-single:
     :
     Beginner:
     5:
     0,0,0,0,0:
0000
0000
0000
0000
,
0000
0000
0000
0000
,
0000
0000
0000
0000
,
0000
0000
0000
0000
,
0000
0000
0000
0000
,
0000
0000
0000
0000
,
0001
0000
0100
0000
,
0001
0000
1000
0000
,
0010
0000
1000
0000
,
2002
0000
0000
0000
,
0000
0000
3003
0000
,
0001
0000
0001
0000
,
0001
0000
0001
0000
,
0100
0000
0100
0000
,
0100
0000
0100
0000
,
0010
0000
0010
0000
,
0010
0000
0010
0000
,
1000
0000
1000
0000
,
1000
0000
1000
0000
,
0001
0001
0000
0000
,
0010
0000
0001
0000
,
1000
1000
0000
0000
,
0010
0000
1000
0000
,
0100
0100
0000
0000
,
1000
0000
0001
0000
,
0100
0100
0000
0010
,
0010
0000
0000
0000
,
1000
0000
0100
0000
,
1000
0000
0010
0000
,
0100
0000
0001
0000
,
0100
0001
0100
0000
,
0001
0000
0010
0000
,
0100
0000
0010
0000
,
0001
0000
1000
0000
,
0001
0001
0001
0000
,
0010
0000
0001
0000
,
1000
0000
0100
0000
,
1000
0000
0010
0000
,
1000
0001
1000
0000
,
0100
0000
1000
0000
,
0010
0000
0100
0000
,
0001
0000
0100
0000
,
0010
0010
0010
0000
,
2002
0000
3003
0000
,
0220
0000
0330
0000
,
0001
0001
0100
0000
,
0010
0000
0000
0000
,
1000
0000
0100
0000
,
1000
0000
0010
0000
,
1000
0100
1000
0000
,
0001
0010
0001
0000
,
0220
0000
0330
0000
,
2002
0000
3003
0000
,
0001
0000
1000
0000
,
2002
0000
3003
0000
,
0010
0000
0010
0000
,
0100
0000
0100
0000
,
0010
0010
0010
0000
,
0220
0000
0330
0000
,
1000
0000
0100
0000
,
0010
0010
0001
0000
,
0010
0000
0100
0000
,
1000
1000
0010
0000
,
0100
0000
0001
0000
,
1000
0000
0010
0000
,
0001
0000
0010
0000
,
1000
1000
1000
0000
,
0001
0000
0100
0000
,
0010
0010
1000
0000
,
0010
0000
0100
0000
,
0001
0001
0010
0000
,
0100
0000
0010
0000
,
2002
0000
3003
0000
,
0100
0000
0010
0000
,
0001
0001
0001
0001
,
0020
0000
0000
0000
,
0000
0000
0030
0000
,
0200
0000
0000
0000
,
0000
0000
0300
0000
,
1000
1000
1000
0000
,
0001
0001
0001
0000
,
1000
1000
0010
0000
,
0100
0100
0001
0000
,
2002
0000
3003
0000
,
0220
0000
0000
0000
,
0000
0000
0000
0000
,
0330
0000
0000
0000
;

//--------------- dance-single - ----------------
#NOTES:
     dance-single:
     :
     Easy:
     9:
     0,0,0,0,0:
0000
0000
0000
0000
,
0000
0000
0000
0000
,
0000
0000
0000
0000
,
0000
0000
0000
0000
,
0000
0000
0000
0000
,
0000
0000
0000
0000
,
0010
0010
0001
1000
,
0010
0010
1000
0100
,
0010
0100
0010
0000
0001
1000
0001
2000
,
0000
0000
0000
0000
,
0000
0000
0000
3000
,
0001
0000
0001
0000
0000
0010
0000
0100
,
0000
0010
0000
0001
0001
0000
0001
0000
,
1000
0000
1000
0000
0000
0010
0000
0100
,
0000
0010
0000
1000
1000
0000
1000
0000
,
0100
0000
0100
0000
0000
1000
0000
0001
,
0000
1000
0000
0100
0100
0000
0100
0000
,
0010
0000
0010
0000
0000
0001
0000
1000
,
0000
0001
0000
0010
0010
0000
0010
0000
,
0001
0000
1001
0000
0000
1000
0000
0100
,
0000
0010
0000
0010
0001
0000
0001
0000
,
1000
0000
1001
0000
0000
0001
0000
0100
,
0000
0010
0000
0010
1000
0000
1000
0000
,
0001
0000
0101
0000
0000
1000
0000
0010
,
0000
0010
0000
0100
0001
0000
1000
0000
,
0100
0000
0110
0000
0000
0001
1000
0002
,
0000
0000
0000
0003
,
1000
0010
0100
0001
,
1000
0001
0010
0100
,
1000
0001
0100
0001
,
0010
0000
0100
0000
1000
0001
1000
0000
,
0010
0100
0010
1000
,
0100
0010
0001
0100
,
0010
1000
0001
0100
,
0010
0100
0110
0000
,
0001
0010
0100
1000
,
0001
1000
0010
0100
,
0001
1000
0100
1000
,
0010
0000
0100
0000
0001
1000
0001
0000
,
0010
0100
0010
0001
,
0100
0010
1000
0100
,
0010
0001
1000
0100
,
0010
0100
0010
0110
,
0002
0100
0100
0000
,
2003
0100
0100
0000
,
3010
0000
0100
0000
0001
1000
0001
2000
,
0000
0000
3100
0010
,
0001
0100
1000
0100
,
0001
0100
1000
0100
,
0001
2000
0000
3000
,
0001
0010
0001
0000
1000
0100
1000
0000
,
0001
0010
0100
1000
,
0100
1000
0010
0100
,
0001
0001
0000
1000
0000
0001
0000
2002
,
0000
0000
0000
3003
,
0020
0000
0000
0130
0002
0000
0000
1003
,
0020
0000
0000
1030
0100
0000
0100
0000
,
1000
1000
0000
0001
0001
0000
0100
0010
,
0100
0000
0000
2002
0000
3003
0000
0000
,
0010
1000
0001
0100
,
0010
1000
0010
0000
0100
0000
0000
0000
,
0001
0010
1000
0010
,
0001
0001
0001
0000
,
1000
0100
1000
0001
,
0010
0010
0010
0000
,
0001
0100
0001
0000
1000
0100
1000
0100
,
0000
0010
0001
0000
1001
0000
0000
0000
,
0010
0001
1000
0100
,
0010
0001
0010
0000
0100
0000
0000
0000
,
1000
0010
0001
0010
,
1000
1000
1000
0000
,
0001
1000
0001
0010
,
0001
1000
0001
0000
,
1000
0100
1000
0001
,
1000
0100
1000
0000
,
0001
0000
0001
0000
0000
0010
0000
0010
,
0000
0100
0000
0010
0010
0000
0001
0000
,
1000
0000
1000
0000
0000
0010
0000
0010
,
0000
0100
0000
0010
0010
0000
1000
0000
,
0001
0100
0010
0000
1000
0000
0100
0000
,
1000
0001
0010
0100
,
1000
0001
0010
0000
0001
0000
0100
0000
,
0010
0010
0100
0100
,
0010
0000
0110
0000
0000
1000
0001
2000
,
0000
0000
0000
0000
,
0000
0000
0000
0000
,
3000
0000
0000
0000
;

//--------------- dance-single - ----------------
#NOTES:
     dance-single:
     :
     Medium:
     13:
     0,0,0,0,0:
0000
0000
0000
0000
,
0000
0000
0000
0000
,
0000
0000
0000
0000
,
0000
0000
0000
0000
,
0000
0000
0000
0000
,
0000
0000
0000
0000
0001
0010
0001
0100
,
0000
0010
0010
0000
1000
0100
1000
0010
,
0000
0100
0100
0010
1000
0100
0010
0001
,
0000
0100
0001
0100
0010
0100
0010
2000
,
0000
0000
0000
0000
,
0000
0000
0000
3000
,
0001
0000
0011
0000
0000
0001
0100
0001
,
0000
0011
0000
0001
0100
0001
0100
0000
,
0010
0000
1010
0000
0000
1000
0100
1000
,
0000
1010
0000
1000
0100
1000
0100
0000
,
0010
0000
0110
0000
0000
0100
1000
0100
,
0000
0110
0000
0100
1000
0100
1000
0000
,
0010
0000
0110
0000
0000
0100
0001
0100
,
0000
0110
0000
0100
0001
0100
0001
0000
,
1100
0000
0101
0000
0000
0001
0010
0001
,
0000
0101
0000
1000
0100
0010
0001
0000
,
1010
0000
0011
0000
0000
1000
0100
1000
,
0000
0011
0000
1000
0010
0100
0001
0000
,
1001
0000
0110
0000
0000
1000
0100
1000
,
0000
0110
0000
0001
0100
0010
0100
0000
,
0010
0000
0110
0000
0000
1000
0100
0020
,
0000
0000
0000
0030
,
0100
1000
1000
0100
0000
0001
0001
0100
,
0000
1000
1000
0100
0010
0001
0010
0001
,
0100
1000
1000
0100
0000
0001
0001
0100
,
0000
0010
1000
0001
0010
0010
0010
0000
,
0100
0001
0001
0100
0000
1000
1000
0100
,
0000
0001
0001
0100
1000
0100
1000
0010
,
0100
1000
1000
0100
0000
0001
0001
0100
,
0000
0010
1000
0010
1000
0100
0010
0001
,
1000
0010
0010
0100
0000
0010
1000
1000
,
0000
0100
1000
1000
0010
0001
0010
1000
,
0001
0100
0100
0010
0000
0100
0100
0001
,
0000
0010
0001
0100
0010
0010
0010
0000
,
1000
0010
1000
1000
0100
1000
1000
0010
,
1000
0100
0100
1000
0010
0100
0010
0100
,
0001
0010
0000
1100
0000
0011
0000
1100
,
0000
1000
0010
0100
0001
0100
0010
1000
,
0002
0000
1003
0010
0100
0010
1000
0100
,
0010
0000
0000
0010
0000
0000
0010
0000
0100
0000
1000
0000
0001
0000
0010
0000
,
0100
0100
0010
0002
0000
0103
0010
2000
,
0000
0000
0100
0000
3100
0000
0010
0000
0100
0000
0000
0100
0000
0000
0100
0000
,
0010
1000
0010
0002
0000
1003
0100
0001
,
0200
0000
0310
1000
0010
0002
0000
1003
,
0010
0100
0001
0100
0010
0100
0010
1000
,
0001
0001
0001
0000
1000
1000
1000
0000
,
0001
0100
1000
0200
0000
0301
0001
0010
,
0100
0000
0000
0100
0000
0000
0100
0000
1000
0000
0001
0000
0010
0000
0100
0000
,
1000
0010
0001
0020
0000
1030
1000
2000
,
0000
3001
0100
0001
0010
0001
0100
0100
,
0020
0000
0030
1000
0200
0000
0300
0001
,
0200
0000
0000
0000
0300
0000
1000
0000
0010
0000
0000
0010
0000
0000
0010
0000
,
0100
0100
0000
0010
0010
0000
1000
0001
,
1000
0000
0000
0001
0000
0000
1001
0000
0000
0000
1000
0000
0100
0000
0020
0000
,
0000
0031
0100
0010
0100
0001
0100
0010
,
0100
0001
0100
0000
0010
1000
0001
0020
,
0000
0130
1000
0100
0001
0100
1000
0200
,
0000
0310
0010
0020
0000
0130
0100
0020
,
0000
0130
1000
0001
1000
0100
1000
0002
,
0000
0103
0010
0200
0000
0310
1000
0020
,
0000
1030
0100
1000
0100
0010
0001
0200
,
0000
0010
0310
0000
1000
0001
0100
0020
,
0000
1030
0100
0010
0100
1000
0100
0010
,
0100
1000
0100
0000
0010
0001
1000
0020
,
0000
0130
0001
0100
1000
0100
0001
0200
,
0000
0310
0010
0000
0100
0100
0010
2000
,
0000
3100
0010
0002
0000
0103
0010
2000
,
0000
3100
0010
0001
0000
0011
0000
2100
,
0000
3010
0010
0200
0000
0301
0001
0200
,
0000
0000
0310
0000
0010
0000
1000
0000
0001
0000
0000
0001
0000
0000
0001
0000
,
1000
0000
1100
0000
0000
1000
0010
1000
,
0000
0000
1100
0000
0000
0000
0010
0000
0010
0000
0000
0001
0000
0000
1000
0000
,
0001
0000
0101
0000
0000
0001
0010
0001
,
0000
0000
0101
0000
0000
0000
0010
0000
0010
0000
0000
1000
0000
0000
0001
0000
,
1000
0100
1000
0100
1000
0010
1000
0010
,
0100
0000
0001
0000
0100
0000
0001
0000
1000
0000
0000
1000
0000
0000
1000
0000
,
0100
0010
0001
0010
0100
1000
0100
0010
,
0001
0100
0010
1000
0010
0100
0001
1000
,
0010
0000
0110
0000
0000
1000
0001
2000
,
0000
0000
0000
0000
,
0000
0000
0000
0000
,
3000
0000
0000
0000
;

//--------------- dance-single - ----------------
#NOTES:
     dance-single:
     :
     Hard:
     16:
     0,0,0,0,0:
0000
0000
0000
0000
,
0000
0000
0000
0000
,
0000
0000
0000
0000
,
0000
0000
0000
0000
,
0000
0000
0000
0000
,
0000
0000
0000
0000
1000
0100
0010
0001
,
0000
0000
0100
0000
0010
0000
0000
0000
1000
0001
1000
0001
1000
0000
0010
0000
,
0000
0000
0100
0001
0100
0000
0010
0000
1000
0000
0100
0000
1000
0000
0100
0000
,
0000
0010
0001
0100
0001
0010
0001
0200
,
0000
0000
0000
0000
,
0000
0000
0000
0000
,
0310
0000
1001
0000
0000
1000
0100
1000
,
0000
0110
0000
0001
0100
0010
0100
0000
,
0010
0000
1001
0000
0000
0001
0100
0001
,
0000
0110
0000
1000
0100
0010
0100
0000
,
0010
0000
0110
0000
0000
0001
1000
0001
,
0000
0110
0000
0001
0100
0010
1000
0000
,
0010
0000
0110
0000
0000
1000
0001
1000
,
0000
0110
0000
1000
0100
0010
0001
0000
,
1100
0000
0101
0000
0000
1000
0010
0100
,
0000
0110
0000
0001
0010
0001
0100
0000
,
1010
0000
0011
0000
0000
1000
0100
0010
,
0000
0110
0000
0001
0100
0001
0010
0000
,
0110
0000
1001
0000
0000
0001
0100
0010
,
0000
0110
0000
0010
1000
0001
1000
0000
,
0110
0000
1001
0000
0000
1000
0010
0200
,
0000
0000
0000
0000
,
0310
0000
1000
0100
1000
0000
0020
0000
0000
0000
0130
0001
0100
0000
0020
0000
,
0000
0000
1030
0100
1000
0000
0010
0000
0100
0001
0100
0001
0100
0000
0001
0000
,
0010
0000
0100
1000
0100
0000
0020
0000
0000
0000
0031
0100
0001
0000
0020
0000
,
0000
0000
0130
1000
0100
0000
0010
0000
0001
0000
0001
0000
0001
0000
0000
0000
,
1000
0000
0001
0100
0001
0000
2000
0000
0000
0000
3010
0100
0010
0000
2000
0000
,
0000
0000
3001
0100
0001
0000
0010
0000
0100
1000
0100
1000
0100
0000
0010
0000
,
0001
0000
1000
0010
1000
0000
0200
0000
0000
0000
0310
0001
0010
0000
0200
0000
,
0000
0000
1300
0001
1000
0000
0001
0000
0100
0010
0100
0010
0100
0010
0100
0010
,
1000
0000
0100
0010
0001
0000
1000
0000
0100
0000
1000
0001
0010
0000
0100
0000
,
1000
0000
0001
1000
0100
0000
0010
0000
0001
1000
0001
1000
0001
0000
0100
0000
,
0010
0000
1000
0001
0100
0000
0010
0000
0100
0000
0001
1000
0010
0000
0100
0000
,
0001
0000
1000
0001
0100
0000
0010
0000
1000
0000
1000
0000
1000
0000
0000
0000
,
0001
0000
0010
0001
0010
0000
0100
0000
1000
0000
0010
1000
0010
0000
0100
0000
,
0001
0000
0010
0001
0010
0000
0100
0000
1000
0100
1000
0100
1000
0000
0010
0000
,
0100
0001
0100
0001
0100
1000
0100
1000
,
0100
0000
0001
0000
0010
0000
0100
0000
1000
0001
1000
0001
1000
0001
1000
0001
,
2000
0000
3010
0100
0020
0000
1030
0100
2000
0000
3001
0010
0002
0000
0103
0000
,
0010
0000
0000
0010
0000
0000
0010
0000
0100
0000
0001
0000
1000
0000
0100
0000
,
0010
0001
0010
0001
0010
0000
0200
0000
0000
0000
1300
0000
0010
0000
0200
0000
,
0000
0000
0301
0010
0001
0000
0010
0000
0100
0000
0000
0100
0000
0000
0100
0000
,
0010
0001
0100
2000
0000
3001
0010
1000
,
0002
0000
1003
0100
0001
2000
0000
3010
,
0001
0000
0010
0000
0001
0000
1000
0010
0100
0000
0001
0010
0100
0000
1000
0010
,
0200
0302
0203
0320
2030
3002
0203
0300
,
0010
0000
1000
0100
1000
0000
0200
0000
0000
0000
0310
0000
0001
0000
0100
0001
,
0100
0000
0000
0010
0000
0000
0010
0000
0100
0000
0001
0000
1000
0000
0100
0000
,
0010
0001
0010
0000
0001
0000
0201
0000
0000
0000
0310
0000
1000
0000
1200
0000
,
0000
0320
0032
0203
0302
2003
3200
2300
,
3010
0000
0000
0000
0100
0000
0010
1000
0100
0000
0000
0000
0100
0000
0010
0001
,
0100
0000
0000
0000
0100
0000
0010
1000
0100
0000
0000
0100
0000
0000
0010
0000
,
0001
0101
0000
1000
1100
0000
0001
0100
,
0010
0000
0000
0110
0000
0000
1001
0000
0000
0000
1000
0000
0100
0000
0020
0000
,
0000
0000
0031
0100
0002
0000
1003
0100
2000
0000
3001
0100
0002
0000
1003
0100
,
2000
0000
0010
0000
3010
0000
0000
0000
0100
0001
0100
0010
1000
0000
0002
0000
,
0000
0000
0103
0010
1000
0000
0001
0000
0100
0000
1000
0000
0100
0000
0002
0000
,
0000
0000
0013
0100
0010
0000
2000
0000
0000
0000
3010
0000
0100
0000
0020
0000
,
0000
0000
0031
1000
0100
0000
1000
0001
0100
0001
0100
0000
0010
0000
2000
0000
,
0000
0000
3100
0010
0100
0000
0002
0000
0000
0000
0103
0010
0100
0000
2000
0000
,
0000
0000
3001
0100
0010
0000
1000
0100
0010
0000
0001
0100
0010
0000
0020
0000
,
0000
0130
1001
0000
1000
0001
0100
0020
,
0000
0000
1030
0100
2000
0000
3001
0100
0002
0000
1003
0100
2000
0000
3001
0100
,
0002
0000
0010
0000
0013
0000
0000
0000
0100
1000
0100
0010
0001
0000
2000
0000
,
0000
0000
3100
0010
0001
0000
1000
0000
0100
0000
0001
0000
0100
0000
2000
0000
,
0000
0000
3010
0100
0010
0000
0000
0000
0100
0000
0001
1000
0100
0000
0020
0000
,
0000
0000
0031
0100
0010
1000
0020
0000
0000
0000
1030
0100
0010
0001
0020
0000
,
0000
0000
0130
1000
0100
0000
0010
0000
0000
0000
0110
0000
0000
0000
1002
0000
,
0000
0000
0103
0010
0100
0000
2000
0000
0000
0000
3100
0010
0100
0000
0002
0000
,
0000
0000
0013
0100
0010
0000
0100
0000
1100
0000
0000
0110
0000
0000
0011
0000
,
0001
0100
0010
0100
0010
1000
0001
0100
,
0010
0000
1000
0000
0100
0000
0010
0000
0110
0000
0000
0110
0000
0000
0001
0000
,
1000
0100
1000
0100
0010
0001
1000
0100
,
0010
0000
0001
0000
0100
0000
0010
0000
0110
0000
0000
0110
0000
0000
1000
0000
,
0001
0100
0010
0000
0100
0000
1000
0000
0100
0000
0010
0000
0100
0000
0001
0000
,
1000
0100
0010
0000
0100
0000
0001
0000
0100
0000
0000
1000
0000
0000
0001
0000
,
1000
0001
0100
0000
0010
0000
0100
0000
0010
1000
0001
0000
0010
0000
0100
0000
,
0010
0001
1000
0000
0010
0000
0100
0000
0001
0010
0001
0010
0100
1000
0100
1000
,
0001
0000
0110
0000
0000
1000
0001
2002
,
0000
0000
0000
0000
,
0000
0000
0000
0000
,
3003
0000
0000
0000
;
