#VERSION:0.83;
#TITLE:Abraxas;
#SUBTITLE:;
#ARTIST:SYUNN;
#TITLETRANSLIT:;
#SUBTITLETRANSLIT:;
#ARTISTTRANSLIT:;
#GENRE:;
#ORIGIN:;
#CREDIT:;
#BANNER:Abraxas.png;
#BACKGROUND:Abraxas-bg.png;
#PREVIEWVID:;
#JACKET:Abraxas-jacket.png;
#CDIMAGE:;
#DISCIMAGE:;
#LYRICSPATH:;
#CDTITLE:CDtitle.png;
#MUSIC:Abraxas.ogg;
#OFFSET:0.000000;
#SAMPLESTART:104.725998;
#SAMPLELENGTH:13.998000;
#SELECTABLE:YES;
#DISPLAYBPM:83.000000:165.000000;
#BPMS:0.000=165.000,
31.000=330.000,
32.000=165.000,
63.000=82.500,
71.000=165.000,
183.000=82.500,
191.000=165.000,
269.000=82.500,
270.000=165.000,
285.000=330.000,
286.000=165.000;
#STOPS:31.000=0.045,
31.250=0.045,
31.500=0.045,
31.750=0.045,
46.500=0.364,
285.000=0.045,
285.250=0.045,
285.500=0.045,
285.750=0.045;
#DELAYS:;
#WARPS:;
#TIMESIGNATURES:0.000=4=4;
#TICKCOUNTS:0.000=4;
#COMBOS:0.000=1;
#SPEEDS:0.000=1.000=0.000=0;
#SCROLLS:0.000=1.000;
#FAKES:;
#LABELS:0.000=Song Start;
#BGCHANGES:0.000=Abraxas.avi=1.000=0=0=0=StretchNoLoop====,
99999=-nosongbg-=1.000=0=0=0 // don't automatically add -songbackground-
;
#KEYSOUNDS:;
#ATTACKS:
;

//---------------dance-single - ----------------
#NOTEDATA:;
#CHARTNAME:;
#STEPSTYPE:dance-single;
#DESCRIPTION:;
#CHARTSTYLE:;
#DIFFICULTY:Beginner;
#METER:5;
#RADARVALUES:0.148572,0.250433,0.083200,0.000000,0.000000,125.000000,115.000000,10.000000,0.000000,0.000000,0.000000,0.000000,0.000000,0.000000,0.148572,0.250433,0.083200,0.000000,0.000000,125.000000,115.000000,10.000000,0.000000,0.000000,0.000000,0.000000,0.000000,0.000000;
#CREDIT:Pandemonium X;
#DISPLAYBPM:83.000000:165.000000;
#NOTES:
0000
0000
0000
0000
,
0000
0000
0000
0000
,
0000
0000
0000
0000
,
0000
0000
0000
0000
,
0001
0000
0000
0000
,
0000
0000
0000
0000
,
1000
0000
0000
0000
,
0000
0000
0000
0010
,
1001
0000
0001
0000
,
0000
1000
0100
0000
,
1000
0000
0010
0000
,
0000
0100
0010
1000
,
0000
0000
0000
0001
,
0000
0000
0000
0010
,
0000
0000
0000
0100
,
0000
0010
0000
1001
,
0000
0000
0000
0000
,
0000
0000
0000
0001
,
0000
0000
0000
1000
,
0000
0000
0000
0010
,
0000
0000
0000
0100
,
0000
0010
1000
0101
,
0000
0000
0000
0000
,
0000
0000
0000
0000
,
0000
0000
0000
0000
,
0000
0000
0000
1100
,
0000
0000
0000
0000
,
0100
0000
1000
0010
,
0000
1000
0000
0001
,
0010
0100
1000
1010
,
0000
0010
0000
0100
,
0000
0001
1000
0001
,
0000
0010
0000
0000
,
0001
0100
0000
0001
,
0000
1000
0000
0100
,
1000
0010
0000
0010
,
0000
0100
0000
0010
,
0000
1000
0000
1001
,
0000
0001
0000
1000
,
0000
0100
0000
1000
,
1000
1000
0000
0001
,
0000
0100
0000
0010
,
0000
0000
0000
0010
,
0000
0000
0000
0100
,
0000
0010
0000
1000
,
0000
0001
0000
0110
,
0000
0000
0000
0000
,
0000
0000
0000
1000
,
0000
0000
0000
0100
,
0000
0000
0000
0010
,
0000
0000
0000
0001
,
0000
0000
0000
1001
,
0000
0000
0010
0000
0000
0000
0000
0100
,
0000
0000
0000
0010
,
0000
1000
0000
0000
,
0001
0000
0000
0010
,
0000
0100
0000
0000
,
0010
0010
0000
0100
,
0000
0000
0000
1000
,
0000
0001
0000
0110
,
0000
0000
0100
0000
0000
0000
0000
0010
,
0000
0000
0000
1000
,
0000
0000
0001
0000
,
0010
0010
0000
0100
,
0000
0000
0000
0010
,
0000
0000
0000
0001
,
0000
1000
0000
0010
,
0100
0010
0100
0000
,
0010
0000
0000
1000
,
0001
0000
0010
0000
,
0100
0000
0000
0010
,
0001
0000
1000
0000
,
0001
0000
0000
0100
,
0010
0000
0100
0000
,
0001
0000
0000
1000
,
0001
0110
0000
0000
;

//---------------dance-single - ----------------
#NOTEDATA:;
#CHARTNAME:;
#STEPSTYPE:dance-single;
#DESCRIPTION:;
#CHARTSTYLE:;
#DIFFICULTY:Easy;
#METER:9;
#RADARVALUES:0.354195,0.470341,0.166400,0.116480,0.000000,298.000000,278.000000,20.000000,14.000000,0.000000,0.000000,0.000000,0.000000,0.000000,0.354195,0.470341,0.166400,0.116480,0.000000,298.000000,278.000000,20.000000,14.000000,0.000000,0.000000,0.000000,0.000000,0.000000;
#CREDIT:Pandemonium X;
#DISPLAYBPM:83.000000:165.000000;
#NOTES:
0000
0000
0000
0000
,
0000
0000
0000
0000
,
0000
0000
0000
0000
,
0000
0000
0000
0000
,
1000
0100
1000
0010
,
0100
0001
0010
0100
,
0010
0001
1000
0010
,
0100
0001
1000
0020
,
0130
0000
0001
1000
0001
0000
0010
0100
,
0000
0100
0010
0000
0001
0000
1000
0000
,
0100
0000
1000
0010
1000
0000
0010
0100
,
0000
0100
0020
0000
1030
0000
0001
0000
,
0010
0100
0100
0010
,
0001
1000
1000
0010
,
0100
0001
0001
0100
,
0010
0000
1000
0000
0001
1000
0010
0000
,
0000
0100
0000
0001
,
0000
1000
0001
0010
,
0100
0010
0001
1000
,
0010
1000
0001
1000
,
1000
1000
1000
0001
,
0001
0000
1000
0020
1030
0001
0020
0000
,
0000
0000
0000
0030
,
0000
0000
0000
0000
,
0000
0000
0000
0000
,
0000
0000
0000
0200
,
0000
0000
0000
0300
,
0010
0001
0100
0010
,
1000
0001
0010
0100
,
0010
0001
1001
0110
,
0001
0100
0001
0000
0100
0000
0010
1000
,
0010
0110
1001
1100
,
1000
0100
0010
0000
0100
0000
1000
0000
,
0010
0000
0100
0010
2000
0000
3001
0000
,
0100
0100
0110
0001
,
0001
1001
0101
1010
,
0010
1000
0010
0000
1000
0000
0001
0000
,
1000
0100
1000
1010
,
0010
0100
0001
0000
0010
0000
0110
0000
,
0100
1000
0010
0000
0100
0000
0101
0000
,
1100
0101
1100
0001
,
1000
0010
1000
1100
,
0100
0010
0001
0000
0010
0000
0011
0000
,
0001
0010
0100
0000
0010
0000
0001
0000
,
0100
0010
1000
0001
,
0010
0000
0100
0000
1000
0010
0100
0000
,
0000
0000
0000
0000
,
0000
0000
0000
0010
,
0000
1000
0000
0100
,
0000
0010
0000
0001
,
0010
0100
1000
0001
,
0010
0100
0000
1000
,
0001
0000
0200
0000
0000
0310
0000
2000
,
0000
3001
1000
0000
0001
0000
0020
0000
,
0230
0000
0310
0000
0001
0100
0000
0100
,
0020
0000
1030
0000
0001
1000
0001
0000
,
0010
0100
0000
0000
,
0010
0001
0100
0000
0000
0000
0010
0000
,
0000
1001
0000
0001
,
1000
0100
1000
0010
,
1010
0000
0010
0000
1000
0001
0000
0010
,
0000
0100
0010
0000
0001
0000
0011
0000
,
0000
1000
0000
0000
0001
0001
0000
1000
,
0020
0130
0010
1000
,
0100
0010
0100
1000
,
0010
0100
0001
1000
,
1000
0100
0100
0010
,
0010
0000
0002
0000
1003
0000
0001
0100
,
0010
0000
1000
0000
0001
0000
1000
0100
,
0010
0000
0100
0000
1000
0000
0001
1000
,
0010
0000
1000
0000
0001
0000
1000
0100
,
0010
0000
0002
0000
0013
0000
0001
0100
,
0010
0000
1000
0000
0001
0000
1000
0100
,
0010
0000
0100
0000
1000
0000
0010
0100
,
0001
0000
1000
0000
0001
0000
0100
0010
,
1000
0100
0010
0100
0000
0000
0000
0000
;

//---------------dance-single - ----------------
#NOTEDATA:;
#CHARTNAME:;
#STEPSTYPE:dance-single;
#DESCRIPTION:;
#CHARTSTYLE:;
#DIFFICULTY:Medium;
#METER:13;
#RADARVALUES:0.525350,0.627642,0.158080,0.166400,0.137280,442.000000,423.000000,19.000000,20.000000,0.000000,0.000000,0.000000,0.000000,0.000000,0.525350,0.627642,0.158080,0.166400,0.137280,442.000000,423.000000,19.000000,20.000000,0.000000,0.000000,0.000000,0.000000,0.000000;
#CREDIT:Pandemonium X;
#DISPLAYBPM:83.000000:165.000000;
#NOTES:
0000
0000
0000
0000
,
0000
0000
0000
0000
,
0000
0000
0000
0000
,
0000
0000
0000
0000
,
1000
0100
0010
0000
0010
0000
0010
0100
,
0000
0100
1000
0000
1000
0100
0010
0001
,
0010
0100
0010
0000
0001
0000
0001
1000
,
0000
0001
0000
1000
0010
0100
0002
0000
,
0013
0000
0000
0000
0100
0000
0100
0000
1000
0000
0000
1000
0000
0000
0010
0000
,
0000
0000
0100
0000
0010
0000
0010
0000
1000
0000
0000
0001
0000
0000
0010
0000
,
0100
0000
0000
0000
0010
0000
0010
0000
0001
0000
0000
0100
0000
0000
0001
0000
,
0000
0000
1000
0000
0001
0100
0001
0000
1000
0000
0100
0000
0010
0000
0100
0000
,
1000
0000
0001
1000
0000
0001
1000
0000
0010
0000
0000
0000
0100
0000
0001
0000
,
0010
0000
0100
0010
0000
0100
0010
0000
0100
0000
1000
0000
0001
0000
0100
0000
,
0010
0000
1000
0100
0000
0100
1000
0000
0100
0000
0010
0000
0001
0000
0100
0000
,
0001
0000
1000
0000
0001
0100
0000
0010
1000
0000
0001
0000
1001
0000
0000
0000
,
0000
0001
0000
0100
,
0000
0000
0001
0000
0010
0000
0100
1000
,
0100
0000
1000
0000
0010
0000
0100
0010
,
0100
0000
0010
0000
1000
0000
0001
0010
,
0001
0000
0010
0000
0001
0000
0100
0010
,
0100
0000
0010
0200
0010
0310
2002
0000
,
0000
0000
0000
3003
,
0000
0000
0000
0000
,
0000
0000
0000
0000
,
0000
0000
0000
0220
,
0000
0000
0000
0000
0000
0000
0330
1000
,
0000
0001
0000
0000
0100
0000
0001
0000
0010
0000
0100
0000
1000
0000
0001
0000
,
0100
0000
0001
1000
0100
0000
0010
0100
,
1000
0001
0100
0010
1001
0000
0201
0000
,
0310
1000
0010
1000
0100
0000
0010
0001
,
0010
0001
0200
0000
0302
0000
1003
0000
,
0001
0100
0001
0100
0001
0100
0001
0100
,
0001
0100
0001
0100
0010
1000
0001
0000
,
1000
0100
1000
0100
0010
0000
0001
0010
,
0001
0010
0200
0000
2300
0000
3010
0000
,
0100
0000
0010
0000
0100
0000
0010
0000
0100
0000
0010
0000
0100
0000
0000
0100
,
0000
0000
0100
0000
0010
0000
0000
0010
0000
0000
0010
0000
1001
0000
0000
0000
,
0001
0001
1000
1000
0001
0001
0010
0100
,
0100
1000
1000
0100
1100
0000
0011
0000
,
1010
0000
0010
0100
0001
1000
0010
0100
,
0001
1000
0020
0000
2030
0000
3001
0000
,
0010
0100
1000
0100
0010
0000
0100
1000
,
0010
0100
0001
0010
0100
0000
0010
0001
,
0010
0001
1000
0100
1000
0100
1000
0010
,
0100
0000
0001
0000
0010
0000
0100
0000
1000
0001
1000
0001
0010
0000
0000
0000
,
0000
0000
0100
0010
,
0000
0000
0000
0001
0000
0000
1000
0000
,
0100
0010
0001
0010
,
0100
0000
1000
0000
0010
0000
0100
0001
,
0100
0000
0010
1000
0010
0000
0010
0100
,
0001
1000
0001
0010
0200
0000
1300
0000
,
0002
0000
2003
0000
3001
0200
0000
2300
,
0000
3100
0010
0100
0010
1000
0001
0000
,
0010
1000
0010
0001
1000
0010
0000
0100
,
0001
1000
0001
0000
0011
0000
0000
0000
1000
0000
1000
0000
1100
0000
0000
0000
,
0101
0000
0010
0100
0010
0100
0010
0100
,
0010
1000
0100
0000
0110
0000
0010
0100
,
0010
0000
0100
0000
0010
0000
0100
0000
0010
0000
0100
0000
0010
0000
0000
0010
,
0000
0000
0010
0000
0100
0000
0000
0100
0000
0000
0100
0000
0110
0000
0000
0000
,
1001
0000
0001
0100
1000
0100
0000
0101
,
0000
0000
0001
0000
0010
0000
0100
0000
0010
0000
0000
0000
0011
0000
0000
1100
,
0000
0000
0000
0000
0001
0000
0000
0000
0000
0000
0000
0000
0110
0000
0000
0000
0000
0000
0000
0000
0000
0000
0000
0000
1000
0000
0000
0000
0000
0000
0001
0000
0000
0000
0000
0000
0000
0000
0000
0000
0000
0000
1000
0000
0000
0001
0000
0000
,
1000
0000
0010
0000
0100
0000
0001
0100
,
0001
0000
0100
0000
0010
0000
1000
0010
,
1000
0000
0010
0000
0100
0000
0001
0100
,
0001
0000
1000
0100
1000
0000
0100
1000
,
0010
0000
0100
0000
0002
0000
0000
0000
0013
0000
0000
0100
0010
0000
0001
0000
,
0100
0000
1000
0000
0100
0000
0001
0000
1000
0000
0000
0010
1000
0000
0100
0000
,
0001
0000
0100
0000
1000
0000
0001
0000
0100
0000
0000
0001
0010
0000
0100
0000
,
1000
0000
0100
0000
0001
0000
0100
0000
1000
0000
0000
0010
1000
0000
0001
0000
,
0100
0000
0010
0000
2000
0000
0000
0000
3100
0000
0000
0100
0010
0000
0010
0000
,
0100
0000
1000
0000
0010
0000
0001
0000
0010
0000
0000
0100
0010
0000
0010
0000
,
0100
0000
1000
0000
0100
0000
0001
0000
1000
0000
0000
0001
0100
0000
0100
0000
,
0001
0000
0010
0000
0100
0000
1000
0000
0100
0000
0000
1000
0100
0000
0100
0000
,
0010
0000
0001
0000
0100
0010
1000
0001
0000
0000
0000
0000
0000
0000
0000
0000
;

//---------------dance-single - ----------------
#NOTEDATA:;
#CHARTNAME:;
#STEPSTYPE:dance-single;
#DESCRIPTION:;
#CHARTSTYLE:;
#DIFFICULTY:Hard;
#METER:16;
#RADARVALUES:0.715522,0.816610,0.158080,0.291201,0.615682,602.000000,583.000000,19.000000,35.000000,0.000000,0.000000,0.000000,0.000000,0.000000,0.715522,0.816610,0.158080,0.291201,0.615682,602.000000,583.000000,19.000000,35.000000,0.000000,0.000000,0.000000,0.000000,0.000000;
#CREDIT:Pandemonium X;
#DISPLAYBPM:83.000000:165.000000;
#NOTES:
// measure 0
0000
0000
0000
0000
,  // measure 1
0000
0000
0000
0000
,  // measure 2
0000
0000
0000
0000
,  // measure 3
0000
0000
0000
0000
,  // measure 4
1000
0100
1000
0010
0100
0001
0010
0100
,  // measure 5
0010
0001
0100
0001
1000
0100
0010
0001
,  // measure 6
1000
0010
1000
0001
0100
0001
0010
0100
,  // measure 7
0010
0000
0100
0000
0010
0000
0001
0000
0100
0000
0010
0000
2000
3002
2003
3002
,  // measure 8
0103
0000
0000
0000
0010
1000
0010
0000
0100
0000
0001
0100
0010
0000
1000
0000
,  // measure 9
0000
0000
0100
0000
0010
0001
0010
0000
0100
0000
1000
0001
0100
0000
0100
0000
,  // measure 10
0010
0000
0000
0000
1000
0010
1000
0000
0010
0000
0100
0010
1000
0000
0001
0000
,  // measure 11
0000
0000
0010
0000
0100
0010
0001
1000
0010
0000
0100
0000
0010
0000
1000
0000
,  // measure 12
0001
0000
0010
0100
0000
0010
0001
0000
1000
0001
1000
0000
0001
0100
0001
0000
,  // measure 13
0100
0000
0010
1000
0000
1000
0100
0000
0010
0000
0010
0000
0100
0010
0001
0000
,  // measure 14
0100
0000
0010
1000
0000
1000
0100
0000
0010
0001
0010
0000
0001
0000
0100
0000
,  // measure 15
1000
0000
0100
0000
0001
0100
0000
0010
1000
0000
0001
0000
1100
0000
0000
0000
,  // measure 16
0000
1000
0000
0010
,  // measure 17
0000
0000
0100
0000
0001
0000
1000
0010
,  // measure 18
1000
0000
0100
0000
0110
0000
0010
0100
,  // measure 19
0010
0000
0001
0000
0011
0000
0001
0010
,  // measure 20
0001
0000
0010
0000
0110
0000
0100
1000
,  // measure 21
0100
0000
0000
0000
1000
0001
0100
0000
0100
0001
1000
0200
2000
0000
0000
0000
,  // measure 22
0000
0000
0000
3300
,  // measure 23
0000
0000
0000
0000
,  // measure 24
0000
0000
0000
0000
,  // measure 25
0000
0000
0000
0022
,  // measure 26
0000
0000
0000
0000
0000
0000
0000
0000
0000
0000
0000
0000
0033
0000
1000
0100
,  // measure 27
0000
0001
0100
0000
0010
0000
0010
0000
0010
1000
0100
0000
0010
0000
0100
0000
,  // measure 28
0010
0000
0100
0000
1000
0000
0001
0000
1000
0000
0001
0000
1000
0010
1000
0010
,  // measure 29
0100
0010
0100
0010
0100
0001
0010
0100
1000
0000
0001
0000
2010
0000
0000
0000
,  // measure 30
3100
1000
0100
0000
1000
0100
1000
0000
0010
0000
0000
0000
0100
0001
0100
0000
,  // measure 31
0001
0100
0001
0000
0200
0000
0000
0000
0320
0000
0000
0000
1030
0000
0000
0000
,  // measure 32
0001
0100
0010
0000
0100
0010
1000
0000
0100
0010
0001
0000
0010
0100
1000
0000
,  // measure 33
0100
1000
0010
0000
0100
0000
0010
0000
1000
0001
0010
0100
1000
0000
0000
0000
,  // measure 34
0001
0100
0001
0000
0100
0001
0100
0000
0010
0000
0000
0000
1000
0001
1000
0000
,  // measure 35
0001
1000
0001
0000
0020
0000
0000
0000
0032
0000
0000
0000
0103
0000
0000
0000
,  // measure 36
0010
1000
0100
0000
0010
0001
0100
0000
0010
1000
0100
0000
1000
0000
1000
0100
,  // measure 37
0000
0100
0010
0000
0110
0000
0010
0001
0000
0001
0100
0000
1001
0000
0000
0000
,  // measure 38
0001
0100
0001
0100
0001
0100
0001
0100
0010
0000
1000
0000
0100
0000
0010
0100
,  // measure 39
0010
0100
0010
0100
0010
0100
0010
0100
1000
0000
0000
0000
1001
0000
0000
0000
,  // measure 40
1000
0000
0100
0000
0010
0001
0010
0001
0010
0001
0010
0001
0010
0001
0010
0001
,  // measure 41
0010
0001
1000
0001
0020
0000
0000
0000
0230
0000
0000
0000
1300
0000
0000
0000
,  // measure 42
0001
0010
0001
0010
0001
0010
0001
0010
0002
0000
0203
0000
0320
0000
1030
0001
,  // measure 43
1000
0001
1000
0001
1000
0001
1000
0001
0200
0000
0000
0000
0310
0000
1000
0000
,  // measure 44
0010
0000
1000
0000
0001
0000
0100
0000
0001
0000
0100
0000
0010
0100
0010
0100
,  // measure 45
0001
1000
0001
1000
0001
0100
0010
1000
0001
0100
0010
1000
0100
0000
0000
0000
,  // measure 46
0000
0000
0000
0000
0000
0000
0000
0000
0010
0100
0000
0100
0010
0000
0000
0000
,  // measure 47
0000
0000
0000
0002
0003
0000
1000
0000
,  // measure 48
0100
0010
0001
0010
,  // measure 49
0001
0000
0100
0000
0010
0000
1000
0100
,  // measure 50
0010
0001
0010
0100
1000
0010
0100
0010
,  // measure 51
1000
0001
0010
0100
1100
0000
1001
0000
,  // measure 52
0201
0000
0320
0000
0130
1002
0000
0023
,  // measure 53
0000
0000
0130
0000
1000
0001
1000
0001
1000
0001
1000
0001
0100
0000
0000
0000
,  // measure 54
0001
0000
0100
0000
0010
1000
0010
1000
0100
0000
0010
0000
0000
0000
0100
0000
,  // measure 55
1000
0100
0010
0001
1000
0000
0000
0000
0001
0000
0010
0000
1100
0000
0000
0000
,  // measure 56
2010
0000
3001
0100
1000
0100
0001
0100
,  // measure 57
2000
3200
0320
0000
1000
1000
1030
0100
,  // measure 58
0010
0000
0001
0000
1000
0000
0100
0000
0010
0000
0001
0000
1000
0000
0001
0100
,  // measure 59
0000
1000
0100
0000
1001
0000
1000
0010
0000
0001
0010
0000
0110
0000
0000
0000
,  // measure 60
2100
0000
3010
0001
0010
1000
0000
2001
,  // measure 61
0000
0000
0010
0000
3010
0100
0010
0100
0010
0100
0010
0100
0010
0000
0000
1000
,  // measure 62
0000
0000
0000
0000
0001
0000
0000
0000
0000
0000
0000
0000
0010
0000
0000
0100
0000
0000
0010
0000
0000
0100
0000
0000
0010
0000
0000
0000
0000
0000
0001
0000
0000
0000
0000
0000
0000
0000
0000
0000
0000
0000
1000
0000
0000
0000
0000
0000
,  // measure 63
0001
0010
0100
1000
0010
0100
0010
0100
0002
0000
0000
0000
1003
0000
0100
0000
,  // measure 64
0010
0001
1000
0010
0100
0010
1000
0100
,  // measure 65
0010
0001
0010
0100
0010
0001
1000
0001
,  // measure 66
0100
0001
1000
0100
0010
0001
1000
0001
,  // measure 67
0100
0000
0000
0000
0010
0000
0000
0000
1000
0010
1000
0010
0100
0001
0100
0001
1000
0000
0000
0000
0000
0000
1000
0000
0100
0000
0000
0000
0010
0000
0000
0000
,  // measure 68
0001
0000
0100
0000
0010
1000
0001
0010
0100
0000
0000
0010
0100
0000
0010
0000
,  // measure 69
0001
0000
0100
0000
0001
0010
0100
1000
0001
0000
0000
1000
0100
0000
1000
0000
,  // measure 70
0010
0000
0100
0000
0010
1000
0001
0010
0100
0000
0000
0010
0001
0000
0100
0000
,  // measure 71
0010
0000
1000
0000
0002
2003
3002
2003
3100
0000
0000
0010
0100
0000
1000
0000
,  // measure 72
0010
0000
0100
0000
0010
1000
0001
0010
0100
0000
0000
0010
0001
0000
0100
0000
,  // measure 73
0001
0000
1000
0000
0001
0010
0001
1000
0100
0000
0000
0010
0100
0000
0010
0000
,  // measure 74
0001
0000
0010
0100
1000
0000
0010
0000
0100
0000
0010
1000
0001
0000
0010
0001
,  // measure 75
0100
0010
1000
0100
0010
0001
0010
0100
1000
0000
0000
0000
0000
0000
0000
0000
;

//---------------dance-single - ----------------
#NOTEDATA:;
#CHARTNAME:;
#STEPSTYPE:dance-single;
#DESCRIPTION:;
#CHARTSTYLE:;
#DIFFICULTY:Challenge;
#METER:17;
#RADARVALUES:0.854585,1.035609,0.191360,0.657282,1.089923,719.000000,696.000000,23.000000,79.000000,0.000000,0.000000,7.000000,0.000000,0.000000,0.854585,1.035609,0.191360,0.657282,1.089923,719.000000,696.000000,23.000000,79.000000,0.000000,0.000000,7.000000,0.000000,0.000000;
#CREDIT:Pandemonium X;
#DISPLAYBPM:83.000000:165.000000;
#NOTES:
0000
0000
0000
0000
,
0000
0000
0000
0000
,
0000
0000
0000
0000
,
0000
0000
0000
0000
,
1000
0100
0001
0100
1000
0010
0100
0010
,
1000
0010
0001
0010
0100
0001
1000
0100
,
0010
0100
1000
0010
0001
0010
1000
0010
,
0100
0000
0000
0000
1000
0000
0000
0000
0100
0000
0000
0000
0001
0000
0000
0000
1000
0000
0000
0000
0010
0000
0000
0000
2000
3000
0020
0030
0200
0300
0002
0003
,
2000
0000
0000
0000
3001
0100
0010
0000
1001
0000
0001
0010
0100
0000
0011
0000
,
0000
0000
1100
0000
0100
1000
0010
0000
0110
0000
0100
0001
1000
0000
0001
0000
,
1002
0000
0000
0000
0103
0001
1000
0000
1100
0000
0001
0010
0100
0000
0011
0000
,
0000
0000
0000
0000
0000
0000
1000
0000
0000
0000
0000
0000
0001
0000
0100
0000
0001
0000
0100
0000
0000
0000
0000
0000
0010
0000
0000
0000
0000
0000
1000
0000
0000
0000
0000
0000
0001
0000
0000
1000
0000
0000
0001
0000
0000
1000
0000
0000
,
0001
0010
0100
0010
0000
0001
1000
0000
1000
0100
0010
0100
1000
0001
1000
0100
,
0010
0100
0010
0100
0020
0000
0032
0000
0103
0000
0010
0000
1000
0001
1000
0010
,
1000
0001
1000
0001
0000
0001
0100
0000
0100
0001
1000
0000
0200
0000
0320
0000
,
0031
0010
0001
0000
1000
0010
0000
0010
0100
0000
0001
0000
2001
0000
0000
0000
,
0000
3002
0000
0203
,
0000
0000
0302
0000
2003
0000
3100
0100
,
0110
0000
0000
1000
0001
0000
0000
0000
0110
0000
0000
0000
0001
0000
0001
0000
,
1000
0000
0001
0000
0001
0000
1000
0000
0001
0000
1000
0000
0010
0000
0000
1000
,
0100
0000
0000
0100
0010
0000
0000
0010
0001
0000
0000
0001
0100
0001
0100
0010
,
1000
0001
0020
0130
1000
0020
0000
0000
0130
0001
1000
0010
0400
0004
0000
0000
,
0000
0000
0000
0303
,
0000
0000
0000
0000
,
0000
0000
0000
0000
,
0000
0000
0000
0000
0000
0000
0000
0000
0000
0000
0000
0000
4000
0040
0000
0000
,
0000
0000
0000
0000
0000
0000
0000
0000
0000
0000
0000
0000
3030
0000
1000
0001
,
0000
0001
1000
0000
0001
0000
0001
0000
0010
0001
1000
0000
0001
0000
0001
0000
,
1000
0000
1000
0000
0010
0000
0010
0000
0100
0000
0100
0000
0010
1000
0010
1000
,
0001
0100
0001
0100
0010
1000
0100
0010
0002
0000
4003
0000
3200
0000
0000
0000
,
0310
0001
0010
0001
0010
0001
0010
0001
2000
0000
0000
0000
3001
1000
0001
1000
,
0001
1000
0001
1000
0020
0000
0000
0000
0230
0000
0000
0000
0302
0000
0000
0000
,
0013
0100
0010
0001
0010
0100
0010
0001
0010
0100
0010
0001
0010
0100
0010
0100
,
0010
0000
0000
0100
0000
0000
0010
0000
0000
0100
0000
0000
0010
0000
0000
0000
0000
0000
0001
0000
0000
0000
0000
0000
1000
0000
0010
0000
1000
0000
0010
0000
0000
0000
0000
0000
0200
0000
0000
0000
0000
0000
0000
0000
0000
0000
0000
0000
,
0310
1000
0010
1000
0010
1000
0010
1000
0002
0000
0000
0000
0013
0100
0010
0100
,
0010
0100
0010
0100
0020
0000
0000
0000
0032
0000
0000
0000
2003
0000
0000
0000
,
3100
0010
0100
1000
0100
0010
0100
1000
0100
0010
0100
1000
0100
0000
0100
1000
,
0000
0001
1000
0000
0001
0000
0001
0010
0000
0100
1000
0000
1001
0000
0000
0000
,
1000
0010
0100
0001
1000
0010
0100
0001
2000
0000
3200
0000
0320
0000
0031
0010
,
0100
1000
0001
0010
0100
1000
0001
0010
0200
0000
0000
0000
4300
3000
0000
0000
,
0401
0000
0310
0000
1000
0001
0010
0001
1000
0001
0100
0001
1000
0001
1000
0001
,
1000
0001
0010
0100
2000
0000
0000
0000
3002
0000
0000
0000
0203
0000
0000
0000
,
0310
0100
0001
0100
0010
1000
0010
0100
0002
0000
0023
0000
0230
0000
1300
0100
,
0010
0001
1000
0100
0010
0001
1000
0100
0010
0001
1000
0010
0100
0000
0100
0000
,
0010
0000
0010
0000
1000
0000
1000
0000
0001
0000
0001
0000
1000
0100
1000
0100
,
0010
0100
0010
0001
0010
0001
0100
0001
1000
0100
0010
0001
2000
0000
0000
0000
,
0000
0000
0000
0000
3000
0000
0000
0000
1000
0002
0003
0001
2000
0000
0000
0000
,
0000
0000
0000
0000
0000
0000
0000
0000
3000
0000
0002
0000
0103
0010
0100
0010
0200
0000
0000
0000
0300
0000
0010
0000
2001
0000
0000
0000
0000
0000
0000
0000
,
3100
0002
0103
2000
,
3010
0000
0000
0000
0002
0000
0000
0000
0013
0000
0000
0000
0100
0010
0100
0010
,
0001
1000
0001
1000
0001
0100
0001
0100
0010
1000
0010
1000
0001
0010
0001
0010
,
0100
1000
0100
1000
0010
0100
0001
1000
0020
0000
0030
0000
0201
0000
0000
0000
,
1000
0000
0302
0000
0023
2000
3030
0021
,
0000
0000
0130
0000
1000
0001
1000
0001
1000
0001
1000
0001
0200
0000
0000
0000
,
0302
0000
0023
0000
1030
0010
0001
1000
0002
0000
0203
0000
0000
0000
0310
0000
,
0100
0010
0100
0010
0000
0000
2000
0000
0000
0000
0000
0000
3001
0000
0000
0001
0000
0000
1002
0000
0000
0000
0000
0000
,
0203
0000
0000
0000
0310
0100
0010
0100
0010
0100
0010
0100
0010
0100
0010
0100
,
0010
0000
1000
0000
0200
0000
0000
0000
0010
0000
0310
0000
0100
0010
0100
0010
,
0100
0010
0100
0010
0100
0010
0100
0010
0100
0010
0100
0010
0100
0000
0010
0100
,
0000
0100
1000
0000
1001
0000
0001
0010
0000
0010
0100
0000
2001
0000
0000
0000
,
3010
0001
0010
1000
0010
0100
0000
2002
,
3003
0000
0101
0000
0001
0100
0010
1000
0001
0100
0010
1000
2002
0000
3003
2200
,
3300
0000
0000
0000
2020
0000
0000
0000
3030
0000
0000
0000
0100
0000
0000
0010
0000
0000
0100
0000
0000
0010
0000
0000
2000
0000
0000
0000
0000
0000
0002
0000
0000
0000
0000
0000
3003
0000
0000
0000
0000
0000
1000
0000
0000
0000
0000
0000
,
0001
0010
0001
0010
0000
0000
0100
0000
0000
1000
0000
0000
0002
0000
0000
0000
0000
0000
0103
0000
0000
0010
0000
0000
,
1000
0000
0100
0010
0001
0000
0010
0000
0100
1000
0001
0100
0010
0000
1000
0000
,
0001
0000
0010
0100
1000
0000
0100
0000
1000
0010
1000
0001
0010
0000
0010
0000
,
0100
0000
0100
0000
1000
0000
1000
0000
0001
0000
0001
0000
0100
0001
0100
0001
,
1000
0000
0010
0000
1000
0000
0010
0000
1000
0100
0010
0001
0010
0100
1000
0001
1000
0000
0000
0000
0000
0000
0001
0000
0100
0000
0001
0000
1000
0000
0001
0000
,
0010
0001
1000
0100
0010
0001
1000
0001
1000
0000
0000
0001
0100
1000
0100
0010
,
1000
0010
1000
0010
0100
0001
1000
0100
0010
0000
0000
0100
0010
0001
0100
0001
,
1000
0100
1000
0100
0010
0001
0010
0100
1000
0000
0000
0100
1000
0100
0010
0001
,
0010
0100
1000
0100
0020
0230
0320
0230
0320
0000
0000
0031
0100
0010
0100
0001
,
1000
0100
0010
0100
1000
0001
0100
0010
1000
0000
0000
0100
0001
0100
1000
0100
,
0010
0001
1000
0100
0010
0001
1000
0001
0100
0000
0000
0010
1000
0010
0100
0001
,
1000
0100
0010
0001
0100
0010
1000
0001
0010
0100
1000
0001
0010
0100
1000
0001
,
0010
0000
0000
0000
0000
0000
0001
0000
0000
0000
0000
0000
1000
0000
0001
0000
1000
0000
0001
0000
0000
1000
0000
0000
0000
0000
0000
0000
0000
0000
0000
0000
0000
0000
0000
0000
0000
0000
0000
0000
0000
0000
0000
0000
0000
0000
0000
0000
;
