#VERSION:0.83;
#TITLE:シュガーホリック;
#SUBTITLE:;
#ARTIST:周防パトラ;
#TITLETRANSLIT:sugar holic;
#SUBTITLETRANSLIT:;
#ARTISTTRANSLIT:Suou Patra;
#GENRE:;
#ORIGIN:;
#CREDIT:;
#BANNER:sugar holic.png;
#BACKGROUND:sugar holic-bg.png;
#PREVIEWVID:;
#JACKET:sugar holic-jacket.png;
#CDIMAGE:;
#DISCIMAGE:;
#LYRICSPATH:;
#CDTITLE:;
#MUSIC:sugar holic.ogg;
#OFFSET:0.000000;
#SAMPLESTART:60.705883;
#SAMPLELENGTH:24.000000;
#SELECTABLE:YES;
#BPMS:0.000=170.000;
#STOPS:;
#DELAYS:;
#WARPS:;
#TIMESIGNATURES:0.000=4=4;
#TICKCOUNTS:0.000=4;
#COMBOS:0.000=1;
#SPEEDS:0.000=1.000=0.000=0;
#SCROLLS:0.000=1.000;
#FAKES:;
#LABELS:0.000=Song Start;
#BGCHANGES:;
#KEYSOUNDS:;
#ATTACKS:
;

//---------------dance-single - ----------------
#NOTEDATA:;
#CHARTNAME:;
#STEPSTYPE:dance-single;
#DESCRIPTION:;
#CHARTSTYLE:;
#DIFFICULTY:Medium;
#METER:13;
#RADARVALUES:0.506900,0.595686,0.088523,0.656546,0.165981,481.000000,469.000000,12.000000,89.000000,0.000000,0.000000,0.000000,0.000000,0.000000,0.506900,0.595686,0.088523,0.656546,0.165981,481.000000,469.000000,12.000000,89.000000,0.000000,0.000000,0.000000,0.000000,0.000000;
#CREDIT:Kekkle;
#NOTES:
0000
0000
0000
0000
,
0000
0000
0000
0000
,
0000
0000
0000
0000
,
0000
0000
0000
0000
,
0000
0000
0000
0000
,
0002
0000
0000
0000
1003
0000
0010
0100
,
0000
0000
0001
0000
1000
0000
0000
1000
0000
0000
0000
0000
0200
0000
0000
0000
,
0310
0000
0001
0000
0010
0000
1000
0000
0010
0000
0000
0010
0000
0000
0020
0000
,
0000
0000
0031
1000
0020
0000
0030
0000
,
0100
0000
1000
0000
0100
0000
0001
0000
0100
0000
0000
0100
0000
0000
0200
0000
,
0000
0310
2000
0000
,
3001
0010
0100
0000
0010
0100
0001
0200
,
0000
0000
0310
0000
0001
0000
0000
0001
0000
0000
0000
0000
1000
0000
0000
0000
,
0010
0000
1000
0000
0010
0000
0001
0000
0010
0000
0000
0010
0000
0000
0010
0000
,
0000
0000
0000
0000
1000
0000
0000
0002
0000
0000
1003
0000
0100
0000
0010
0000
,
0001
1000
0010
0000
0100
0010
0001
0020
,
0000
0000
1030
0000
0001
0000
0000
0001
0000
0000
0000
0000
0010
0000
0100
0000
,
0010
0000
0001
0000
0010
0000
1000
0000
0010
0000
0000
0010
0000
0000
0020
0000
,
0000
0000
0031
0000
1000
0010
0001
0010
,
1000
1010
0000
0001
,
0011
0011
0000
0000
,
0020
0000
0032
0000
2003
0000
3010
0100
,
0002
0000
0000
1000
2003
0000
0000
0000
,
3001
0011
0000
1000
,
1010
1010
0010
0100
,
0001
0000
1000
0000
0000
0000
0100
0000
0010
0000
0000
0001
0000
0000
1000
0000
,
0020
0000
0000
0000
1030
0001
1000
0001
,
0020
0000
0230
0000
1300
0001
1000
0010
,
0200
0000
0320
0000
1030
0001
0010
0000
,
0200
0000
2300
0000
3002
0000
0103
0010
,
2000
0000
0000
0001
3002
0000
0000
0000
,
2003
0000
3200
0000
0310
0001
1000
0010
,
0200
0302
1000
1003
,
0001
0000
0010
0000
0000
0000
0100
0000
1000
0000
0000
0001
0000
0000
0100
0000
,
0010
0000
0000
0000
1000
0000
0000
0001
1000
0000
0100
0000
0010
0000
0001
0000
,
2000
0000
0000
0000
3001
0100
0010
2000
,
0000
0000
0000
0000
3001
1000
0100
0020
,
0000
0000
0130
0010
1000
0010
0001
2000
,
0000
0000
3010
1001
,
0002
0000
0000
0000
1003
0010
0100
0002
,
0000
0000
0000
0000
1003
0100
0010
0002
,
0000
0000
1003
0010
0000
0010
0100
0002
,
0000
2003
0000
0000
3100
0100
0010
0010
,
0001
1000
0010
0000
0100
0010
0001
0020
,
0000
0000
0130
0000
0001
0000
0000
0001
0000
0000
0000
0000
1000
0000
0100
0000
,
0010
0000
0001
0000
0010
0000
1000
0000
0010
0000
0000
0010
0000
0000
0020
0000
,
0000
0000
0031
1000
0010
0010
0010
0000
,
1000
0000
0000
1000
0001
0000
0000
0001
1000
0000
0000
0000
0100
0000
0020
0000
,
0000
0000
0031
0000
1000
0000
0000
1000
0000
0000
0000
0000
0001
0000
0100
0000
,
0010
0000
1000
0000
0010
0000
0001
0000
0010
0000
0000
0010
0000
0000
0020
0000
,
0000
0000
0130
0001
1000
1000
1001
0000
,
0001
0010
0001
1000
0010
0100
1000
0200
,
0000
0000
0310
0000
1000
0000
0000
1000
0001
0000
1000
0000
0100
0000
0000
0100
,
0010
0000
0001
0000
0010
0000
1000
0000
0010
0000
0000
0010
0000
0000
0020
0000
,
0000
0031
1000
0010
0200
0000
0300
0000
,
0001
1000
0000
0100
1000
0100
0001
0200
,
0000
0000
0310
0000
0001
0000
0000
0001
0000
0000
0000
0000
1000
0000
0010
0000
,
0100
0000
0100
0000
0010
0000
0010
0000
2000
0000
0000
3002
0000
0000
0023
0000
,
0000
0000
0130
1000
0001
0001
0001
0000
,
1000
0000
0010
0000
0110
0000
0000
0000
0200
0000
0000
0302
0000
0000
2003
0000
,
0000
0000
0100
0000
3001
0000
0000
1000
,
0000
0001
0100
1000
0100
0001
2000
0000
,
3002
0000
0100
0000
1003
0000
0000
1001
,
0000
0001
0010
0100
1000
1000
0001
0000
,
1000
0000
0010
0000
0001
0000
1000
0000
0200
0000
0000
0302
0000
0000
2003
0000
,
0000
0000
3000
0000
,
1001
0000
0000
0000
0001
0001
0000
0020
,
0000
0230
0000
2300
0000
0000
3001
0000
,
1000
0000
0000
0000
0010
0000
0000
0000
0100
0000
0000
0001
0000
0000
0200
0000
,
0000
0000
0310
1000
0001
1000
0100
0000
,
1000
0000
0000
0000
0001
0001
0000
0020
,
0000
0230
0000
2300
0000
0000
3001
0000
,
1000
0000
1000
0000
1000
0000
0000
0000
0020
0000
0000
0230
0000
0000
0302
0000
,
0000
0000
0000
0000
1003
0000
0000
0000
0001
0000
1000
0000
0001
1000
0001
0000
,
1000
0010
0100
0000
0010
0100
1000
0200
,
0000
0000
0301
0000
1000
0000
0000
1000
0100
0000
0010
0000
0001
0000
1000
0001
,
1000
0000
0010
0000
0001
0000
0010
0000
0100
0000
0000
0100
0000
0000
0200
0000
,
0000
0301
1000
0100
0020
0000
0030
0000
,
0001
1000
0000
0010
0100
0010
0001
0020
,
0000
0000
0130
0000
0001
0000
0000
0001
0000
0000
0000
0000
1000
0000
0100
0000
,
0010
0000
0010
0000
0001
0000
0001
0000
2000
0000
0000
3020
0000
0000
0230
0000
,
0000
0000
0301
0000
1000
0000
0100
0000
0010
0000
0001
0000
1000
0001
1000
0000
,
0010
0000
0100
0000
0101
0000
0000
0000
0002
0000
0000
2003
0000
0000
3200
0000
,
0000
0000
0310
0000
0001
0100
1000
0200
,
0000
0000
0310
0000
1000
0001
0000
1000
0000
0000
0000
0000
0001
0000
0010
0000
,
0100
0000
1000
0000
0100
0000
0001
0000
0100
0000
0000
0100
0000
0000
0100
0000
,
0010
0000
0010
0000
0001
0000
0001
0000
2000
0000
0000
3020
0000
0000
0230
0000
,
0000
0000
0301
0000
1000
0010
0001
0020
,
0000
0000
0130
0000
0001
1000
0000
0001
0000
0000
0000
0000
1000
0000
0100
0000
,
0010
0000
0001
0000
0010
0000
1000
0000
0010
0000
0000
0010
0000
0000
0020
0000
,
0000
0000
0000
0000
0031
0000
0000
0001
1000
0000
0000
1000
0010
0000
0000
0010
,
0200
0000
0000
0000
0301
1000
0000
0200
,
0000
0320
0000
0032
0000
0000
1003
0000
,
0010
0000
0000
0000
0010
0000
0000
0000
0100
0000
0000
0002
0000
0000
2000
0000
,
0000
0000
0000
0000
,
3003
0000
0000
0000
;

//---------------dance-single - ----------------
#NOTEDATA:;
#CHARTNAME:;
#STEPSTYPE:dance-single;
#DESCRIPTION:;
#CHARTSTYLE:;
#DIFFICULTY:Hard;
#METER:15;
#RADARVALUES:0.691322,0.911049,0.317207,0.686053,0.357780,656.000000,613.000000,43.000000,93.000000,0.000000,0.000000,0.000000,0.000000,0.000000,0.691322,0.911049,0.317207,0.686053,0.357780,656.000000,613.000000,43.000000,93.000000,0.000000,0.000000,0.000000,0.000000,0.000000;
#CREDIT:Kekkle;
#NOTES:
// measure 0
0000
0000
0000
0000
,  // measure 1
0000
0000
0000
0000
,  // measure 2
0000
0000
0000
0000
,  // measure 3
0000
0000
0000
0000
,  // measure 4
0000
0000
0000
0000
,  // measure 5
0001
2000
0000
3001
0010
0100
0001
0200
,  // measure 6
0000
0000
1300
0000
0001
0100
0000
0100
0000
0000
0000
0000
0010
0000
1000
0000
,  // measure 7
0001
0000
0010
0000
1000
0000
0010
0000
0001
0000
0000
0001
0000
0000
2000
0000
,  // measure 8
0010
0010
3010
0100
1000
0100
0001
0000
,  // measure 9
1000
0000
0100
0000
0001
0000
0100
0000
1000
0000
0000
1000
0000
0000
0002
0000
,  // measure 10
0000
0000
0000
0000
0000
0000
0000
0000
0103
0000
0010
0000
1000
0001
1000
0001
,  // measure 11
0010
0100
0010
0001
1000
0010
0001
0020
,  // measure 12
0000
0000
0130
0000
0001
1000
0000
2000
0000
0000
0000
0000
3100
0000
1000
0000
,  // measure 13
0001
0000
0100
0000
1000
0000
0100
0000
0001
0000
0000
0001
0000
0000
2000
0000
,  // measure 14
0000
0000
3100
0000
0010
0001
0000
2000
0000
0000
3010
0100
0001
0100
0001
0000
,  // measure 15
1000
0100
1000
0001
0100
0010
0001
0020
,  // measure 16
0000
0000
0130
0000
0001
1000
0000
2000
0000
0000
0000
0000
3010
0000
1000
0000
,  // measure 17
0001
0000
0010
0000
1000
0000
0010
0000
0001
0000
0000
0001
0000
0000
2000
0000
,  // measure 18
0000
0000
0000
0000
3010
0000
0100
0000
0001
1000
0000
0100
0010
0001
0010
0001
,  // measure 19
1000
0000
0102
0000
0000
1003
0001
0010
,  // measure 20
0011
2100
0000
3001
,  // measure 21
0020
0000
0130
1000
0002
0000
0103
0010
,  // measure 22
2000
0000
3001
0020
0200
0000
0330
0000
,  // measure 23
0011
0000
2100
0000
0000
3001
0100
0010
,  // measure 24
1010
0102
1000
0013
,  // measure 25
0200
0000
0010
0000
0000
0000
1300
0000
0001
0000
0000
0001
0000
0000
1000
0000
,  // measure 26
0001
0000
0100
0000
0010
0000
0100
0000
0001
1000
0001
1000
0001
1000
0001
1000
,  // measure 27
0100
0010
2000
0000
3010
0001
1000
0010
,  // measure 28
0100
0010
0002
0000
0013
0100
0001
1000
,  // measure 29
1200
0000
0001
0000
0310
0001
1000
0010
,  // measure 30
0200
0000
0310
1000
0002
0000
1003
0000
,  // measure 31
0001
0010
2000
0000
3010
0100
1000
0001
,  // measure 32
1000
0010
0002
0000
0023
0000
2030
0000
,  // measure 33
3001
0000
0010
0000
0100
0000
1000
0000
0001
0000
0000
0001
0000
0000
0100
0000
,  // measure 34
0010
0000
1000
0000
0001
0010
0000
0010
0001
0000
1000
0000
0010
0000
0000
0000
,  // measure 35
0110
0100
1000
0001
0010
2000
0001
3200
,  // measure 36
0000
0310
1000
0001
0100
2000
0001
3020
,  // measure 37
0000
0130
0001
0100
1000
0100
0010
2000
,  // measure 38
0000
3001
0100
0010
1010
1000
1001
0000
,  // measure 39
0011
0010
1000
0001
0100
2000
0001
3020
,  // measure 40
0000
0130
1000
0001
0010
2000
0001
3200
,  // measure 41
0000
0000
0310
1000
0010
0001
1000
0020
,  // measure 42
0000
0000
0130
0000
0001
0000
0001
0000
0001
0000
1000
0100
0010
0000
0010
0000
,  // measure 43
0001
1000
0010
0100
0001
0100
1000
0200
,  // measure 44
0000
0000
0301
0000
1000
0100
0000
0100
0000
0000
0010
0000
0100
0000
0010
0001
,  // measure 45
1000
0000
0010
0000
0001
0000
0010
0000
0200
0000
0000
1000
0000
0000
0302
0000
,  // measure 46
0000
0000
0000
1003
0000
0000
0100
0000
0001
0000
0100
0000
1000
0000
0000
0001
0000
0000
0100
0000
0000
0010
0000
0000
,  // measure 47
1000
0000
0000
1000
0001
0000
0000
0001
0010
0000
0100
0000
0001
0000
0200
0000
,  // measure 48
0000
0000
1300
0000
0001
0100
0000
0100
0000
0000
0010
0000
0100
0000
0001
0000
,  // measure 49
1000
0000
0100
0000
0001
0000
0100
0000
0020
0000
0000
0031
0000
0000
2001
0000
,  // measure 50
0000
0000
3010
0000
0100
0000
0001
0000
1000
0100
0010
0000
0110
0000
0000
0000
,  // measure 51
1000
0001
0100
0010
1000
0010
0001
0020
,  // measure 52
0000
0000
0130
0000
0001
1000
0000
1000
0100
0010
0001
0000
1000
0000
0001
1000
,  // measure 53
0001
0000
0100
0000
1000
0000
0100
0000
0020
0000
0000
0001
0000
0000
2030
0000
,  // measure 54
0000
3100
0010
0002
2000
0000
3003
0000
,  // measure 55
0001
1000
1000
0001
0100
0010
0001
0020
,  // measure 56
0000
0000
1030
0000
0001
0010
0000
0010
0000
0000
0100
0000
1000
0000
0001
0100
,  // measure 57
0010
0000
1000
0000
1010
0000
1001
0000
0011
0000
0000
0110
0000
0000
2001
0000
,  // measure 58
0000
0000
3100
0000
0010
0000
0001
0000
1000
0001
1000
0100
0010
0001
1000
0001
,  // measure 59
0100
0000
0110
0000
1001
0000
0000
0000
1100
0000
0000
1001
0000
0000
0201
0000
,  // measure 60
0000
0000
1000
0000
0301
1001
1000
0200
,  // measure 61
0000
0000
0001
0000
0301
0000
0100
1000
0001
1000
0010
0000
0110
0000
0000
0000
,  // measure 62
1020
0000
0000
0000
0001
0000
0000
0000
1030
0000
0000
1000
0000
0000
1002
0000
,  // measure 63
0000
0000
1003
0000
0100
0000
0120
0000
0000
0000
0031
1000
0010
0000
0100
0010
,  // measure 64
1000
0000
0010
0000
0001
0000
0010
0000
0200
0000
0000
0302
0000
0000
2000
0000
,  // measure 65
0000
0000
0000
3003
,  // measure 66
1001
0000
0000
0001
1000
1000
0000
0200
,  // measure 67
0000
0320
0000
0032
0000
1000
1003
0000
,  // measure 68
0020
0000
0000
0000
0130
0000
0000
0000
0001
0000
0000
0001
0000
0000
0001
0000
,  // measure 69
0000
0000
0000
1000
0000
0000
0010
0000
0100
0000
0001
0000
1000
0000
0000
0001
0000
0000
0010
0000
0000
0100
0000
0000
,  // measure 70
1000
0000
0001
0100
0010
0010
0000
2000
,  // measure 71
0000
3001
0010
0200
0000
1000
1300
0000
,  // measure 72
1001
0000
1001
0000
1001
0000
0000
0000
0002
0000
0000
0203
0000
0000
0020
0000
,  // measure 73
0000
0000
0000
0000
0330
0000
0000
0000
1000
0001
0100
0010
1000
0001
1000
0100
,  // measure 74
0010
0001
1000
0010
0100
0010
0001
0020
,  // measure 75
0000
0000
1030
0000
0001
0010
0000
0010
0001
1000
0010
0000
1000
0000
0010
1000
,  // measure 76
0001
0000
0010
0000
1000
0000
0010
0000
0200
0000
0000
0001
0000
0000
2300
0000
,  // measure 77
0000
0000
3010
0000
0100
0000
0001
0000
2000
0000
0000
0000
3100
0000
0010
0001
,  // measure 78
1000
0001
0001
0100
0010
0100
1000
0200
,  // measure 79
0000
0000
0301
0000
1000
0100
0000
0100
0000
0000
0010
0000
0001
0000
1000
0010
,  // measure 80
0100
0000
0001
0000
0101
0000
1001
0000
1100
0000
0000
0110
0000
0000
2001
0000
,  // measure 81
0000
0000
3010
0000
0100
0000
0001
0000
1000
0100
0010
0001
1000
0010
0100
0010
,  // measure 82
1000
0000
1001
0000
1010
0000
0000
0000
0110
0000
0000
0101
0000
0000
2001
0000
,  // measure 83
0000
3100
0010
0001
1000
0010
0001
0020
,  // measure 84
0000
0000
0130
0000
0001
1000
0000
2000
0000
0000
0001
0000
3100
0000
0010
0001
,  // measure 85
1000
0000
0010
0000
0001
0000
0010
0000
1000
0000
0000
1000
0000
0000
0001
0000
,  // measure 86
2000
0000
0100
0000
3002
0000
0100
0000
2003
0000
0000
3200
0000
0000
0310
0001
,  // measure 87
2000
0000
3001
0100
0010
0100
1000
0200
,  // measure 88
0000
0000
0310
0000
1000
0001
0000
0002
0000
0000
1000
0000
0013
0000
0001
0000
,  // measure 89
1000
0000
0010
0000
0001
0000
0010
0000
1000
0000
0000
1000
0000
0000
0002
0000
,  // measure 90
0000
0000
0013
0000
0100
0000
1000
0001
0100
0000
0010
1000
0100
0000
0010
0001
,  // measure 91
0100
0001
0001
1000
0100
0010
0000
0002
,  // measure 92
0000
1003
0010
0002
0000
0013
0200
0000
,  // measure 93
0302
0000
0000
0000
1000
0000
0000
0000
0023
0000
0000
0001
0000
0000
0200
0000
,  // measure 94
0000
0000
0000
0000
,  // measure 95
0330
0000
0000
0000
;

//---------------dance-double - ----------------
#NOTEDATA:;
#CHARTNAME:;
#STEPSTYPE:dance-double;
#DESCRIPTION:;
#CHARTSTYLE:;
#DIFFICULTY:Hard;
#METER:16;
#RADARVALUES:0.655492,0.805928,0.191800,0.752445,0.343027,622.000000,596.000000,26.000000,102.000000,0.000000,0.000000,0.000000,0.000000,0.000000,0.655492,0.805928,0.191800,0.752445,0.343027,622.000000,596.000000,26.000000,102.000000,0.000000,0.000000,0.000000,0.000000,0.000000;
#CREDIT:Kekkle;
#NOTES:
00000000
00000000
00000000
00000000
,
00000000
00000000
00000000
00000000
,
00000000
00000000
00000000
00000000
,
00000000
00000000
00000000
00000000
,
00000000
00000000
00000000
00000000
,
10000000
00200000
00000000
00310000
00001000
00000100
00000010
00020000
,
00000000
00000000
00030100
00000000
00000010
00000001
00000000
00000001
00000000
00000000
00000000
00000000
00001000
00000000
00000010
00000000
,
00000100
00000000
00001000
00000000
00010000
00000000
00100000
00000000
01000000
00000000
00000000
01000000
00000000
00000000
00020000
00000000
,
10000000
10000000
10030000
01000000
00010000
00001000
00010000
00000000
,
01000000
00000000
00010000
00000000
00001000
00000000
00000010
00000000
00000100
00000000
00000000
00000100
00000000
00000000
00002000
00000000
,
00000001
00000000
00000000
00000000
00003001
00000000
00000000
00000000
00000100
00000000
00001000
00000000
00010000
00001000
00010000
00001000
,
00010000
00100000
10000000
00000000
00010000
00100000
10000000
00200000
,
00000000
00000000
00301000
00000000
00010000
00001000
00000000
00002000
00000000
00000000
00000000
00000000
00003100
00000000
00000001
00000000
,
00001000
00000000
00000100
00000000
00000001
00000000
00000100
00000000
00001000
00000000
00000000
00001000
00000000
00000000
00000002
00000000
,
00000000
00000000
00000103
00000000
00001000
00010000
00000000
00020000
00000000
00000000
00031000
00100000
00001000
00100000
00001000
00000000
,
00010000
01000000
10000000
00000000
00010000
01000000
10000000
02000000
,
00000000
00000000
03001000
00000000
00010000
00001000
00000000
00002000
00000000
00000000
00000000
00000000
00003010
00000000
00000001
00000000
,
00001000
00000000
00000010
00000000
00000001
00000000
00000010
00000000
00001000
00000000
00000000
00001000
00000000
00000000
00000002
00000000
,
00000000
00000000
00000013
00000000
00001000
00000000
00010000
00000000
00000010
00001000
00000000
00000010
00010000
00001000
00010000
00001000
,
00100000
00000000
00201000
00000000
00000000
00301000
00010000
00000100
,
00010100
02001000
00000000
03100000
,
20000000
00000000
30010000
00100000
02000000
00000000
03010000
00001000
,
00000020
00000000
00001030
00020000
00002000
00000000
00033000
00000000
,
00101000
00000000
00010020
00000000
00000000
00010030
00001000
01000000
,
01001000
00010200
00001000
00000310
,
00000001
00000000
00001000
00000000
00000000
00000000
00000010
00000000
00000100
00000000
00000000
00001000
00000000
00000000
00010000
00000000
,
00001000
00000000
00100000
00000000
01000000
00000000
10000000
00000000
00010000
10000000
00010000
10000000
00010000
10000000
00010000
10000000
,
00100000
00010000
00002000
00000000
00013000
00100000
10000000
00010000
,
10000000
01000000
00020000
00000000
00031000
00000010
00000001
00000000
,
00002000
00000000
00003010
00000100
00002000
00000000
00013000
00100000
,
02000000
00000000
03100000
00010000
00002000
00000000
00013000
00000000
,
01000000
00010000
00002000
00000000
00013000
01000000
10000000
00010000
,
10000000
00100000
00020000
00000000
00032000
00000000
00003200
00000000
,
00000301
00000000
00001000
00000000
00000100
00000000
00000010
00000000
00001000
00000000
00000000
00010000
00000000
00000000
01000000
00000000
,
00100000
00000000
00010000
00000000
10000000
00010000
00000000
00010000
00100000
00000000
00001000
00000000
00010000
00000000
00000000
00000000
,
00011000
00001000
00000100
00000001
00001000
00000200
00000010
00010300
,
00001000
00010000
01000000
10000000
00010000
02000000
00100000
03001000
,
00010000
00001000
00000100
00000001
00001000
00000100
00000010
00002000
,
00000000
00013000
01000000
10000000
00010000
00100000
00001000
00000000
,
00011000
00010000
00100000
10000000
00010000
00200000
01000000
00301000
,
00010000
00001000
00000010
00000001
00001000
00000020
00000100
00020030
,
00000000
00000000
00031000
00100000
01000000
00100000
00010000
20000000
,
00000000
00000000
30100000
00000000
00010000
00000000
00001000
00000000
00000100
00000000
00000100
00000010
00010000
00000000
00010000
00000000
,
00001000
00000010
00000002
00000000
00001003
00000010
00000001
00000020
,
00000000
00000000
00010030
00000000
00001000
00010000
00000000
00020000
00000000
00000000
00000000
00000000
01030000
00000000
10000000
00000000
,
00010000
00000000
01000000
00000000
10000000
00000000
01000000
00000000
00200000
00000000
00000000
00010000
00000000
00000000
20300000
00000000
,
00000000
00000000
00000000
30010000
00000000
00000000
00100000
00000000
01000000
00000000
00010000
00000000
00001000
00000000
00000000
00100000
00000000
00000000
00001000
00000000
00000000
00000000
00000000
00000000
,
00010000
00000000
00000000
00010000
00001000
00000000
00000000
00001000
00000010
00000000
00000100
00000000
00000001
00000000
00000200
00000000
,
00000000
00000000
00010300
00000000
00001000
00010000
00000000
00020000
00000000
00000000
00000000
00000000
00130000
00000000
10000000
00000000
,
00010000
00000000
00100000
00000000
10000000
00000000
00100000
00000000
02000000
00000000
00000000
03010000
00000000
00000000
00012000
00000000
,
00000000
00000000
00000000
00000000
00003100
00000000
00000001
00000000
00001000
00000100
00000010
00000000
00001001
00000000
00000000
00000000
,
00000001
00000100
00002000
00000000
00013000
00100000
10000000
00200000
,
00000000
00000000
01300000
00000000
00010000
10000000
00000000
10000000
01000000
00100000
00010000
00000000
00100000
00000000
00001000
00010000
,
00001000
00000000
00000100
00000000
00000001
00000000
00000100
00000000
00000020
00000000
00000000
00000001
00000000
00000000
00002030
00000000
,
00000000
00003001
00000010
00002000
00020000
00000000
00033000
00000000
,
00001000
00020000
00000000
00130000
10000000
00100000
00010000
00200000
,
00000000
00000000
01300000
00000000
00010000
10000000
00000000
20000000
00000000
00000000
00000000
00000000
31000000
00000000
00010000
00000000
,
00001000
00000000
00000010
00000000
00001000
00000000
00100000
00000000
00002000
00000000
00000000
00003020
00000000
00000000
00000032
00000000
,
00000000
00000000
00001003
00000000
00000010
00000000
00000100
00000000
00001000
00010000
00001000
00010000
00000010
00010000
00000010
00010000
,
00001000
00000000
00101000
00000000
00011000
00000000
00000000
00000000
00002000
00000000
00000000
00023000
00000000
00000000
00230000
00000000
,
00000000
00000000
00010000
00000000
10300000
10010000
00000000
00020000
,
00000000
00000000
00130000
00000000
00001000
00000000
00010000
00000100
00001000
00000100
00000010
00000000
00000110
00000000
00000000
00000000
,
00000200
00000000
00000000
00000000
00000001
00000000
00000000
00000000
00001300
00000000
00000000
00001000
00000000
00000000
00001002
00000000
,
00000000
00000000
00000103
00000000
00001000
00000000
00010000
00000000
00000010
00000000
00010000
00001000
00100000
00000000
00010000
10000000
,
00100000
00000000
01000000
00000000
10000000
00000000
01000000
00000000
00200000
00000000
00000000
00320000
00000000
00000000
00002000
00000000
,
00000000
00000000
00000000
00033000
,
00011000
00000000
00000000
00001000
00000100
00000100
00000000
00000002
,
00000000
00001003
00000100
00000020
00000000
00001030
00020000
00000000
,
00031000
00000000
00000000
00000000
00001000
00000000
00000000
00000000
01000000
00000000
00000000
00100000
00000000
00000000
20000000
00000000
,
00000000
00000000
00000000
30010000
00000000
00000000
00100000
00000000
01000000
00000000
10000000
00000000
00010000
00000000
00000000
00100000
00000000
00000000
00002000
00000000
00000000
00000000
00000000
00000000
,
00013000
00000000
00000000
00100000
01000000
01000000
00000000
00020000
,
00000000
10030000
01000000
00020000
00000000
00031000
00200000
00000000
,
00301000
00000000
00010000
00000000
00011000
00000000
00000000
00000000
00010010
00000000
00000000
00000110
00000000
00000000
00002001
00000000
,
00000000
00000000
00000000
00000000
00003010
00000000
00000000
00000000
00000100
00000001
00001000
00000100
00010000
00001000
00100000
00001000
,
00010000
01000000
10000000
00000000
00010000
01000000
10000000
02000000
,
00000000
00000000
03010000
00000000
10000000
01000000
00000000
01000000
00100000
00001000
00010000
00000000
00001000
00000000
00010000
00000010
,
00000100
00000000
00001000
00000000
00010000
00000000
00001000
00000000
00000200
00000000
00000000
00000302
00000000
00000000
00002003
00000000
,
00000000
00003100
00000010
00002000
00020000
00000000
00033000
00000000
,
00001000
00020000
00000000
01030000
10000000
01000000
00010000
02000000
,
00000000
00000000
13000000
00000000
00010000
01000000
00000000
01000000
00000000
00000000
00000000
00000000
00001000
00000000
00100000
00001000
,
00010000
00000000
00100000
00000000
00001000
00000000
00000010
00000000
00000200
00000000
00000000
00000302
00000000
00000000
00002003
00000000
,
00000000
00000000
00003100
00000000
00000010
00000000
00001000
00000000
00010000
00000010
00010000
00001000
00100000
00010000
10000000
00100000
,
01000000
00000000
01001000
00000000
00011000
00000000
00000000
00000000
00010100
00000000
00000000
00000110
00000000
00000000
00002001
00000000
,
00000000
00003010
00000100
00000001
00001000
00000100
00000001
00000200
,
00000000
00000000
00001300
00000000
00000001
00000100
00000000
00000200
00000000
00000000
00000010
00000000
00001300
00000000
00010000
00000000
,
00100000
00000000
01000000
00000000
10000000
00000000
01000000
00000000
00010000
00000000
00000000
00010000
00000000
00000000
10000000
00000000
,
01000000
00000000
00010000
00000000
00001000
00000000
00000100
00000000
00001000
00000000
00000000
00001000
00000000
00000000
00010000
00000010
,
00000200
00000000
00000310
00001000
00000001
00000010
00001000
00000020
,
00000000
00000000
00000031
00000000
00001000
00000010
00000000
00000020
00000000
00000000
00000001
00000000
00000130
00000000
00001000
00000000
,
00010000
00000000
00100000
00000000
10000000
00000000
00100000
00000000
00010000
00000000
00000000
00010000
00000000
00000000
00002000
00000000
,
00000000
00000000
00000000
00000000
00103000
00000000
00001000
00010000
00000100
00000000
00000010
00000001
00000100
00000000
00000010
00000100
,
00002000
00000000
00000000
00013000
00100000
00100000
00000000
20000000
,
00000000
30010000
00100000
02000000
00000000
03010000
00002000
00000000
,
00023000
00000000
00000000
00000000
00100000
00000000
00000000
00000000
00032000
00000000
00000000
00003200
00000000
00000000
00000020
00000000
,
00000000
00000000
00000000
00000000
,
00000330
00000000
00000000
00000000
;

//---------------dance-double - ----------------
#NOTEDATA:;
#CHARTNAME:;
#STEPSTYPE:dance-double;
#DESCRIPTION:;
#CHARTSTYLE:;
#DIFFICULTY:Medium;
#METER:13;
#RADARVALUES:0.518492,0.630726,0.088523,0.627038,0.165981,492.000000,480.000000,12.000000,85.000000,0.000000,0.000000,0.000000,0.000000,0.000000,0.518492,0.630726,0.088523,0.627038,0.165981,492.000000,480.000000,12.000000,85.000000,0.000000,0.000000,0.000000,0.000000,0.000000;
#CREDIT:Kekkle;
#NOTES:
00000000
00000000
00000000
00000000
,
00000000
00000000
00000000
00000000
,
00000000
00000000
00000000
00000000
,
00000000
00000000
00000000
00000000
,
00000000
00000000
00000000
00000000
,
00000002
00000000
00000000
00000000
00001003
00000000
00000001
00000200
,
00000000
00000000
00000310
00000000
00010000
00000000
00000000
00010000
00000000
00000000
00000000
00000000
00001000
00000000
00000000
00000000
,
00100000
00000000
00010000
00000000
10000000
00000000
00010000
00000000
01000000
00000000
00000000
01000000
00000000
00000000
02000000
00000000
,
00000000
00000000
03010000
10000000
01000000
00000000
00100000
00000000
,
00001000
00000000
00010000
00000000
00000010
00000000
00010000
00000000
00001000
00000000
00000000
00001000
00000000
00000000
00002000
00000000
,
00000000
00013000
00000200
00000000
,
00000310
00000001
00001000
00000000
00000010
00000000
00000100
00002000
,
00000000
00000000
00013000
00000000
00100000
00000000
00000000
00100000
00000000
00000000
00000000
00000000
10000000
00000000
00000000
00000000
,
00010000
00000000
00100000
00000000
00001000
00000000
00100000
00000000
00010000
00000000
00000000
00010000
00000000
00000000
00020000
00000000
,
00000000
00000000
00000000
00000000
10030000
00000000
00000000
00100000
00000000
00000000
01000000
00000000
00001000
00000000
00010000
00000000
,
00000100
00001000
00000001
00000000
00000100
00000000
00000010
00020000
,
00000000
00000000
00031000
00000000
00100000
00000000
00000000
00100000
00000000
00000000
00000000
00000000
00001000
00000000
00010000
00000000
,
00100000
00000000
10000000
00000000
00010000
00000000
10000000
00000000
01000000
00000000
00000000
01000000
00000000
00000000
02000000
00000000
,
00000000
00000000
03010000
00000000
00001000
00001000
00010000
00010000
,
00000010
00000000
00011000
00000000
00000000
00010000
00001000
00000000
,
00100000
00011000
00000000
00000000
,
00020000
00000000
00030200
00000000
00000320
00000000
00000031
00001000
,
00000020
00000000
00000000
00010000
00020030
00000000
00000000
00000000
,
00030100
00000000
00011000
00000000
00000000
00010000
00001000
00000000
,
01000000
00011000
00010000
00000100
,
00000010
00000000
00000001
00000000
00000000
00000000
00001000
00000000
00000010
00000000
00000000
00000100
00000000
00000000
00001000
00000000
,
00020000
00000000
00000000
00000000
00031000
00100000
00001000
00100000
,
00010000
10000000
00200000
00000000
10300000
00010000
10000000
00010000
,
00100000
00001000
00020000
00000000
00030010
00001000
00000001
00000000
,
00000200
00000000
00000310
00010000
00002000
00000000
00103000
00001000
,
00020000
00000000
00030010
00010000
00002000
00000000
00003000
00000000
,
00010000
00001000
00200000
00000000
00310000
10000000
00100000
01000000
,
00001000
00100000
00020000
00000000
02030000
00000000
03002000
00000000
,
00013000
00000000
00000100
00000000
00000010
00000000
00000001
00000000
00001000
00000000
00000000
00000010
00000000
00000000
00010000
00000000
,
00000010
00000000
00001000
00000000
00000100
00000000
00000000
00000100
00010000
00000000
00001000
00000000
01000000
00000000
00000000
00000000
,
00200000
00000000
00000000
00000000
10300000
00010000
00100000
00002000
,
00000000
00000000
00000000
00000000
00013000
00000010
00000100
00000002
,
00000000
00000000
00001003
00000100
00000010
00001000
00010000
00000020
,
00000000
00000000
00010030
00011000
,
00002000
00000000
00000000
00000000
00013000
01000000
10000000
00200000
,
00000000
00000000
00000000
00000000
00310000
00001000
00000100
00000002
,
00000000
00000000
00001003
00000200
00000000
00000310
00000001
00002000
,
00000000
00003020
00000000
00000000
00010030
00010000
00001000
00001000
,
01000000
00100000
20000000
00000000
30010000
00100000
10000000
00200000
,
00000000
00000000
00310000
00000000
10000000
00000000
00000000
10000000
00000000
00000000
00000000
00000000
00100000
00000000
01000000
00000000
,
00100000
00000000
00010000
00000000
00001000
00000000
00000100
00000000
00000010
00000000
00000000
00000010
00000000
00000000
00000020
00000000
,
00000000
00000000
00001030
00000001
00000010
00000010
00000010
00000000
,
00000100
00000000
00000000
00000100
00010000
00000000
00000000
00010000
00000100
00000000
00000000
00000000
00010000
00000000
00002000
00000000
,
00000000
00000000
00013000
00000000
00100000
00000000
00000000
00100000
00000000
00000000
00000000
00000000
10000000
00000000
00010000
00000000
,
00100000
00000000
01000000
00000000
00010000
00000000
01000000
00000000
00100000
00000000
00000000
00100000
00000000
00000000
00200000
00000000
,
00000000
00000000
00301000
00010000
00000010
00000010
00000110
00000000
,
00000100
00000001
00001000
00000100
00001000
00000010
00010000
00002000
,
00000000
00000000
00013000
00000000
01000000
00000000
00000000
01000000
10000000
00000000
00010000
00000000
01000000
00000000
00000000
01000000
,
00100000
00000000
00010000
00000000
00001000
00000000
00100000
00000000
00001000
00000000
00000000
00001000
00000000
00000000
00002000
00000000
,
00000000
00013000
00000100
00000010
00000002
00000000
00000003
00000000
,
00001000
00000010
00000000
00000100
00000001
00000100
00001000
00020000
,
00000000
00000000
00030100
00000000
00001000
00000000
00000000
00001000
00000000
00000000
00000000
00000000
00000100
00000000
00010000
00000000
,
00001000
00000000
00001000
00000000
01000000
00000000
01000000
00000000
00200000
00000000
00000000
20300000
00000000
00000000
30020000
00000000
,
00000000
00130000
01000000
00010000
00001000
00000100
00000010
00000000
,
00001000
00000000
00000001
00000000
00001001
00000000
00000000
00000000
00002000
00000000
00000000
00003020
00000000
00000000
00020030
00000000
,
00000000
00000000
00001000
00000000
00030010
00000000
00000000
00011000
,
00000000
00001000
00010000
00100000
10000000
00010000
00200000
00000000
,
00302000
00000000
00010000
00000000
00103000
00000000
00000000
00011000
,
00000000
00001000
00000100
00000001
00001000
00001000
00001000
00000000
,
00000100
00000000
00000010
00000000
00000001
00000000
00001000
00000000
00000020
00000000
00000000
00020030
00000000
00000000
00002000
00000000
,
00000000
00000000
00033000
00000000
,
00011000
00000000
00000000
00000000
00001000
00001000
00000000
02000000
,
00000000
03200000
00000000
20300000
00000000
00000000
30010000
00000000
,
10000000
00000000
00000000
00000000
01000000
00000000
00000000
00000000
00100000
00000000
00000000
00001000
00000000
00000000
00020000
00000000
,
00000000
00000000
00031000
00100000
00010000
00100000
00001000
00000000
,
00011000
00000000
00000000
00000000
00010000
00010000
00000000
00000200
,
00000000
00000320
00000000
00000032
00000000
00000000
00001003
00000000
,
00000001
00000000
00000001
00000000
00000001
00000000
00000000
00000000
00000200
00000000
00000000
00002300
00000000
00000000
00023000
00000000
,
00000000
00000000
00000000
00000000
00031000
00000000
00000000
00000000
00100000
00000000
00010000
00000000
10000000
00010000
10000000
00000000
,
00010000
01000000
00100000
00000000
10000000
00100000
00010000
00200000
,
00000000
00000000
01300000
00000000
00001000
00000000
00000000
00001000
00010000
00000000
00000100
00000000
00000010
00000000
00000001
00001000
,
00000001
00000000
00000100
00000000
00000010
00000000
00010000
00000000
00001000
00000000
00000000
00001000
00000000
00000000
00002000
00000000
,
00000000
00013000
01000000
10000000
00020000
00000000
00030000
00000000
,
01000000
00100000
00000000
10000000
00010000
01000000
10000000
02000000
,
00000000
00000000
03001000
00000000
00010000
00000000
00000000
00010000
00000000
00000000
00000000
00000000
00000100
00000000
00000010
00000000
,
00000001
00000000
00000001
00000000
00001000
00000000
00001000
00000000
00000020
00000000
00000000
00000230
00000000
00000000
00002300
00000000
,
00000000
00000000
00013000
00000000
00100000
00000000
10000000
00000000
00010000
00000000
00010000
00000000
10000000
00010000
10000000
00010000
,
10000000
00000000
00010000
00000000
10010000
00000000
00000000
00000000
20000000
00000000
00000000
32000000
00000000
00000000
03020000
00000000
,
00000000
00000000
00031000
00100000
00001000
00010000
00000010
00000200
,
00000000
00000000
00000301
00000000
00001000
00000001
00000000
00001000
00000000
00000000
00000000
00000000
00000010
00000000
00000100
00000000
,
00001000
00000000
00010000
00000000
00100000
00000000
00010000
00000000
00001000
00000000
00000000
00001000
00000000
00000000
00001000
00000000
,
00100000
00000000
00010000
00000000
00100000
00000000
10000000
00000000
00100000
00000000
00000000
00100000
00000000
00000000
00200000
00000000
,
00000000
00000000
00301000
00010000
00000010
00000100
00001000
00000200
,
00000000
00000000
00000301
00000000
00001000
00000001
00000000
00001000
00000000
00000000
00000000
00000000
00000010
00000000
00010000
00000000
,
00001000
00000000
00010000
00000000
01000000
00000000
00010000
00000000
00001000
00000000
00000000
00001000
00000000
00000000
00002000
00000000
,
00000000
00000000
00000000
00000000
01003000
00000000
00000000
00000000
00100000
00000000
00000000
00100000
10000000
00000000
00000000
10000000
,
00020000
00000000
00000000
00000000
00130000
00001000
00000000
00020000
,
00000000
00030020
00000000
00000230
00000000
00000000
00000301
00000000
,
00001000
00000000
00000000
00000000
00001000
00000000
00000000
00000000
00000100
00000000
00000000
00020000
00000000
00000000
00002000
00000000
,
00000000
00000000
00000000
00000000
,
00033000
00000000
00000000
00000000
;

//---------------dance-single - ----------------
#NOTEDATA:;
#CHARTNAME:;
#STEPSTYPE:dance-single;
#DESCRIPTION:;
#CHARTSTYLE:;
#DIFFICULTY:Easy;
#METER:9;
#RADARVALUES:0.326692,0.420484,0.088523,0.317207,0.000000,310.000000,298.000000,12.000000,43.000000,0.000000,0.000000,0.000000,0.000000,0.000000,0.326692,0.420484,0.088523,0.317207,0.000000,310.000000,298.000000,12.000000,43.000000,0.000000,0.000000,0.000000,0.000000,0.000000;
#CREDIT:Kekkle;
#NOTES:
0000
0000
0000
0000
,
0000
0000
0000
0000
,
0000
0000
0000
0000
,
0000
0000
0000
0000
,
0000
0000
0000
0000
,
0002
0000
1003
0000
,
0010
0100
0001
0000
,
1000
0001
1000
0000
0001
0000
0001
0000
,
0020
0000
0130
0000
,
1000
0001
1000
0000
0010
0000
0010
0000
,
0200
0000
0000
0000
,
0301
0001
1000
0001
,
0010
0100
0010
0000
0200
0000
0000
0000
,
1300
0001
1000
1000
,
0020
0000
0130
0100
,
0001
0001
0100
0010
,
1000
0001
1000
0000
0002
0000
0000
0000
,
0013
0010
1000
0010
,
0002
0000
1000
1003
,
0110
0110
0000
0000
,
1001
1001
0000
0000
,
0002
0000
0203
0000
,
0320
0000
1030
0000
,
0110
0110
0000
0000
,
1001
1001
0000
0000
,
2000
0000
3200
0000
,
0320
0000
0031
0001
,
2000
3010
0001
0010
,
2000
3100
0001
0100
,
1000
0000
1000
0000
0001
0000
1000
0001
,
1000
0001
1001
0000
,
0002
0103
1000
0100
,
0002
0013
1000
0010
,
0001
0001
1000
1000
,
0020
0000
0130
0000
,
1001
0000
0001
0010
,
0200
0000
1300
0010
,
0100
0010
0001
0010
,
2000
0000
3001
0000
,
1001
0000
1000
0100
,
0020
0000
0031
0100
,
0020
0000
1030
0001
,
1000
0000
1000
0000
0001
1000
0001
0000
,
1000
1000
0100
0010
,
0001
1000
0001
0000
2000
0000
0000
0000
,
3010
0100
0001
0001
,
2000
0000
0001
3001
,
1000
1000
1000
0100
,
0010
0100
0010
0000
0200
0000
0000
0000
,
0310
0010
1000
0010
,
0002
1000
0000
1003
,
0001
0001
0100
0010
,
1000
0001
1000
0000
0001
1000
0001
0000
,
1000
0010
0100
0100
,
0002
0000
1003
0000
,
0001
0000
0010
0100
,
1000
0001
1000
0000
0001
0000
1000
0000
,
0010
0100
0010
0100
0010
0000
0000
0000
,
2000
0000
3001
0000
,
1000
0001
1000
0000
0001
0000
0100
0000
,
0020
0000
1000
0000
,
1030
0001
0010
0010
,
0200
0000
0010
0000
,
1300
0000
0001
0000
1000
0001
1000
0000
,
0020
0000
0100
0000
,
0200
0000
0330
0000
,
1001
0000
0000
0000
,
0001
0100
0100
0000
,
0020
0000
2030
0000
,
3002
0000
1003
0000
,
0001
0000
0000
0000
,
1000
0100
0100
0000
,
1000
0001
1000
0000
0001
0000
0001
0000
,
0200
0000
0010
0310
,
1000
1000
0100
0001
,
0100
0010
0100
0000
0010
0100
0010
0000
,
0001
1000
0010
0010
,
0200
0000
0310
0000
,
1000
0100
0001
0100
,
0010
0100
0010
0000
0100
0000
1000
0000
,
0001
1000
0001
1000
0001
0000
0000
0000
,
0200
0000
0310
0000
,
1000
0001
1000
0000
0100
0000
0010
0000
,
0002
0000
1003
0001
,
0100
0010
0100
0000
0020
0000
0000
0000
,
1030
0001
0010
0010
,
1000
0010
0001
0100
,
0010
0010
0100
0001
,
1000
0001
1000
0000
0002
0000
0000
0000
,
0013
0100
1000
1000
,
0002
0000
1003
1000
,
0010
0000
0100
0000
,
0001
0001
1000
0000
,
0100
0000
0000
0000
0010
0000
0000
0200
,
0000
0000
0000
0000
,
0300
0000
0000
0000
;

//---------------dance-double - ----------------
#NOTEDATA:;
#CHARTNAME:;
#STEPSTYPE:dance-double;
#DESCRIPTION:;
#CHARTSTYLE:;
#DIFFICULTY:Easy;
#METER:9;
#RADARVALUES:0.327746,0.420484,0.066392,0.309830,0.000000,311.000000,302.000000,9.000000,42.000000,0.000000,0.000000,0.000000,0.000000,0.000000,0.327746,0.420484,0.066392,0.309830,0.000000,311.000000,302.000000,9.000000,42.000000,0.000000,0.000000,0.000000,0.000000,0.000000;
#CREDIT:Kekkle;
#NOTES:
00000000
00000000
00000000
00000000
,
00000000
00000000
00000000
00000000
,
00000000
00000000
00000000
00000000
,
00000000
00000000
00000000
00000000
,
00000000
00000000
00000000
00000000
,
20000000
00000000
30010000
00000000
,
00100000
00100000
00001000
00000000
,
00010000
00001000
00010000
00000000
00001000
00000000
00001000
00000000
,
00000200
00000000
00000301
00000000
,
00001000
00000001
00001000
00000000
00000100
00000000
00000100
00000000
,
00020000
00000000
00000000
00000000
,
00031000
00001000
00010000
00100000
,
10000000
00010000
10000000
00000000
00020000
00000000
00000000
00000000
,
10030000
01000000
00010000
00010000
,
00002000
00000000
00010000
00013000
,
00001000
00001000
00000100
00000001
,
00001000
00000001
00001000
00000000
00000200
00000000
00000000
00000000
,
00000310
00000010
00001000
00010000
,
00000020
00000000
00010030
00010000
,
00011000
00011000
00001000
01000000
,
01100000
01100000
00000000
00000000
,
20000000
00000000
30200000
00000000
,
00320000
00000000
00031000
00000000
,
00011000
00011000
00010000
00000100
,
00000110
00000110
00000000
00000000
,
00000002
00000000
00000023
00000000
,
00002030
00000000
00013000
00010000
,
00001000
00001000
00010000
00100000
,
10000000
10000000
01000000
00010000
,
00002000
00000000
00003020
00000000
,
00000032
00001000
00001003
00000000
,
00000001
00000001
00000100
00001000
,
00010000
00010000
00001000
00001000
,
00010000
01000000
10000000
10000000
,
00010000
00000000
01000000
00000000
00100000
01000000
00100000
00000000
,
20000000
00000000
30010000
00100000
,
00002000
00000000
00013000
00000010
,
00000100
00001000
00010000
00000100
,
00000020
00000000
00000001
00000031
,
00002000
00000000
00003010
00010000
,
00002000
00000000
00103000
01000000
,
20000000
00000000
30010000
00000000
,
01000000
00000000
00001000
00000000
00010000
00001000
00010000
00000000
,
00001000
00001000
00000010
00000001
,
00001000
00000001
00001000
00000000
00000020
00000000
00000000
00000000
,
00000130
00001000
00010000
00010000
,
00000200
00000000
00010000
00010300
,
00001000
00001000
00001000
00010000
,
00100000
01000000
00100000
00000000
02000000
00000000
00000000
00000000
,
03100000
00100000
00010000
00001000
,
00200000
00001000
00000000
00301000
,
00010000
00000100
00001000
00000100
,
00000010
00000100
00000010
00000000
00000100
00000010
00000100
00000000
,
00001000
00000001
00000100
00000100
,
00002000
00000000
00013000
00000000
,
00001000
00001000
00010000
00100000
,
01000000
00100000
01000000
00000000
00002000
00000000
00000000
00000000
,
00103000
01000000
00100000
01000000
00100000
00000000
00000000
00000000
,
00020000
00000000
10030000
00000000
,
00100000
01000000
00100000
00000000
01000000
00000000
00001000
00000000
,
00020000
00000000
00030100
00000000
,
00000010
00000001
00001000
00001000
,
00000020
00000000
00010030
00000000
,
00001000
00000000
00100000
00000000
00010000
10000000
00010000
00000000
,
10000000
00100000
00010000
00002000
,
00020000
00000000
00033000
00000000
,
00011000
00000000
00000000
00000000
,
00010000
00000100
00000100
00000000
,
00000010
00000001
00001000
00001000
,
00000010
00000100
00001000
00001000
,
00010000
00000000
00000000
00000000
,
00100000
01000000
01000000
00000000
,
00010000
10000000
00010000
00000000
10000000
00000000
10000000
00000000
,
02000000
00000000
03010000
00010000
,
00001000
00001000
00000010
00000001
,
00001000
00000001
00001000
00000000
00000001
00001000
00000001
00000000
,
00000100
00000010
00010000
00010000
,
00002000
00000000
00013000
00000000
,
00001000
00010000
00001000
00100000
,
01000000
00100000
01000000
00000000
00200000
00000000
00000000
00000000
,
00310000
10000000
00010000
10000000
00010000
00000000
00000000
00000000
,
02000000
00000000
03001000
00000000
,
00010000
00001000
00010000
00000000
00000100
00000000
00000010
00000000
,
00000200
00000000
00001300
00000000
,
00000001
00000100
00001000
00000000
,
00020000
00000000
00031000
00000000
,
00010000
00001000
00010000
00000000
00100000
00000000
10000000
00000000
,
00020000
00000000
00130000
00000000
,
00001000
00010000
00000010
00000000
,
00001000
00000001
00001000
00000000
00000010
00000000
00010000
00000000
,
00002000
00000000
00013000
00000000
,
00001000
00000000
01000000
00000000
,
00100000
00100000
10000000
00000000
,
00010000
00000000
00100000
00000000
00001000
00000000
00000000
00020000
,
00000000
00000000
00000000
00000000
,
00030000
00000000
00000000
00000000
;

//---------------dance-single - ----------------
#NOTEDATA:;
#CHARTNAME:;
#STEPSTYPE:dance-single;
#DESCRIPTION:;
#CHARTSTYLE:;
#DIFFICULTY:Beginner;
#METER:5;
#RADARVALUES:0.193908,0.245282,0.022131,0.191800,0.000000,184.000000,181.000000,3.000000,26.000000,0.000000,0.000000,0.000000,0.000000,0.000000,0.193908,0.245282,0.022131,0.191800,0.000000,184.000000,181.000000,3.000000,26.000000,0.000000,0.000000,0.000000,0.000000,0.000000;
#CREDIT:Kekkle;
#NOTES:
0000
0000
0000
0000
,
0000
0000
0000
0000
,
0000
0000
0000
0000
,
0000
0000
0000
0000
,
0000
0000
0000
0000
,
0001
0000
0000
0000
,
1000
0000
0010
0000
,
0100
0000
0100
0000
,
0020
0000
0030
0000
,
1000
0000
1000
0000
,
0002
0000
0003
0000
,
1001
0000
0001
0000
,
1000
0001
1000
0000
,
0010
0000
0100
0000
,
0001
0000
0001
0000
,
1000
0000
0100
0000
,
0010
0100
0010
0000
,
0001
0000
1000
0000
,
0020
0000
0000
0000
,
0130
0100
0000
0000
,
0010
0010
0000
0000
,
1000
0000
0001
0000
,
1000
0000
1000
0000
,
0100
0100
0000
0000
,
0010
0010
0000
0000
,
0001
0000
1000
0000
,
0002
0000
0000
0000
,
1003
1000
0001
0000
,
0001
0001
1000
0000
,
0010
0000
0100
0000
,
0001
0000
0001
0000
,
1000
1000
0001
0000
,
0001
0001
1000
0000
,
0100
0000
0010
0000
,
0002
0000
0003
0000
,
2000
0000
3010
0000
,
0002
0000
0013
0000
,
2000
0000
3010
0000
,
0002
0000
0013
0010
,
2000
0000
3100
0000
,
0002
0000
0103
0000
,
1000
0000
0001
0000
,
0100
0100
0100
0000
,
1001
0000
1000
0000
,
0001
1000
0001
0000
,
0010
0000
0100
0000
,
2000
0000
3001
0000
,
1000
1000
1000
0000
,
0001
0000
0100
0000
,
0010
0100
0010
0000
,
0200
0000
0300
0000
,
1001
0000
1000
0000
,
0001
1000
0001
0000
,
0010
0000
0100
0000
,
2000
0000
3001
0000
,
1000
0000
0100
0000
,
0010
0100
0010
0000
,
0001
0001
0001
0000
,
2000
0000
3001
0000
,
1000
1000
1000
0000
,
0002
0000
0000
0000
,
1003
0000
0100
0100
,
0200
0000
0000
0000
,
0310
0000
0001
0000
,
1000
0000
0010
0000
,
0200
0000
0000
0000
,
0310
0000
0000
0000
,
0100
0000
0100
0000
,
0001
0000
1000
0000
,
0200
0000
0000
0000
,
0310
0000
0000
0000
,
0001
0000
0001
0000
,
1000
0000
0010
0000
,
0200
0000
0300
0000
,
0001
0000
1000
0000
,
0100
0010
0100
0000
,
0010
0000
0001
0000
,
2000
0000
3001
0000
,
1000
0000
0010
0000
,
0100
0010
0100
0000
,
0001
0000
1000
0000
,
0200
0000
0310
0000
,
0001
0000
1000
0000
,
0020
0000
0000
0000
,
0130
0100
0100
0000
,
0001
0000
1000
0000
,
0100
0000
0100
0000
,
0200
0000
0000
0000
,
0310
0010
0010
0000
,
0001
0000
1000
0000
,
0020
0000
0000
0000
,
1030
0000
0000
0000
,
0001
0000
1000
0000
,
0100
0000
0100
0000
,
0200
0000
0000
0000
,
0300
0000
0000
0000
;
