#TITLE:over the top;
#SUBTITLE:;
#ARTIST:xi;
#TITLETRANSLIT:;
#SUBTITLETRANSLIT:;
#ARTISTTRANSLIT:;
#GENRE:;
#CREDIT:;
#MUSIC:over the top.ogg;
#BANNER:;
#BACKGROUND:over the top-bg.png;
#CDTITLE:;
#SAMPLESTART:82.158;
#SAMPLELENGTH:15.000;
#SELECTABLE:YES;
#OFFSET:1.010;
#BPMS:0.000=202.000;
#STOPS:;
#BGCHANGES:;
#FGCHANGES:;

//--------------- dance-single - ----------------
#NOTES:
     dance-single:
     :
     Beginner:
     7:
     0,0,0,0,0:
0000
0000
0000
0000
,
0000
0000
0000
0000
,
0000
0000
0000
0000
,
0000
0000
0000
0000
,
0000
0000
0000
0000
,
0000
0000
0000
0000
,
1000
0000
0100
0000
,
0100
0000
0010
0000
,
0001
0000
0100
0000
,
0100
0000
0010
0000
,
1000
0000
0010
0000
,
0100
0000
0010
0000
,
1000
0000
0100
0000
,
0010
0000
0001
0000
,
0200
0000
0000
0300
,
0010
1000
0010
1000
,
0002
0000
0000
0003
,
0010
0001
0010
0001
,
2000
0000
0000
3000
,
0100
0010
0100
0010
,
0200
0000
0000
0300
,
0020
0000
0000
0030
,
0001
0000
0010
0000
,
0001
0001
0100
0100
,
0010
0000
1000
0000
,
0100
0100
0010
0010
,
0100
0000
1000
0000
,
0010
0010
0100
0100
,
0001
0000
1000
0000
,
2002
0000
3003
0000
,
1000
0100
1000
0010
,
1000
0100
0100
0000
,
0010
0010
0010
0000
,
0001
0001
0001
0000
,
1000
0000
0001
0000
,
0100
0001
1000
0000
,
0100
0010
0100
0010
,
0001
0100
0001
0000
,
0001
0100
0001
0010
,
0001
0100
0100
0000
,
0010
0010
0010
0000
,
1000
1000
1000
0000
,
0001
0000
1000
0000
,
0100
1000
0001
0000
,
0100
0010
0100
0010
,
1000
0100
1000
0100
,
0020
0000
0000
0000
,
0130
0000
0000
0000
,
2000
0000
0000
0000
,
3001
0000
0000
0000
,
0100
0000
0001
0000
,
1000
0000
0100
0000
,
0010
0010
0100
0100
,
0010
0100
0010
0000
,
0001
0100
0000
0100
,
0010
0000
0000
0000
,
1000
0100
0000
0100
,
0010
0000
0000
0000
,
0001
0100
0000
0100
,
0010
0000
0000
0000
,
1000
0000
0010
0000
,
0100
0000
0001
0000
,
2002
0000
0000
0000
,
0000
0000
3003
0000
,
0001
0100
0001
0100
,
0010
1000
0010
1000
,
0002
0000
0000
0000
,
0000
0000
0000
0000
,
0203
0000
0000
0000
,
0320
0000
1030
0000
,
1000
0100
1000
0100
,
1000
0010
1000
0000
,
0001
0100
0001
0100
,
0001
0010
0001
0100
,
0010
1000
0010
1000
,
0010
0100
0010
0000
,
0100
0001
0100
0001
,
0100
0010
0100
0000
,
0001
0001
0010
0000
,
0100
0100
1000
0000
,
0001
0100
0001
0100
,
0010
0010
1000
0000
,
0001
0100
0001
0100
,
0001
0010
0001
0000
,
1000
0100
1000
0100
,
1000
0010
1000
0100
,
0010
0001
0010
0001
,
0010
0100
0010
0100
,
1000
0100
1000
0100
,
0010
0010
0010
0000
,
0001
0100
0001
0100
,
0010
1000
0010
0000
,
1000
0100
1000
0100
,
0010
0001
0010
0000
,
0002
0000
0000
0000
,
2003
0000
0000
0000
,
3100
0100
0010
0010
,
0001
0100
0010
1000
,
0000
0200
0000
0000
,
0000
0000
0000
0000
,
0000
0000
0000
0000
,
0000
0000
0000
0000
,
0310
0000
0000
0000
;

//--------------- dance-single - ----------------
#NOTES:
     dance-single:
     :
     Easy:
     11:
     0,0,0,0,0:
0000
0000
0000
0000
,
0000
0000
0000
0000
,
0000
0000
0000
0000
,
0000
0000
0000
0000
,
0000
0000
0000
0000
,
0000
0000
0000
0000
,
1000
0100
1000
0100
,
0010
0001
0010
0001
,
1000
0010
1000
0010
,
0100
0001
0100
0001
,
1000
0100
1000
0100
,
0010
0001
0010
0001
,
1000
0100
1000
0000
0001
0100
0001
0000
,
1000
0100
0010
0001
1000
0000
1001
0000
,
0002
0000
0000
0000
,
1003
0010
1000
0000
0100
1000
0100
0000
,
2000
0000
0000
0000
,
3001
0010
0001
0000
0100
0001
0100
0000
,
0002
0000
0000
0000
,
1003
0010
1000
0000
0001
0010
0001
0000
,
0200
0000
0000
0000
,
0320
0000
0000
0000
,
1030
0100
1000
0100
,
1000
0010
1000
0000
0100
1000
0100
0000
,
0010
0001
0010
0001
,
0100
0001
0100
0000
0001
0010
0001
0000
,
0100
0010
0100
0010
,
1000
0010
1000
0000
0001
0100
0001
0000
,
1000
1000
0001
0001
,
0100
0010
0100
0010
0200
0000
0300
0000
,
0001
0001
1000
1000
,
0001
0000
0100
0000
0010
0000
1000
0000
0001
0000
0000
0001
0000
0000
0001
0000
,
1000
0100
1000
0000
0001
0100
0001
0000
,
0010
0010
0100
0100
,
1000
0001
0000
0001
1000
0000
0100
0000
,
0020
0032
2003
3020
,
0130
0001
0100
0001
0100
0000
0010
0000
,
1000
0010
1000
0010
1000
0000
0000
0000
,
1000
1000
0001
0001
,
1000
0000
0100
0000
0010
0000
0001
0000
1000
0000
0000
1000
0000
0000
1000
0000
,
0001
0100
0001
0000
1000
0100
1000
0000
,
0010
0010
0100
0100
,
0001
1000
0000
1000
0001
0000
0100
0000
,
0020
2030
3002
0023
,
0130
1000
0100
1000
0100
0000
0010
0000
,
0001
0010
0001
0010
0001
0000
1000
0000
,
0002
0000
0000
0203
0000
0000
0000
0000
,
0010
0000
0000
0020
0000
0000
0330
0000
,
2000
0000
0000
3200
0000
0000
0000
0000
,
0010
0000
0000
0020
0000
0000
0330
0000
,
0001
0001
0100
0010
,
1000
1000
0100
0010
,
0001
0100
0001
0000
1000
0100
1000
0000
,
0001
0100
0010
1000
0001
0000
1001
0000
,
1000
0200
0000
0310
,
0002
0000
0000
0003
,
0001
0200
0000
0310
,
2000
0000
0000
3000
,
0100
0020
0000
0031
,
2000
0000
0000
3000
,
0002
0000
0203
0000
,
0320
0000
2030
0000
,
3001
0010
0001
0000
0100
0000
0010
0000
,
1000
0100
1000
0000
0100
0000
0010
0000
,
0001
0010
0001
0000
1000
0010
1000
0000
,
0001
0100
0010
1000
0001
0000
1001
0000
,
2000
0000
0000
0000
,
0000
0000
0000
0000
,
3001
0010
0001
0010
,
0100
1000
0100
1000
0100
0000
0000
0000
,
1000
0010
1000
0100
,
1000
0010
1000
0100
,
0010
0000
0010
0000
0001
0010
0001
0010
,
0002
0203
0320
2030
,
3001
0010
0001
0000
0100
0000
0010
0000
,
1000
0001
0010
0001
,
0100
0010
0100
0000
0010
0000
1000
0000
,
0100
0010
0100
0000
1000
0000
0010
0000
,
0100
0001
0100
0000
0010
0000
1000
0000
,
0100
1000
0100
0000
0010
0000
0001
0000
,
1000
0100
0010
0000
0001
0100
0010
0000
,
1000
0001
1000
0001
1000
0000
0000
0000
,
0001
0010
0001
0100
,
0001
0010
0001
0100
,
0010
0000
0010
0000
1000
0010
1000
0010
,
2000
3200
0320
0032
,
1003
0100
1000
0000
0100
0000
0010
0000
,
0001
0010
0001
0000
0100
0000
0010
0000
,
1000
0001
0100
0000
0001
1000
0100
0000
,
0010
0100
0010
0100
0010
0000
0001
0000
,
1000
0100
1000
0000
0010
0000
0100
0000
,
0010
1000
0100
0010
,
0001
0010
0001
0000
0100
0000
0010
0000
,
1000
0010
1000
0000
0100
0000
0010
0000
,
0001
0010
0000
0001
0000
0010
0000
0100
,
1000
0010
0000
1000
0000
0010
0000
0100
,
0001
0010
0001
0000
1000
0100
1000
0000
,
0010
0100
0010
0100
0010
0100
0010
0100
,
0010
2000
0000
0000
,
0000
0000
0000
0000
,
0000
0000
0000
0000
,
0000
0000
0000
0000
,
3001
0000
0000
0000
;

//--------------- dance-single - ----------------
#NOTES:
     dance-single:
     :
     Medium:
     15:
     0,0,0,0,0:
0000
0000
0000
0000
,
0000
0000
0000
0000
,
0000
0000
0000
0000
,
0000
0000
0000
0000
,
0000
0000
0000
0000
,
0000
0000
0000
0000
,
0001
0100
0001
0100
,
0010
1000
0010
1000
,
0001
0010
0001
0010
,
0100
0000
1000
0000
0100
0000
1000
0001
,
1000
0100
0010
0001
,
0100
0010
1000
0010
,
0100
0001
0100
0001
1000
0010
1000
0010
,
1000
0100
0010
0001
1000
0001
1000
0010
,
0200
0000
0000
0000
,
0310
1000
0010
1000
0100
0010
0001
0100
,
0020
0000
0000
0000
,
0130
0001
0100
0001
1000
0100
0010
0001
,
2000
0000
0000
0000
,
3001
0100
0001
0100
0010
1000
0100
0010
,
0002
0000
0000
0000
,
2003
0000
0000
0000
,
3001
0010
0100
1000
0001
0010
0100
1000
,
0010
0100
1000
0100
0010
0001
0010
0000
,
1000
0100
0010
0001
1000
0100
0010
0001
,
0100
0010
0001
0010
0100
1000
0100
0000
,
0001
0100
0010
1000
0001
0100
0010
1000
,
0100
0010
1000
0010
0100
0001
0100
0000
,
1000
0100
1000
0100
0010
0001
0010
0001
,
1000
0000
0000
0000
0010
0100
0010
0100
0010
0000
0000
0000
1001
0000
0000
0000
,
1000
0000
0100
0010
0100
0000
0010
0000
0001
0000
0010
0000
0001
0000
0100
0000
,
0010
0000
1000
0000
0001
0000
0100
0000
0010
0000
0000
0010
0000
0000
0010
0000
,
0100
0000
0001
0000
0010
0001
0010
0000
0100
0000
1000
0000
0100
0000
1000
0000
,
0010
0000
0100
0000
0001
0100
0001
0000
0100
0000
0010
0000
1000
0000
0010
0000
,
1000
0000
1000
0000
0000
0000
0001
0010
0001
0000
1000
0010
1000
0000
0001
0000
,
0200
0000
0000
0310
2000
0000
0000
3001
0020
0000
0000
0130
2000
0000
0000
0000
,
3100
0000
0010
0000
0001
0000
0100
0000
0010
0100
0010
0000
0010
0000
0000
0000
,
0100
0000
0001
0000
1000
0000
0100
0000
0010
0100
0010
0000
0010
0000
0000
0000
,
0001
0000
0100
0010
0100
0000
0010
0000
1000
0000
0010
0000
1000
0000
0100
0000
,
0010
0000
0001
0000
1000
0000
0100
0000
0010
0000
0000
0010
0000
0000
0010
0000
,
0100
0000
1000
0000
0010
1000
0010
0000
0100
0000
0001
0000
0100
0000
0001
0000
,
0010
0000
0100
0000
1000
0100
1000
0000
0100
0000
0010
0000
0001
0000
0010
0000
,
0001
0000
0001
0000
0000
0000
1000
0010
1000
0000
0001
0010
0001
0000
1000
0000
,
0200
0320
0032
0203
0320
2030
3002
0203
,
0310
1000
0010
1000
0001
0010
0001
0010
,
0100
0000
1000
0000
0001
0000
0100
0000
0010
0100
0010
0100
0010
0000
0000
0000
,
1000
0200
0000
0310
0002
0000
0103
0000
,
2010
0000
0000
0100
0000
0000
3001
0000
,
0001
0200
0000
0310
2000
0000
3001
0000
,
0012
0000
0000
0100
0000
0000
1003
0000
,
1000
0100
0010
0100
0010
0001
1000
0010
,
0100
0001
1000
0001
1000
0100
0010
0001
,
0100
1000
0100
1000
0100
0001
0100
0001
,
0010
0000
0100
0000
1000
0000
0010
0000
0100
0010
0100
0010
0100
0000
0000
0000
,
0001
0010
0001
0010
0000
0000
0000
0000
0000
0100
1000
0100
,
1000
0000
0000
0000
,
0001
0100
0001
0100
0000
0000
0000
0000
0000
0010
1000
0010
,
1000
0000
0000
0000
,
0001
0010
0100
1000
0000
0000
0000
0000
0000
1000
0010
0100
,
0001
0000
0000
0000
,
2000
0000
0100
0000
,
3002
0000
0100
0000
,
0013
0100
0010
0100
1000
0001
0100
0010
,
1000
0001
1000
0001
0100
0010
1000
0100
,
0010
0001
0010
0001
0010
1000
0010
1000
,
0010
0001
0100
0010
1000
0100
0010
0000
,
2002
0000
0000
0000
,
0000
0000
0000
3000
,
0203
0000
0010
0000
0310
0010
0010
0010
,
1000
0000
0100
0000
0010
0000
0001
0000
1000
0001
1000
0001
1000
0000
0000
0000
,
0010
0100
0001
0100
0010
0100
0001
1000
,
0100
0010
0100
1000
0100
0010
0001
0100
,
0010
0000
0000
0000
0010
0000
0100
0000
0001
1000
0001
0000
1000
0000
0100
0000
,
0010
0000
0001
0000
0010
0000
0100
0000
1000
0001
0000
1000
0001
0000
0100
0000
,
0010
1000
0010
1000
0100
0010
0001
0000
,
0010
0001
0010
0001
0100
0010
1000
0000
,
0001
0100
0001
0100
1000
0100
0001
0000
,
1000
0100
1000
0100
0001
0100
1000
0000
,
0001
0100
0001
0100
1000
0100
0001
0010
,
0100
1000
0100
1000
0100
0001
0100
1000
,
0010
0010
0100
0001
0010
0010
0100
1000
,
0001
0100
0001
0000
1000
0100
1000
0000
0001
0000
0000
0000
0110
0000
0000
0000
,
0100
0010
1000
0010
0100
0010
1000
0001
,
0010
0100
0010
0001
0010
0100
1000
0010
,
0100
0000
0000
0000
0100
0000
0010
0000
1000
0001
1000
0000
0001
0000
0010
0000
,
0100
0000
1000
0000
0100
0000
0010
0000
0001
1000
0000
0001
1000
0000
0010
0000
,
0100
0001
0100
0001
0100
1000
0100
1000
,
0100
0010
0001
0010
0001
0010
1000
0010
,
1000
0100
1000
0100
0010
0001
0010
0001
,
0100
0110
1001
0110
,
1000
0010
1000
0010
0100
0001
1000
0100
,
0010
0001
0010
0001
0100
0010
1000
0001
,
0010
0100
0010
0100
1000
0001
0100
0010
,
1000
0001
1000
0001
0100
0010
1000
0100
,
0020
0001
0000
0100
0000
0031
0000
0001
,
0200
0010
0000
0001
0000
0310
0000
0010
,
1000
0100
1000
0000
0100
0000
0010
0000
0001
0010
0001
0000
0010
0000
0100
0000
,
1000
0000
0010
0000
0100
0000
0001
0000
1000
0001
1000
0001
1000
0000
0000
0000
,
0110
2002
0003
3200
,
0000
0000
0302
0000
0000
0203
0000
0000
,
2300
0000
0000
3020
0000
0000
0032
0000
,
0000
0023
0000
0000
2030
0000
0001
0000
,
3001
0000
0000
0000
;

//--------------- dance-single - ----------------
#NOTES:
     dance-single:
     :
     Hard:
     18:
     0,0,0,0,0:
0000
0000
0000
0000
,
0000
0000
0000
0000
,
0000
0000
0000
0000
,
0000
0000
0000
0000
,
0000
0000
0000
0000
,
0000
0000
0000
0000
,
0001
0010
0001
0010
,
0100
1000
0100
1000
,
0001
0100
0001
0100
,
0010
0000
1000
0000
0010
0000
1000
0001
,
0010
0010
0100
1000
,
0010
0010
0100
0001
,
0010
0100
0010
0100
1000
0001
1000
0001
,
0100
0010
1000
0000
0100
0010
0001
0000
1000
0001
1000
0001
1000
0000
0000
0000
,
0002
0000
0000
0000
,
1003
0010
1000
0000
0100
1000
0100
0000
0010
0100
0010
0000
0001
0000
0001
0000
,
2000
0000
0000
0000
,
3001
0100
0001
0000
0010
0001
0010
0000
0100
0010
0100
0000
1000
0000
1000
0000
,
0002
0000
0000
0000
,
0103
0010
0100
0000
0001
0010
0001
0000
1000
0010
1000
0000
0100
0000
0100
0000
,
0020
0000
0000
0000
,
0230
0000
0000
0000
,
0310
0001
0010
0001
1000
0100
0010
0001
,
0100
0010
0100
0000
0001
0010
0001
0000
0100
0010
0100
0000
0001
0000
0010
0000
,
0100
1000
0100
1000
0001
0010
0100
1000
,
0010
0100
0010
0000
1000
0100
1000
0000
0010
0100
0010
0000
1000
0000
0100
0000
,
0010
0001
0010
0001
1000
0100
0010
0001
,
1000
0100
1000
0000
0010
1000
0010
0000
0100
0001
0100
0000
0010
0000
0010
0000
,
1000
0100
1000
0100
0010
0001
0010
0001
,
1000
0010
1000
0010
1000
0010
1000
0010
1000
0001
0100
0010
1000
0000
0000
0000
,
0001
0000
0010
0100
0010
0000
0001
0100
0001
0000
1000
0010
1000
0000
0100
0010
,
0100
0000
0010
0000
0001
0000
0100
0000
0010
1000
0000
0010
1000
0000
0001
0000
,
0100
0000
0100
0000
0001
0010
0001
0010
0001
0000
0100
0000
0010
0000
1000
0000
,
0100
0000
0010
0000
0001
0000
0010
0000
0001
0000
0100
0000
0010
1000
0010
1000
,
0010
0000
0100
0000
0000
0000
1000
0100
1000
0000
0100
0010
0100
0000
0001
0000
,
0010
0001
1000
0000
0010
1000
0001
0000
0010
0001
1000
0000
0010
0000
0000
0000
,
0100
0000
0001
0000
0100
0000
0001
0000
1000
0100
0010
0001
0010
0000
0100
0000
,
1000
0000
0010
0000
1000
0000
0010
0000
0100
0001
0100
0010
1000
0000
0000
0000
,
1000
0000
0010
0100
0010
0000
1000
0100
1000
0000
0001
0010
0001
0000
0100
0010
,
0100
0000
0010
0000
1000
0000
0100
0000
0010
0001
0000
0010
0001
0000
1000
0000
,
0100
0000
0100
0000
1000
0010
1000
0010
1000
0000
0100
0000
0010
0000
0001
0000
,
0100
0000
0000
0000
0010
1000
0001
0000
1000
0000
0000
0000
0001
1000
0100
0000
,
0010
0000
0100
0000
0000
0000
0001
0100
0001
0000
0100
0010
0100
0000
1000
0000
,
0001
0000
0100
0000
0010
0000
1000
0000
0001
0010
0001
0010
0001
0100
0001
0100
,
0010
1000
0010
1000
0001
0010
0001
0010
,
0001
0100
0001
0100
0001
0100
0001
0100
0010
1000
0010
1000
0010
1000
0010
1000
,
0001
0020
0000
0130
2000
0000
3100
0000
,
0010
0002
0000
2003
0020
0000
3030
0000
,
1000
0200
0000
0310
0002
0000
0013
0000
,
0100
2000
0000
3002
0200
0000
0303
0000
,
0010
1000
0010
1000
0100
1000
0100
1000
,
0001
0010
0001
0010
0001
0100
0010
1000
,
0001
0010
0001
0010
0001
0010
0001
0010
0001
0100
0001
0100
0001
0100
0001
0100
,
0010
1000
0010
1000
0010
1000
0010
1000
0001
0010
0100
1000
0001
0000
0000
0000
,
1000
0100
1000
0200
0000
0000
0000
0000
0000
0310
0001
0010
,
0002
1000
0100
1003
,
0001
0010
0001
0020
0000
0000
0000
0000
0000
0130
1000
0100
,
2000
0001
0100
3001
,
1000
0100
0010
0002
0000
0000
0000
0000
0000
1003
0010
0100
,
0002
0010
0100
0013
,
0020
0000
2030
0000
,
3020
0000
0032
0000
,
1003
0000
0100
0000
1000
0000
0100
0010
,
0001
0000
0100
0000
0001
0000
0100
0010
,
1000
0100
1000
0100
1000
0100
1000
0100
0010
0001
0010
0001
0010
0001
0010
0001
,
1000
0100
1000
0100
0010
0001
0010
0001
1000
0100
0010
0001
1000
0000
0000
0000
,
0002
0000
0000
0000
,
0000
0000
0000
0000
,
0103
0000
0100
0100
0100
0010
1000
0001
,
1000
0100
1000
0000
0001
0100
0001
0000
1000
0001
1000
0001
1000
0000
0000
0000
,
0001
0100
0001
1000
0010
1000
0100
1000
,
0001
0010
0001
0100
0010
1000
0100
0010
,
0001
0000
0100
0000
0010
0000
0010
0000
1000
0001
1000
0001
1000
0100
0010
0001
,
1000
0000
0010
0000
1000
0000
0100
0000
1000
0010
0000
1000
0010
0000
0100
0000
,
0001
0010
0001
0000
1000
0000
0100
0000
0010
0000
0001
0000
0100
0000
0010
0000
,
0001
0010
0100
1000
0100
0001
0010
0100
,
1000
0010
1000
0000
0001
0000
0100
0000
0001
0000
0100
0000
0010
0000
1000
0000
,
0001
0010
0001
0000
1000
0000
0100
0000
1000
0000
0100
0000
0010
0000
0000
0000
,
0001
0100
0010
0000
1000
0000
0010
0000
1000
0000
0001
0000
0100
0000
0001
0000
,
1000
0100
0010
0000
0001
0000
0010
0000
0001
0000
1000
0000
0100
0000
0010
0000
,
0001
0100
0001
0000
0100
0000
0010
0000
1000
0100
1000
0000
0100
0000
0010
0000
,
0001
1000
0100
0000
1000
0001
0100
0000
0010
0100
0010
0100
0010
0000
0000
0000
,
1000
0100
1000
0001
0010
0001
0100
0001
,
1000
0010
1000
0100
0010
0001
0100
0010
,
1000
0000
0100
0000
0010
0000
0010
0000
0001
1000
0001
1000
0001
0100
0010
1000
,
0001
0000
0010
0000
0001
0000
0100
0000
0001
0010
0000
0001
0010
0000
0100
0000
,
1000
0010
1000
0000
0001
0000
0100
0000
0010
0000
1000
0000
0100
0000
0010
0000
,
0001
0100
0001
0000
1000
0000
0010
0000
0100
0000
0001
0000
0010
0000
0100
0000
,
1000
0001
0100
0000
0010
0000
0010
0000
1000
0001
0010
0100
1000
0001
1000
0001
,
2000
0000
3020
0000
0230
0000
0302
0000
1003
0001
0000
1000
0001
0000
0000
0000
,
0100
0010
1000
0010
0100
0001
1000
0001
,
0010
0000
0001
0000
1000
0000
0001
0000
0010
0000
0100
0000
1000
0000
0100
0010
,
0100
0000
1000
0000
0001
0000
1000
0000
0100
0000
0010
0000
0001
0000
0100
0010
,
0100
0001
0010
0100
1000
0001
1000
0100
,
0010
0001
0000
0001
0000
0100
0000
0010
,
1000
0100
0000
0100
0000
0010
0000
0010
,
0001
0100
0001
0100
0001
0100
0001
0100
0001
0100
0001
0100
0001
0100
0001
0100
,
0010
1000
0001
1000
0100
0010
0001
1000
0001
0100
0010
1000
0001
0010
0100
1000
,
0001
2001
0000
3020
,
0000
0100
2030
0000
0100
3002
0000
0100
,
2003
0000
0100
3020
0000
0100
2030
0000
,
0100
3002
0000
0100
0023
0000
0100
0000
,
0130
0000
0000
0000
;
