#TITLE:day in, day out;
#SUBTITLE:;
#ARTIST:dj VERTICAI;
#TITLETRANSLIT:;
#SUBTITLETRANSLIT:;
#ARTISTTRANSLIT:;
#GENRE:;
#CREDIT:;
#BANNER:day in, day out.png;
#BACKGROUND:day in, day out-bg.png;
#LYRICSPATH:;
#CDTITLE:;
#MUSIC:day in, day out.ogg;
#OFFSET:-0.025388;
#SAMPLESTART:46.895061;
#SAMPLELENGTH:15.000000;
#SELECTABLE:YES;
#BPMS:0.000000=128.000000
;
#STOPS:
;
#BGCHANGES:;
#KEYSOUNDS:;
#ATTACKS:;

//---------------dance-single - ----------------
#NOTES:
     dance-single:
     :
     Hard:
     13:
     0.514086,0.726868,0.218607,0.386766,0.298482,428.000000,402.000000,26.000000,46.000000,0.000000,0.000000,0.514086,0.726868,0.218607,0.386766,0.298482,428.000000,402.000000,26.000000,46.000000,0.000000,0.000000:
0000
0000
0000
0000
,
0000
0000
0000
0000
,
0000
0000
0000
0000
,
0000
0000
0000
0000
,
0000
0000
0000
0000
,
1000
0100
0001
0100
1000
0000
0010
1000
,
0001
0100
1000
0100
0000
0100
0002
0000
,
0023
0100
0100
0100
,
0230
0000
0000
2300
0000
0002
3003
0000
,
1000
0010
0001
0010
1000
0000
0010
0100
,
0001
0010
1000
0010
0000
0100
2000
0000
,
3020
1000
0001
1000
,
0130
0000
0000
0100
0000
0000
0000
0000
0001
0000
1000
0000
1000
0100
0000
0100
,
0020
0000
0030
0100
2000
0000
3002
0000
,
0103
0001
1000
0010
0000
1000
0100
0000
,
0011
0011
1100
1100
,
0102
0000
1000
0000
0013
0000
1000
0001
,
0100
0000
0000
0000
0100
0000
0000
0000
0100
0000
0010
1000
0000
1000
0000
0001
,
0010
0000
0010
0000
0100
0000
0100
0000
1000
0000
1000
0001
0000
1000
0000
0001
,
0010
0000
0000
0000
0010
0000
0000
0000
0010
0000
0100
1000
0000
1000
0000
0001
,
0100
0000
0100
0000
0010
0000
0010
0000
1000
0000
1000
0001
0000
1000
0000
0001
,
0100
0000
0001
0000
0100
0000
0010
0000
0100
0000
0001
0000
0100
0000
0010
1000
,
0100
0000
1000
0000
0100
0000
0010
0000
0100
0000
1000
0000
0100
0000
0010
0001
,
1000
0001
1000
0000
0100
0010
0100
0000
1000
0001
1000
0001
0100
0010
0100
0010
,
0100
0000
1001
0000
1001
0000
0100
0000
1001
0000
0001
0010
0000
0100
1000
0000
,
0020
0000
0000
0000
0130
0000
0100
0000
0002
0000
0000
0000
1003
0000
0001
1000
,
0020
0000
0000
0000
0130
0001
1000
0100
1000
0000
1000
0000
0002
0000
1000
0000
,
2003
3100
1100
1000
0002
0103
0101
0001
,
2000
0000
3010
0000
1010
0000
1000
0000
0001
0000
0001
0010
0000
0010
0000
0100
,
0020
0000
0000
0000
0130
0000
1000
0001
2000
0000
0000
0000
3100
0000
0100
0000
,
0020
0000
0000
0000
0130
1000
0001
1000
0001
0000
0100
0000
0110
0000
0000
0000
,
0210
0001
0310
2000
3002
0010
2003
0100
,
3002
0000
0103
0020
0100
0000
1030
0001
,
0200
0000
0000
0000
0310
0000
0100
0001
2000
0000
0000
0000
3001
0000
0010
0000
,
0002
0000
0000
0000
0103
0010
0100
0010
1000
0000
0010
0000
0101
0000
0001
0000
,
0010
0001
0100
1000
0100
0001
0010
1000
,
0010
0000
0001
0000
0100
0000
1000
0000
0010
0000
0001
0000
1000
0001
1000
0001
,
1000
0100
2000
0000
3001
0001
0020
0031
,
0200
0000
0310
0010
1000
0001
1001
0000
,
0101
0101
1010
1010
,
0010
0000
0100
0000
0001
0000
1000
0000
0100
0000
0100
0000
0100
1000
0100
0010
,
0002
0000
1000
0000
0103
0000
1000
0020
,
0100
0000
0001
0000
1030
0010
0001
0010
,
2000
0000
0001
0000
3100
0010
0010
0200
,
1000
0000
0000
0000
0001
0000
0000
0000
1300
0000
0001
0000
0100
0001
0100
0010
,
2000
0000
0001
0000
3010
0010
1000
0200
,
0010
0000
0001
0000
1300
0001
0100
0001
,
0020
0000
0001
0000
0130
1000
1000
0002
,
0000
0100
1000
0020
0030
0000
0103
0000
,
0001
0100
0001
1000
0000
0000
1000
0100
1000
0100
1000
0001
0000
0000
1000
0000
,
0001
0100
0010
1000
0000
1000
0010
1000
0200
0000
0000
0000
0310
0000
0002
0000
,
0010
0000
1000
0000
0103
0010
0110
1001
,
0000
1000
0100
0010
0001
0100
0100
0010
,
1000
0010
0000
0010
0000
1000
0001
1000
0001
0000
0010
0000
0100
0000
1000
0000
,
0001
0010
0000
1100
0000
0101
0000
0000
,
0110
1000
1001
0010
0110
1000
0001
0020
,
0000
0000
0000
0030
,
0100
0000
0000
0000
0100
0000
0000
0000
0100
0000
1000
0010
0000
0010
0000
1000
,
0001
0000
0001
0000
0010
0000
0010
0000
0100
0000
0010
0001
0000
1000
0000
0001
,
0100
0000
0010
0000
0100
0000
0010
0000
0100
0000
0001
0010
0000
0010
0000
0001
,
1000
0100
1000
0000
0001
0100
0001
0000
1000
0100
0010
0100
1000
0001
0100
0001
,
0020
0000
0000
0030
;

//---------------dance-single - ----------------
#NOTES:
     dance-single:
     :
     Medium:
     10:
     0.386766,0.441312,0.302686,0.302686,0.000000,322.000000,286.000000,36.000000,36.000000,0.000000,0.000000,0.386766,0.441312,0.302686,0.302686,0.000000,322.000000,286.000000,36.000000,36.000000,0.000000,0.000000:
0000
0000
0000
0000
,
0000
0000
0000
0000
,
0000
0000
0000
0000
,
0000
0000
0000
0000
,
0000
0000
0000
0000
,
0001
0000
0001
0100
0010
0000
0010
0000
,
1000
0000
1000
0100
0000
0100
0010
0000
,
0002
1003
2000
3001
,
0020
0130
0200
0310
,
0001
0000
1000
0001
1000
0000
0010
0000
,
0100
0000
0010
1000
0000
1000
0001
0000
,
0200
0301
0002
1003
,
2000
0000
3010
0000
0020
0000
0130
0001
,
1000
1000
0200
0320
,
0031
1000
0000
0010
0000
0010
0100
0000
,
0102
0013
2010
3100
,
0012
0103
2100
3010
,
0001
0000
0001
0000
0001
0000
1000
0010
,
0100
0000
0100
0000
0100
0010
0100
0010
,
1000
0000
1000
0000
1000
0000
0001
0010
,
0100
0000
0100
0000
0100
0010
0100
0010
,
0001
1100
0010
0101
,
0010
1100
0010
0101
,
0010
1000
0001
0010
0001
1000
0010
0100
,
0020
1000
1000
0000
2030
0000
3001
0000
,
1100
0000
0001
0010
0001
0000
1000
0100
,
1000
0000
0010
1000
0001
1000
0002
0000
,
0103
0000
1010
0000
0001
0000
1010
1000
,
0100
0011
1000
0011
,
0101
0000
1000
0010
1000
0000
0001
0100
,
0001
0000
0010
0001
1000
0001
2000
0000
,
3100
1000
0001
0010
1000
0001
0100
1000
,
0002
0100
1000
0013
,
1100
0000
0001
0010
0100
0000
1000
0100
,
0010
0000
0001
0010
0001
1000
0002
0000
,
2003
0000
3100
2000
0000
3010
1000
1000
,
0001
0100
0100
0001
0010
0100
0010
0000
,
0101
0000
1000
0000
1100
0000
0001
0001
,
0011
0000
1000
0010
1010
0000
0110
0000
,
2002
0000
0000
3003
,
0001
0100
1000
0100
0001
0010
1000
0010
,
0001
0000
0101
0000
1001
0000
0010
0100
,
1000
0000
1100
0000
1001
0000
0100
1000
,
0001
0000
0101
0000
1001
0000
1000
0020
,
0000
0000
0130
0000
1001
0000
0001
0100
,
0010
0000
0101
0000
1001
0000
1000
0001
,
0010
0000
1100
0000
1001
0000
0001
0100
,
0020
0000
0100
0000
0001
0000
1030
1000
,
0000
0001
1000
0200
0000
0000
0300
0000
,
1000
0100
1000
0100
0010
0100
0010
0100
,
0010
0001
0010
0001
2000
0000
3001
0020
,
0000
0000
0100
0000
0130
1000
0001
0200
,
0000
0010
0310
0110
,
0001
0100
0010
0000
1000
0010
0100
0000
,
0001
1000
0000
1100
0000
0022
0033
0000
,
2002
0000
0000
0000
3003
1000
0000
0020
,
0000
0000
0000
0000
0000
0100
0130
0000
,
0001
0000
0001
0000
0001
0000
0010
0100
,
1000
0000
1000
0000
0100
0010
0001
0010
,
0100
0000
0100
0000
0100
0000
1000
0010
,
0100
0001
0100
0001
1000
0100
0010
0001
,
2000
0000
0000
3000
;

//---------------dance-single - ----------------
#NOTES:
     dance-single:
     :
     Easy:
     6:
     0.258244,0.337474,0.159751,0.361542,0.008408,215.000000,196.000000,19.000000,43.000000,0.000000,0.000000,0.258244,0.337474,0.159751,0.361542,0.008408,215.000000,196.000000,19.000000,43.000000,0.000000,0.000000:
0000
0000
0000
0000
,
0000
0000
0000
0000
,
0000
0000
0000
0000
,
0000
0000
0000
0000
,
0000
0000
0000
0000
,
1000
0100
2000
3000
,
0001
0100
0001
1000
,
0020
0000
0000
0030
,
0200
0000
0000
0300
,
0001
0100
0002
0003
,
1000
0100
1000
0001
,
0020
0000
0000
0030
,
0200
0000
0000
0000
,
0300
0000
1000
0001
,
0100
0010
0100
0001
,
0010
0010
0100
0100
,
1000
1000
0001
0001
,
1000
1000
2200
3300
,
0001
0001
0202
0303
,
1000
0100
2200
3300
,
0001
0100
0202
0303
,
1000
1000
0100
0100
,
0001
0001
0100
0100
,
1000
0010
0100
0001
,
0100
0100
0100
0110
,
0002
0103
0002
1003
,
0002
0013
0001
1000
,
0100
0100
0010
0010
,
0100
0100
1000
0001
,
2000
3100
2000
3001
,
2000
3010
0100
0001
,
0010
1000
0100
0001
,
2000
3200
0320
0032
,
2003
3010
2000
3001
,
2000
3100
1000
0001
,
0100
0000
0000
0000
0010
0000
0000
0000
1000
0000
0000
1000
0000
0000
0000
0000
,
0010
0000
0000
0000
0100
0000
0000
0000
0001
0000
0000
0001
0000
0000
0000
0000
,
0010
1001
0100
1001
,
0001
0110
1000
0110
,
0001
0001
0001
0001
,
0011
1010
2002
3003
,
1000
0000
0100
0000
1000
0000
1000
0020
,
0000
0130
0001
1000
,
0001
0000
0100
0000
0001
0000
0010
0002
,
0000
1003
0010
0100
,
0001
0000
0100
0000
0001
0000
0001
0020
,
0000
0130
1000
0001
,
1000
0000
0010
0000
0001
0000
0010
0200
,
0000
0300
0110
1001
,
0001
0100
0010
0100
,
1000
0000
0100
0000
0020
0000
1030
0002
,
0000
0000
0000
0000
0003
0010
0100
2000
,
0000
0000
3000
1100
,
0100
0010
0001
0100
,
0010
0000
1000
0000
0100
0020
0000
0000
,
0031
0000
1000
0000
0001
0100
0010
2000
,
0000
0000
0000
3000
,
0001
0001
0202
0303
,
1000
1000
2200
3300
,
0001
0011
1000
1010
,
0001
0010
0100
1000
,
0020
0000
0000
0030
;

//---------------dance-single - ----------------
#NOTES:
     dance-single:
     :
     Beginner:
     2:
     0.136930,0.179510,0.058856,0.000000,0.000000,114.000000,107.000000,7.000000,0.000000,0.000000,0.000000,0.136930,0.179510,0.058856,0.000000,0.000000,114.000000,107.000000,7.000000,0.000000,0.000000,0.000000:
0000
0000
0000
0000
,
0000
0000
0000
0000
,
0000
0000
0000
0000
,
0000
0000
0000
0000
,
0000
0000
0000
0000
,
1000
0000
0000
0000
,
0001
0000
0000
0000
,
1001
0000
0000
0000
,
0000
0000
0000
0000
,
0010
0000
0000
0000
,
0100
0000
0000
0000
,
0110
0000
0000
0000
,
0000
0000
0000
0000
,
1000
0000
0100
0000
,
0010
0000
0001
0000
,
1001
0000
0000
0000
,
1001
0000
0000
0000
,
0001
0000
0001
0000
,
0100
0000
0100
0000
,
1000
0000
1000
0000
,
0100
0000
0100
0000
,
0001
0000
0100
0000
,
1000
0000
0100
0000
,
0001
0000
1000
0000
,
0010
0010
0010
0000
,
1000
0000
1000
0000
,
1000
0000
0000
0100
,
0010
0000
0010
0000
,
0010
0000
0010
0000
,
0001
0000
0001
0000
,
0001
0000
0000
0100
,
0010
0100
0010
0100
,
0000
0000
0000
0000
,
1000
0000
1000
0000
,
1000
0000
0000
0100
,
0010
0000
0000
0010
0000
0000
0010
0000
,
0000
0010
0000
0000
0100
0000
1000
0000
,
0001
0000
0001
0000
,
1000
0000
1000
0000
,
0010
0010
0010
0010
,
0000
0000
0000
1000
,
0001
0000
0001
0000
,
1000
0000
1000
0100
,
0010
0000
0010
0000
,
0100
0000
0100
1000
,
0001
0000
0001
0000
,
0100
0000
0100
0010
,
1000
0000
1000
0000
,
0001
0000
0010
0001
,
1000
0000
0100
0000
,
0001
0000
0100
0000
,
1000
0000
0010
0000
,
0001
0000
0010
0000
,
1000
0000
1000
0000
,
0001
0000
0001
0000
,
1001
0000
0000
0000
,
0110
0000
0000
0000
,
1000
0000
0100
0000
,
0001
0000
0100
0000
,
1000
0000
0010
0000
,
0001
0000
0010
0000
,
1001
0000
0000
0000
;
