#VERSION:0.83;
#TITLE:best friends;
#SUBTITLE:;
#ARTIST:djjm;
#TITLETRANSLIT:;
#SUBTITLETRANSLIT:;
#ARTISTTRANSLIT:;
#GENRE:SCHRANZ;
#ORIGIN:;
#CREDIT:;
#BANNER:;
#BACKGROUND:;
#PREVIEWVID:;
#JACKET:;
#CDIMAGE:;
#DISCIMAGE:;
#LYRICSPATH:;
#CDTITLE:;
#MUSIC:bestfriends.ogg;
#OFFSET:-0.077120;
#SAMPLESTART:42.077000;
#SAMPLELENGTH:9.000000;
#SELECTABLE:YES;
#BPMS:0.000=160.000;
#STOPS:;
#DELAYS:;
#WARPS:;
#TIMESIGNATURES:0.000=4=4;
#TICKCOUNTS:0.000=4;
#COMBOS:0.000=1;
#SPEEDS:0.000=1.000=0.000=0;
#SCROLLS:0.000=1.000;
#FAKES:;
#LABELS:0.000=Song Start;
#BGCHANGES:;
#KEYSOUNDS:;
#ATTACKS:
;

//---------------dance-single - ----------------
#NOTEDATA:;
#CHARTNAME:;
#STEPSTYPE:dance-single;
#DESCRIPTION:;
#CHARTSTYLE:;
#DIFFICULTY:Hard;
#METER:15;
#RADARVALUES:0.701586,0.872114,0.000000,0.076141,0.580576,516.000000,516.000000,0.000000,8.000000,0.000000,0.000000,0.000000,0.000000,0.000000,0.701586,0.872114,0.000000,0.076141,0.580576,516.000000,516.000000,0.000000,8.000000,0.000000,0.000000,0.000000,0.000000,0.000000;
#CREDIT:TonyAkita;
#NOTES:
0000
0000
0000
0000
,
0000
0000
0000
0000
,
0000
0000
0000
0000
,
0000
0000
0000
0000
,
2000
0010
0000
3010
,
0200
0001
0000
0301
,
0002
0010
0000
0013
,
0200
0000
1000
0000
1300
0010
0100
0001
,
1000
0000
1000
0000
0010
0100
0001
0000
1000
0100
0000
0100
0001
0000
0000
0000
,
0001
0000
0001
0000
0010
0100
1000
0000
0001
0100
0000
0100
1000
0000
0000
0000
,
1000
0000
1000
0000
0100
0010
0001
0000
1000
0010
0000
0100
0001
0000
0000
0000
,
0001
0000
0001
0000
0100
0010
1000
0000
0001
0010
0100
1000
0010
0000
0010
0000
,
1000
0000
1000
0000
0100
0010
0001
0000
1000
0010
0000
0010
0001
0000
0000
0000
,
0001
0000
0001
0000
0100
0010
1000
0000
0001
0010
0000
0010
1000
0000
0000
0000
,
1000
0000
1000
0000
0010
0100
0001
0000
1000
0100
0000
0010
0001
0000
0000
0000
,
0001
0100
0001
0100
0010
1000
0010
1000
0001
0010
0100
1000
0010
0000
0010
0000
,
0000
1000
0010
0100
0001
0100
1000
0100
,
0001
0010
0100
1000
0010
0100
0001
0001
,
0000
0001
0010
0100
1000
0100
0001
0100
,
1000
0010
0100
0001
0010
0100
1000
1000
,
0000
1000
0010
0001
0010
0100
0001
1000
,
0100
0001
0100
1000
0100
0010
0001
0001
,
0000
0001
0010
1000
0010
0001
0010
0100
,
2000
0000
0000
3000
,
1000
0000
0001
0000
1000
0010
0100
0010
1000
0000
1000
0000
0001
0010
0100
1000
,
0001
0100
0001
0000
0000
1000
0000
1000
0100
0001
0100
0010
0100
0000
0100
0000
,
1000
0000
0001
0000
1000
0010
0100
0010
1000
0000
1000
0000
0001
0010
0100
1000
,
0001
0100
0001
0100
0010
1000
0010
1000
0001
0010
0100
1000
0001
0000
0001
0000
,
0001
0000
1000
0000
0001
0010
0100
0010
0001
0000
0001
0000
1000
0010
0100
0001
,
1000
0100
1000
0000
0000
0001
0000
0001
0100
1000
0100
0010
0100
0000
0100
0000
,
0001
0000
1000
0000
0001
0010
0100
0010
0001
0000
0001
0000
1000
0010
0100
0001
,
1000
0100
1000
0100
0010
0001
0010
0001
1000
0010
0100
0001
1000
0000
1000
0000
,
2000
0000
0000
0000
,
0000
0000
0000
0000
,
3002
0000
0000
0000
,
0023
0000
0000
0000
,
0130
0000
1000
0010
,
0001
0100
1000
0010
,
0100
0000
0001
0010
,
1000
0100
0001
0010
,
0100
0000
1000
0010
,
0001
0010
0100
0001
,
1000
0000
0001
0010
,
1000
0010
0100
1000
,
0001
0100
1000
0100
0010
1000
0001
0010
,
0100
0001
0100
1000
0100
0010
0001
0001
,
0000
0001
0010
1000
0010
0100
1000
0001
,
0100
1000
0100
0001
0100
0010
1000
1000
,
0000
1000
0010
0001
0010
0100
0001
1000
,
0100
0001
0100
1000
0100
0010
0001
0001
,
0000
0001
0010
1000
0010
0100
1000
0001
,
1000
0100
1000
0100
0010
0001
0010
0001
1000
0010
0100
0001
0010
0000
0010
0000
,
0001
0000
0010
0000
1000
0000
0010
0000
0100
1000
0100
1000
0010
0000
0010
0000
,
1000
0000
0010
0000
0001
0000
0010
0000
0100
0001
0100
0001
0010
0000
0010
0000
,
0001
0000
0010
0000
1000
0000
0010
0000
0001
0010
0100
1000
0001
0000
0001
0000
,
1000
0000
0010
0000
0100
0001
0100
0000
1000
0100
0010
0001
1000
0000
1000
0000
,
0001
0000
0100
0000
1000
0000
0100
0000
0010
1000
0010
1000
0100
0000
0100
0000
,
1000
0000
0100
0000
0001
0000
0100
0000
0010
0001
0010
0001
0100
0000
0100
0000
,
0001
0000
1000
0000
0001
0100
0010
0100
0001
0000
0001
0000
1000
0100
0010
0001
,
1000
0010
1000
0010
0100
0001
0100
0001
1000
0100
0010
0001
0100
0000
0100
0000
,
0001
0000
0001
0000
0010
0001
0010
0000
0100
1000
0000
0001
0100
0000
0000
0000
,
0010
0000
0010
0000
1000
0010
1000
0000
0001
0010
0100
1000
0010
0000
0010
0000
,
1000
0000
1000
0000
0010
1000
0010
0000
0100
0001
0000
1000
0100
0000
0000
0000
,
0010
0000
0010
0000
0001
0010
0001
0000
1000
0010
0100
0001
0010
0000
0010
0000
,
0001
0000
0001
0000
0100
0001
0100
0000
0010
1000
0000
0001
0010
0000
0000
0000
,
0100
0000
0100
0000
1000
0100
1000
0000
0001
0100
0010
1000
0100
0000
0100
0000
,
0010
0000
0001
0000
1000
0010
0100
0010
1000
0000
1000
0000
0001
0010
0100
1000
,
0001
0100
0001
0100
0010
1000
0010
1000
0001
0010
0100
1000
0010
0000
0010
0000
;

//---------------dance-single - ----------------
#NOTEDATA:;
#CHARTNAME:;
#STEPSTYPE:dance-single;
#DESCRIPTION:;
#CHARTSTYLE:;
#DIFFICULTY:Medium;
#METER:10;
#RADARVALUES:0.462286,0.549109,0.180835,0.076141,0.000000,340.000000,321.000000,19.000000,8.000000,0.000000,0.000000,0.000000,0.000000,0.000000,0.462286,0.549109,0.180835,0.076141,0.000000,340.000000,321.000000,19.000000,8.000000,0.000000,0.000000,0.000000,0.000000,0.000000;
#CREDIT:TonyAkita;
#NOTES:
0000
0000
0000
0000
,
0000
0000
0000
0000
,
0000
0000
0000
0000
,
0000
0000
0000
0000
,
2000
0010
0000
3010
,
0200
0001
0000
0301
,
0002
0010
0000
0013
,
0200
0000
1300
0000
1000
0100
0010
0001
,
1000
0010
1000
0000
0101
0000
1001
0000
,
0001
0010
0001
0000
1100
0000
1001
0000
,
0001
1000
0001
0000
0101
0000
1010
0000
,
0010
1000
0010
1000
0001
0010
0100
1000
,
0001
0100
1000
0000
0101
0000
1010
0000
,
1000
0100
0001
0000
1100
0000
0011
0000
,
0001
0010
1000
0000
0011
0000
1100
0000
,
0100
1000
0100
1000
0001
0100
0010
1000
,
0010
0000
0010
0000
1000
0010
0001
0000
,
0010
0000
0100
0000
0001
1000
0100
0000
,
0010
0000
0010
0000
0001
0010
1000
0000
,
0010
0000
0100
0000
1000
0001
0100
0000
,
0001
0000
0001
0000
1000
0100
0010
0000
,
0001
0000
1000
0000
0010
0100
0001
0000
,
1000
0000
1000
0000
0001
0010
0100
0000
,
2000
0000
0000
3000
,
1000
0000
0001
0100
0001
0000
1000
0100
,
0010
0010
0010
0000
1000
0010
0001
1000
,
0001
0000
1000
0100
1000
0000
0001
0100
,
0010
1000
0010
1000
0001
0010
0100
1000
,
0001
0000
1000
0100
1000
0000
0001
0100
,
0010
0010
0010
0000
0001
0010
1000
0001
,
1000
0000
0001
0100
0001
0000
1000
0100
,
0010
0001
0010
0001
1000
0010
0100
0001
,
2000
0000
0000
0000
,
0000
0000
0000
0000
,
3002
0000
0000
0000
,
0023
0000
0000
0000
,
0030
0000
0001
0010
,
1000
0100
0001
0010
,
0100
0000
1000
0010
,
0001
0100
1000
0010
,
0100
0000
0001
0010
,
1000
0010
0100
1000
,
0001
0000
1000
0010
,
0001
0010
0100
0001
,
1000
0000
1000
0000
0001
0010
0100
0000
,
1000
0000
0001
0000
0100
0010
1000
0000
,
0001
0000
0001
0000
1000
0010
0100
0000
,
0001
0000
1000
0000
0100
0010
0001
0000
,
0010
0000
0010
0000
0001
0010
1000
0000
,
0010
0000
0100
0000
1000
0001
0100
0000
,
0010
0000
0010
0000
1000
0010
0001
0000
,
0010
0100
0010
0100
0010
0000
1001
0000
,
0001
0000
1000
0000
0010
1000
0010
1000
,
0100
0000
0001
0000
0100
1000
0100
1000
,
0010
0000
0001
0000
0010
0100
0010
0100
,
0001
0001
0001
0000
1000
0100
0010
0001
,
1000
0000
0001
0000
0010
0001
0010
0001
,
0100
0000
1000
0000
0100
0001
0100
0001
,
0010
0000
0001
0010
0001
0000
1000
0010
,
0100
0000
0001
0001
1000
0100
0010
0001
,
1000
0010
1000
0000
0101
0000
1001
0000
,
1000
0100
1000
0000
0001
0100
0010
1000
,
0001
0010
0001
0000
1100
0000
1001
0000
,
0001
0100
0001
0000
1000
0100
0010
0001
,
1000
0001
1000
0000
1010
0000
0101
0000
,
0001
1000
0001
0000
1000
0010
0100
0001
,
1000
0000
0001
0010
0001
0000
1000
0010
,
0100
0000
0001
0001
1000
0100
0010
0001
;

//---------------dance-single - ----------------
#NOTEDATA:;
#CHARTNAME:;
#STEPSTYPE:dance-single;
#DESCRIPTION:;
#CHARTSTYLE:;
#DIFFICULTY:Easy;
#METER:7;
#RADARVALUES:0.376627,0.451374,0.161800,0.038071,0.000000,277.000000,260.000000,17.000000,4.000000,0.000000,0.000000,0.000000,0.000000,0.000000,0.376627,0.451374,0.161800,0.038071,0.000000,277.000000,260.000000,17.000000,4.000000,0.000000,0.000000,0.000000,0.000000,0.000000;
#CREDIT:TonyAkita;
#NOTES:
// measure 0
0000
0000
0000
0000
,  // measure 1
0000
0000
0000
0000
,  // measure 2
0000
0000
0000
0000
,  // measure 3
0000
0000
0000
0000
,  // measure 4
0000
1000
0000
1000
,  // measure 5
0000
0001
0000
0001
,  // measure 6
0000
0010
0000
0010
,  // measure 7
0000
0000
0001
0000
0001
0100
0010
0000
,  // measure 8
1000
0010
1000
0101
,  // measure 9
0001
0010
0001
1100
,  // measure 10
0001
1000
0010
0101
,  // measure 11
1000
0000
0001
0000
0010
0100
0010
0000
,  // measure 12
0001
0010
0001
1100
,  // measure 13
1000
0010
1000
0101
,  // measure 14
1000
0001
0010
1100
,  // measure 15
0001
0000
1000
0000
0010
0100
0010
0000
,  // measure 16
1000
0000
1000
0000
1000
1000
1000
0000
,  // measure 17
0001
0000
0010
0000
0100
1000
0001
0000
,  // measure 18
0001
0000
0001
0000
0001
0001
0001
0000
,  // measure 19
1000
0000
0010
0000
0100
0001
1000
0000
,  // measure 20
0100
0000
0100
0000
0100
0100
0100
0000
,  // measure 21
0010
0000
0001
0000
0010
0100
1000
0000
,  // measure 22
0010
0010
0010
0010
,  // measure 23
0020
0000
0000
0030
,  // measure 24
1000
0010
0100
0010
,  // measure 25
2000
0000
3000
0000
0001
0010
1000
0000
,  // measure 26
0010
0001
0010
0100
,  // measure 27
1000
1000
1000
0000
0001
0000
1001
0000
,  // measure 28
0001
0010
0100
0010
,  // measure 29
0002
0000
0003
0000
1000
0010
0001
0000
,  // measure 30
0010
1000
0010
0100
,  // measure 31
0001
0001
0001
0000
1000
0000
1001
0000
,  // measure 32
2000
0000
0000
0000
,  // measure 33
0000
0000
0000
3000
,  // measure 34
0001
0000
0000
0000
,  // measure 35
0010
0000
0000
0000
,  // measure 36
1001
0000
0001
0010
,  // measure 37
0100
1000
0001
0100
,  // measure 38
1000
0000
1000
0010
,  // measure 39
0100
0001
1000
0100
,  // measure 40
0001
0000
0001
0010
,  // measure 41
1000
0010
0100
1000
,  // measure 42
0001
0000
1000
0010
,  // measure 43
0001
0010
0100
0001
,  // measure 44
1000
0000
1000
0000
1000
1000
1000
0000
,  // measure 45
0001
0000
0010
0000
0100
1000
0001
0000
,  // measure 46
0001
0000
0001
0000
0001
0001
0001
0000
,  // measure 47
1000
0000
0010
0000
0100
0001
1000
0000
,  // measure 48
0100
0000
0100
0000
0100
0100
0100
0000
,  // measure 49
0010
0000
0001
0000
0010
0100
1000
0000
,  // measure 50
0010
0010
0010
0010
,  // measure 51
1000
0001
1000
0001
1000
0001
1000
0000
,  // measure 52
0100
0000
0010
0000
0100
1000
0010
0000
,  // measure 53
0100
0000
0010
0000
0100
0001
0010
0000
,  // measure 54
0100
0000
0010
0000
0100
1000
0001
0000
,  // measure 55
0100
1000
0100
0001
,  // measure 56
0100
0000
0010
0000
0100
0001
0010
0000
,  // measure 57
0100
0000
0010
0000
0100
1000
0010
0000
,  // measure 58
0100
0000
0001
1000
0001
0000
1000
0001
,  // measure 59
1000
0000
0001
0100
0010
0000
1001
0000
,  // measure 60
1000
0010
1000
0101
,  // measure 61
0001
0010
0001
1100
,  // measure 62
0001
0100
0001
1010
,  // measure 63
1000
0100
1000
0011
,  // measure 64
0001
1000
0010
0101
,  // measure 65
1000
0001
0010
1100
,  // measure 66
0001
0000
1000
0001
1000
0000
0001
1000
,  // measure 67
0001
0000
1000
0010
0100
0000
1001
0000
;
