#VERSION:0.83;
#TITLE:Yo!! Say!! Fairy!!;
#SUBTITLE:;
#ARTIST:MYUKKE.;
#TITLETRANSLIT:;
#SUBTITLETRANSLIT:;
#ARTISTTRANSLIT:;
#GENRE:;
#CREDIT:;
#MUSIC:Yo! Say!! Fairy!!.ogg;
#BANNER:Yo! Say!! Fairy!!.png;
#BACKGROUND:Yo! Say!! Fairy!!-bg.png;
#CDTITLE:;
#SAMPLESTART:27.799;
#SAMPLELENGTH:15.000;
#SELECTABLE:YES;
#OFFSET:0.801;
#BPMS:0.000=150.000;
#STOPS:;
#SPEEDS:0.000=1.000=0.000=0;
#SCROLLS:0.000=1.000;
#BGCHANGES:;
#FGCHANGES:;

//--------------- dance-single - forcednature ----------------
#NOTEDATA:;
#STEPSTYPE:dance-single;
#DESCRIPTION:forcednature;
#DIFFICULTY:Beginner;
#METER:4;
#RADARVALUES:0,0,0,0,0;
#NOTES:
0000
0000
0000
0000
,
0000
0000
0000
0000
,
0000
0000
0000
0000
,
0000
0000
0000
0000
,
0000
0000
0000
0000
,
1000
0000
1000
0000
,
0001
0000
0001
0000
,
0100
0000
0100
0000
,
0010
0000
0010
0010
,
0200
0000
0000
0300
,
1001
0000
0000
1000
,
0000
1000
0000
0001
,
0000
0100
0000
0100
,
0000
0010
1000
1000
,
0001
0010
0000
0010
,
0000
0100
0000
0100
,
0000
1000
0000
1000
,
0001
0100
0001
0000
,
1000
1000
1000
0000
,
0001
0001
0001
0000
,
0100
0000
0010
0000
,
1000
0000
0001
0000
,
0010
0010
0010
0000
,
0100
0100
0100
0000
,
1000
0000
0001
0000
,
0100
0100
0100
0000
,
0020
0000
0000
0030
,
2000
0000
0000
3000
,
0002
0000
0000
0003
,
0020
0000
0000
0030
,
0110
0000
1000
0000
,
0001
0000
0100
0000
,
0110
0000
0001
0000
,
1000
0001
1000
0000
,
1000
0001
1000
0000
,
0020
0000
0000
0030
,
0100
0001
0100
0000
,
0010
0010
0010
0000
,
1000
0001
1000
0000
,
0010
0010
0010
0000
,
1000
0100
1000
0001
,
0010
0010
0010
0000
,
0001
1000
0001
0000
,
0010
0010
0010
0000
,
0001
1000
0001
0100
,
0010
0010
0010
0000
,
1000
1000
1000
0000
,
0100
0000
0010
0000
,
0001
0000
0100
0000
,
0001
0001
0001
0000
,
0010
0010
0010
0000
,
0100
0000
1000
0000
,
0001
0001
0001
0000
,
0220
0000
0330
0000
,
2002
0000
3003
0000
,
0220
0000
0330
0000
,
2002
0000
3003
0000
,
1000
1000
1000
0000
,
0001
0001
0001
0000
,
0100
0010
0100
0010
,
1000
0000
0000
1000
0000
0000
1000
0000
,
0001
0000
0000
0001
0000
0000
0001
0000
,
2002
0000
3003
0000
;

//--------------- dance-single - forcednature ----------------
#NOTEDATA:;
#STEPSTYPE:dance-single;
#DESCRIPTION:forcednature;
#DIFFICULTY:Easy;
#METER:7;
#RADARVALUES:0,0,0,0,0;
#NOTES:
0000
0000
0000
0000
,
0000
0000
0000
0000
,
0000
0000
0000
0000
,
0000
0000
0000
0000
,
0000
0000
0000
0000
,
1001
0001
0100
0010
,
1001
1000
0100
0010
,
0110
0100
1000
0001
,
0100
0000
0000
0010
0000
0000
0100
0000
0000
0010
0000
0000
0100
0000
0000
0000
,
2002
0000
0000
3003
,
0110
0001
1000
0001
,
0010
0000
0100
0000
1000
0001
1000
0000
,
0010
0100
0001
0100
,
0010
0000
0000
0000
1000
0000
0000
0000
0001
0000
0000
0001
0000
0000
0000
0000
,
1000
0010
1000
0100
,
0010
0000
0001
0000
0100
0010
0100
0000
,
0001
0000
0010
0000
0100
0000
1000
0001
,
1000
0001
1000
0001
0200
0000
0300
0000
,
0010
0000
1000
0000
0100
0010
0100
0000
,
0010
0000
0001
0000
0100
0010
0100
0000
,
0002
0010
1000
0103
,
2000
0010
0001
3100
,
0001
0000
1000
0000
0100
0010
0100
0000
,
1000
0000
0001
0000
0100
0010
0100
0000
,
0002
0100
1000
0013
,
1000
0000
0000
0001
0000
0000
1000
0000
0000
0001
0000
0000
0100
0000
0000
0000
,
0020
0000
0000
0000
,
2030
0000
0000
0000
,
3002
0000
0000
0000
,
0023
0000
0000
0000
,
0130
1000
0010
1000
,
0001
0100
0001
0010
,
0100
1000
0001
0200
,
0310
0010
0010
0010
,
1000
1000
1000
1000
,
0200
0010
0010
0310
,
1001
0110
2002
3003
,
1000
0100
1000
0000
0100
0000
0010
0000
,
0001
0100
0010
1000
,
0001
0100
0001
0000
0100
0000
0010
0000
,
1000
0000
0100
0000
0010
0010
0010
0000
,
0001
1000
0001
0000
0100
0000
0010
0000
,
1000
0001
0100
0010
,
1000
0001
1000
0000
0001
0000
1000
0000
,
0100
0000
0010
0000
0001
0001
0001
0000
,
1001
0000
1000
0000
0100
0010
0001
0000
,
1000
0000
0001
0000
0100
0010
1000
0000
,
0200
0320
0032
2003
,
3020
0230
0302
1003
,
0001
0000
1000
0000
0010
0100
0001
0000
,
1000
0000
0001
0000
0010
0100
1000
0000
,
0020
0230
0302
0023
,
0230
0000
0000
0000
1300
0000
0000
1000
0000
0000
1000
0000
0010
0000
0000
0000
,
0202
0000
0000
0000
0000
0000
0303
0001
,
2000
0000
0000
3100
,
0220
0000
0000
0000
0330
0010
0000
1000
,
0002
0000
0103
0010
,
1000
0001
1000
0000
0001
1000
0001
0000
,
0010
0100
0010
0000
0002
0000
2003
0000
,
3010
0000
0100
0000
0001
1000
0001
0000
,
1000
0000
0000
0100
0000
0000
0010
0000
0000
0001
0000
0000
0100
0000
0000
0000
,
0001
0000
0000
0100
0000
0000
0010
0000
0000
1000
0000
0000
0100
0000
0000
0000
,
2002
0000
3003
0000
;

//--------------- dance-single - forcednature ----------------
#NOTEDATA:;
#STEPSTYPE:dance-single;
#DESCRIPTION:forcednature;
#DIFFICULTY:Medium;
#METER:10;
#RADARVALUES:0,0,0,0,0;
#NOTES:
0000
0000
0000
0000
,
0000
0000
0000
0000
,
0000
0000
0000
0000
,
0000
0000
0000
0000
,
0000
0000
0000
0000
,
1100
0000
0001
0000
0100
0010
0100
0000
,
0001
0010
0100
1000
0020
0000
0130
0000
,
0001
1000
0100
1000
0010
0100
0001
0000
,
0010
0000
0000
0110
0000
0000
0100
0000
0000
0110
0000
0000
1001
0000
0000
0000
,
1000
0100
0010
0001
0100
0010
1000
0000
,
0001
0000
0101
0000
1000
0010
1000
0000
,
0001
0010
0100
0000
0010
0001
0100
0000
,
0110
0000
1000
0000
0001
0010
0100
0000
,
1000
0000
0001
0000
0100
0000
0000
0000
0010
0000
0000
0010
0000
0000
0100
0000
,
0001
0000
0010
0100
1000
0010
0100
0000
,
0001
1000
0001
0000
0010
0100
1000
0000
,
0110
0000
0001
0000
2000
0000
3010
0100
,
0001
0100
0010
1000
0002
0000
1003
0000
,
0110
0000
0000
0000
1000
0000
0000
0001
0000
0000
0100
0000
0010
0000
1000
0000
,
0001
0000
0000
0000
0010
0000
0000
0100
0000
0000
1000
0000
0010
0000
0000
0000
,
0100
0001
0100
0010
1000
0001
1000
0000
,
0100
0010
0001
0010
0100
1000
0001
0000
,
0110
0000
0000
0000
0001
0000
0000
1000
0000
0000
0001
0000
0010
0000
0100
0000
,
1000
0000
0000
0000
0001
0000
0000
0100
0000
0000
0010
0000
1000
0000
0000
0000
,
0100
0010
0100
0000
1000
0001
0100
0000
,
0010
0000
0000
0110
0000
0000
0100
0000
0000
0110
0000
0000
1001
0000
0000
0000
,
0002
0000
0000
0000
,
0203
0000
0000
0000
,
0320
0000
0000
0000
,
2030
0000
0000
0000
,
3100
0000
0011
0000
0001
1000
0010
0000
,
0100
0000
1010
0000
1000
0001
0010
0000
,
0100
0000
1001
0000
0001
1000
0010
0000
,
0100
0000
0100
0001
1000
0001
0010
0000
,
0100
0000
0100
1000
0001
1000
0010
0000
,
0100
0001
0100
0001
1000
0100
1000
0100
,
0010
0000
0110
0000
1000
0001
1001
0000
,
0001
0100
0001
0100
0010
1000
0001
0000
,
1000
0100
0010
0100
1000
0001
0010
0000
,
0100
1000
0100
1000
0001
0010
0001
0000
,
0100
0001
1000
0010
1000
0001
0100
0000
,
0010
1000
0010
1000
0001
0010
0100
0000
,
1000
0001
0100
0010
1000
0001
0010
0100
,
1000
0001
1000
0001
0100
0010
1000
0001
,
0010
0000
0100
0000
1000
0001
1001
0000
,
0001
0000
0000
0000
0100
0000
0000
0010
0000
0000
1000
0000
0001
0000
1000
0000
,
0100
0000
0010
0000
0001
0000
0000
0100
0000
0000
0010
0000
1000
0000
0000
0000
,
0001
0010
0001
0100
0001
0010
0100
0000
,
1000
0010
1000
0100
1000
0010
0100
0000
,
0001
0000
0010
0000
0100
0000
0000
1000
0000
0000
0001
0000
0100
0000
0010
0000
,
1000
0000
0100
0000
0010
0000
0000
0100
0000
0000
1000
0000
0001
0000
0100
0000
,
0010
1000
0100
1000
0010
1000
0100
0000
,
0110
0000
0000
0000
0001
0000
0000
1000
0000
0000
0010
0000
0100
0000
0000
0000
,
2001
0000
0100
0000
0001
0000
3010
1000
,
1002
0010
0103
0110
,
1002
0000
0100
0000
1003
0001
0010
0100
,
2000
0000
0010
0000
3100
1000
0001
0000
,
0100
0001
0010
0001
1000
1000
1000
0000
,
0100
1000
0010
1000
0001
0001
0001
0000
,
0010
0100
1000
0001
0100
0100
0100
0000
,
0001
0000
0000
0110
0000
0000
0010
0000
0000
0110
0000
0000
1000
0000
0001
0000
,
1000
0000
0000
0110
0000
0000
0010
0000
0000
0110
0000
0000
0001
0000
0000
0000
,
2002
0000
3003
0000
;

//--------------- dance-single - ----------------
#NOTEDATA:;
#STEPSTYPE:dance-single;
#DESCRIPTION:;
#DIFFICULTY:Hard;
#METER:13;
#RADARVALUES:0,0,0,0,0;
#CREDIT:Talkion;
#NOTES:
0000
0000
0000
0000
,
0000
0000
0000
0000
,
0000
0000
0000
0000
,
0000
0000
0000
0000
,
0000
0000
0000
0000
,
2001
0000
3100
0000
0010
0010
0100
0000
,
1000
0010
1000
0010
0001
0000
0110
0000
,
1000
0000
0100
0000
0010
0000
0100
0000
1000
0001
1000
0000
0010
0000
0100
0000
,
0101
0000
0000
1001
0000
0000
1100
0000
0000
0110
0000
0000
0011
0000
0000
0000
,
0001
0000
1000
0000
0001
0000
1000
0000
0001
0000
1000
0010
0100
0000
0000
0000
,
0101
0000
0001
0000
1000
0000
0001
0000
0010
0100
0000
0100
1000
0000
0100
0000
,
0010
0000
0010
0000
0001
0000
1000
0000
0010
0100
0000
0100
0001
0000
1000
0000
,
0100
0000
0100
0000
0010
0000
0010
0000
0001
1000
0000
0001
1000
0000
0010
0000
,
0100
0000
0100
0000
0001
0000
1000
0000
1001
0000
0000
1100
0000
0000
0100
0000
,
0110
0010
0001
1000
0010
0100
0100
0100
,
0001
0000
1000
0000
0010
0000
1000
0000
0001
0010
0000
0010
0100
0000
1000
0000
,
0001
1000
0010
1000
0001
0001
0010
1000
,
0100
0001
0010
1000
0100
0001
1001
0000
,
1000
0000
0100
0000
0100
0000
0010
0100
0000
0010
0001
0000
1000
0000
0010
0000
,
0001
0000
0010
0100
0010
0000
0100
0001
0000
1000
0001
0000
0010
0000
0010
0000
,
0100
1000
0001
1000
0010
0100
0010
1000
,
0001
0000
0010
0000
0100
0000
1000
0000
0001
1000
0001
0000
0200
0000
0300
0000
,
0001
0000
0010
0000
0010
0000
0100
0010
0000
0100
1000
0000
0001
0000
1000
0000
,
0010
0000
0100
0001
0100
0000
0010
0001
0000
0010
0100
0000
0001
0000
0001
0000
,
1000
0100
0010
0001
1000
0001
0100
0010
,
1010
0000
0000
1001
0000
0000
0011
0000
0000
0110
0000
0000
1100
0000
0000
0000
,
1000
0001
0010
0001
1000
0010
0100
0000
,
0001
0000
0001
0000
1000
0100
1000
0000
,
0001
1000
0010
1000
0001
0010
0100
0000
,
1000
0000
0000
1000
0000
0000
1000
0000
0001
0000
0100
0000
0001
0000
0000
0000
,
1001
1000
0100
1000
0001
0100
0010
0000
,
1001
0001
0010
0001
1000
0010
0100
0000
,
1001
1000
0100
1000
0001
0100
0020
0030
,
1000
0100
0010
0100
1000
0010
0100
0001
,
0010
0100
0010
0001
0100
0010
0010
0000
,
1000
0100
0010
0100
1000
0010
0100
0001
,
0010
1000
0100
0001
0010
0100
0110
0000
,
1000
0000
0001
0010
0001
0000
1000
0010
1000
0000
0001
0000
0001
0000
0100
0000
,
0010
1000
0100
0010
0100
1000
1001
0000
,
0001
0000
0100
0010
0100
0000
0001
1000
0001
0000
0010
0000
0010
0000
0100
0000
,
0001
0100
0010
0001
0100
0100
1001
0000
,
0001
0000
1000
0100
1000
0000
0001
0100
0001
0000
1000
0000
1000
0000
0010
0000
,
0100
0001
0010
0100
0010
0001
0001
1000
,
0010
0100
0010
0001
1000
0100
0100
0010
,
0001
0010
0100
0001
0010
0010
1001
0000
,
0001
0000
1000
0000
1000
0000
0100
1000
0000
0100
0010
0000
0100
0000
0001
0000
,
1000
0000
0010
0100
0010
0000
0100
1000
0000
0001
1000
0000
0010
0000
0010
0000
,
0100
0000
0001
0000
1000
0000
0001
0010
0000
0001
0010
0000
0001
0000
1000
0000
,
0100
0000
0010
0000
0001
0000
1000
0010
0000
1000
0010
0000
1001
0000
0000
0000
,
1000
0000
0001
0000
0001
0000
0010
0001
0000
0010
0100
0000
0010
0000
0001
0000
,
1000
0000
0010
0000
0100
0000
1000
0001
0000
1000
0100
0000
0010
0000
0010
0000
,
1000
0000
0001
0000
0010
0000
0100
0010
0000
0100
0010
0000
0001
0000
1000
0000
,
1001
0000
0000
0000
1010
0000
0000
0101
0000
0000
1010
0000
1001
0000
0000
0000
,
0210
0000
0000
0000
0000
0000
0300
0110
,
2001
0000
0000
0000
0000
3000
0110
0000
,
1002
0000
0000
0000
0000
0100
0000
0103
,
2001
0000
0000
3000
0100
0010
0002
0003
,
1000
0000
0010
0000
0100
0000
0001
1000
0001
1000
0000
0001
0010
0000
0001
0000
,
1000
0100
1000
0100
1000
0000
0001
0100
0001
0100
0000
0010
0100
0000
0001
0000
,
1000
0000
0100
0000
0010
0100
0010
0000
0001
1000
0001
0000
0100
0000
0010
0100
,
0001
0000
0000
1001
0000
0000
1100
0000
0000
0110
0000
0000
0011
0000
0001
1000
,
0001
0000
0000
0101
0000
0000
0110
0000
0000
1010
0000
0000
1001
0000
0000
0000
,
1200
0000
0000
0000
0000
0000
0310
0001
2000
0000
0000
0000
0000
0000
0000
0000
,
0000
3000
0000
0000
;

//--------------- dance-single - ----------------
#NOTEDATA:;
#STEPSTYPE:dance-single;
#DESCRIPTION:;
#DIFFICULTY:Challenge;
#METER:16;
#RADARVALUES:0,0,0,0,0;
#CREDIT:Talkion;
#NOTES:
0000
0000
0000
0000
,
0000
0000
0000
0000
,
0000
0000
0000
0000
,
0000
0000
0000
0000
,
0000
0000
0000
0000
,
1000
0100
0010
0000
0001
0000
0100
0010
0100
0001
1000
0000
0001
0000
0010
0100
,
1000
0001
1000
0000
0010
0000
0100
1000
0100
0010
1000
0000
0001
0000
1000
0100
,
0010
0001
1000
0000
0010
0000
0100
0001
0100
0010
1000
0000
1000
0000
0001
0010
,
1000
0000
0000
1010
0000
0000
0110
0000
0000
0011
0000
0000
1001
0000
0000
0000
,
1000
0000
1000
0000
0010
0000
0010
0000
0100
0000
0100
0001
0010
0000
0000
0000
,
1001
0000
1000
0000
0010
0000
0100
0000
0001
0010
0000
0010
0100
0000
0010
0000
,
0001
1000
0001
0100
0010
0000
1000
0000
0100
0010
0000
0010
0001
0000
0100
0000
,
0110
0000
0001
1000
0001
0010
0100
0000
1000
0001
1000
0020
0100
0000
1030
0000
,
0001
0000
1000
0100
0010
0000
0001
0100
1000
0000
0000
1100
0000
0000
0100
0010
,
1000
0000
0001
1000
0100
1000
0100
1000
0001
0000
0011
0000
0110
0000
2100
0000
,
3001
0000
0001
0000
0100
0000
0100
0000
0010
1000
0000
2000
0100
0000
3001
0000
,
0011
0000
1000
0000
0011
0000
1000
0000
0100
1000
0010
0000
1010
0000
0101
0000
,
1100
0000
0011
0000
1010
0000
0101
0000
1001
0000
1000
0100
0010
0000
0100
1000
,
0001
0000
1000
0010
0100
0000
0100
0001
0000
0001
0010
0000
0010
0000
0100
0010
,
1000
0000
0010
0001
0100
0000
0100
0010
0000
0010
1000
0001
1000
0000
0100
0000
,
0010
0100
1000
0001
0000
0001
0100
0000
0010
1000
0001
1000
0100
0010
0001
0000
,
1000
0010
0100
0000
0001
0010
0100
0000
1000
0010
1000
0010
0100
0000
0010
1000
,
0001
0000
1000
0100
0010
0000
0010
0001
0000
0001
0100
0000
0100
0000
0010
0001
,
0010
0000
1000
0001
0010
0000
0010
1000
0000
1000
0010
0100
1000
0000
0001
0000
,
0100
0010
1000
0001
0000
0001
0010
0000
0100
1000
0001
1000
0010
0100
0001
0000
,
1001
0000
1000
0100
0000
0010
0100
0000
0001
0100
0010
0100
1000
0000
0000
0000
,
1001
0000
0001
0000
0100
0000
0001
0000
1000
0000
0100
0010
0100
0000
1000
0000
,
0001
0000
0000
0001
0100
0000
0100
0000
0010
0000
1000
0000
0001
0000
0000
0000
,
1000
0000
0001
0000
0010
0000
0001
0000
1000
0000
0010
0100
0010
0000
1000
0000
,
0001
0000
0000
0001
0000
0000
0001
0000
0010
0000
0100
0000
1000
0001
1000
0001
,
0100
0000
0010
0000
1000
0000
0010
0000
0100
0000
0001
1000
0001
0000
0010
0000
,
1001
1000
0010
0100
0001
0010
0001
0100
,
1001
0000
1000
0000
0100
0000
1000
0000
0001
0000
0100
0010
0200
0000
0300
0000
,
1001
0000
0001
0010
0100
0000
1000
0010
0100
0000
0001
0010
0001
0000
1000
0000
,
0010
0100
0001
0000
1000
0000
0100
0010
0100
0000
1000
0000
1001
0000
0000
0000
,
0001
0100
0010
0100
0001
0010
0100
0010
0002
0000
0203
0000
2300
0000
3002
0000
,
0013
1000
0100
0000
0110
0000
1000
0000
1001
0000
0001
0100
0010
1000
0001
0010
,
0100
0000
0001
0100
0010
0000
0001
0100
0010
0000
1000
0001
1000
0000
0100
0000
,
0010
0100
1000
0000
0001
0000
0100
0010
0100
0000
0001
0000
1002
0000
0000
0000
,
0013
0000
1000
0010
0100
0000
1000
0010
0100
0000
0001
0000
0001
0000
0010
0000
,
1000
0010
0100
0000
0100
0000
1000
0000
1001
0000
0101
0000
1020
0000
0000
0000
,
0130
0000
1000
0100
0010
0000
1000
0100
0010
0000
0001
1000
0001
0000
0100
0000
,
0010
0100
0001
0000
1000
0000
0100
0010
0100
0000
1000
0000
1001
0000
0001
0100
,
0010
0000
1000
0100
0010
0000
0001
0100
1000
0000
0100
0000
0100
0000
0001
0000
,
0010
0100
1000
0000
1000
0000
0010
0000
1010
0000
0101
0000
1001
0000
1000
0100
,
0010
0000
0001
0000
0001
0000
0100
0010
0000
0010
1000
0000
1000
0000
0100
0010
,
1000
0000
0001
0100
0010
0000
0010
0001
0000
0001
1000
0010
0100
0000
0001
0000
,
1000
0000
0100
0010
0100
0000
1000
0010
0000
0010
0100
0000
0010
0000
1000
0000
,
0001
0000
0010
0100
0010
0000
1000
0010
0000
0010
0001
0100
0010
0000
1000
0010
,
0100
0000
0001
0000
0001
0000
0010
0100
0000
0100
1000
0000
1000
0000
0010
0100
,
0001
0000
1000
0100
0010
0000
1000
0001
0000
0001
0100
0010
0001
0000
1000
0000
,
0001
0000
0100
0010
0100
0000
0001
0010
0000
0010
0100
0000
0010
0000
0001
0000
,
1001
0000
1000
0010
0100
0000
1000
0100
0000
0100
0001
0000
1001
0000
1000
0100
,
0020
0000
0000
0000
0000
0000
0030
0110
,
1002
0000
0000
0000
0000
0003
0110
0000
,
2001
0000
0000
0000
0000
0010
0000
3010
,
1002
0000
0000
0000
0000
0000
0003
0000
0010
0001
0010
0001
1000
0000
0010
0100
,
0001
0000
0000
0100
0000
0000
0010
0000
0000
0000
0000
0000
1000
0000
0000
0000
0000
0000
0100
0000
0000
0010
0000
0000
0100
0000
0000
1000
0000
0000
0000
0000
0000
1000
0000
0000
0001
0000
0000
0000
0000
0000
0100
0000
0010
0000
0100
0000
,
0010
0000
0000
1000
0000
0000
0001
0000
0000
1000
0000
0000
0100
0000
0000
0000
0000
0000
0010
0000
0000
1000
0000
0000
0010
0000
0000
0100
0000
0000
0000
0000
0000
0100
0000
0000
1000
0000
0000
0000
0000
0000
0001
0000
0100
0000
0001
0000
,
0100
0000
0000
0010
0000
0000
1000
0000
0000
0000
0000
0000
0001
0000
0000
0010
0000
0000
0100
0000
0000
1000
0000
0000
0100
0000
0000
0010
0000
0000
0001
0000
0000
1000
0000
0000
0010
0000
0100
0000
0010
0000
0100
0000
0000
0001
0000
0000
,
1000
0000
1000
0100
0000
0100
0001
0000
0001
0100
0000
0100
1000
0000
0001
1000
,
0001
0000
0001
0100
0000
0100
1000
0000
1000
0100
0000
0100
0001
0000
0000
0000
,
2001
0000
0000
0000
0000
0000
3100
0010
0002
0000
0000
0000
0000
0000
0000
0000
,
0000
0003
0000
0000
;
