#VERSION:0.83;
#TITLE:Wandering Gravity;
#SUBTITLE:;
#ARTIST:Nazzo-Non-Heat;
#TITLETRANSLIT:;
#SUBTITLETRANSLIT:;
#ARTISTTRANSLIT:;
#GENRE:;
#CREDIT:;
#MUSIC:Wandering Gravity.ogg;
#BANNER:Wandering Gravity-bn.png;
#BACKGROUND:Wandering Gravity-BG.png;
#CDTITLE:;
#SAMPLESTART:25.440;
#SAMPLELENGTH:10.412;
#SELECTABLE:YES;
#OFFSET:-0.052;
#BPMS:0.000=170.000;
#STOPS:;
#BGCHANGES:;
#FGCHANGES:;

//--------------- dance-single - eataninja ----------------
#NOTEDATA:;
#STEPSTYPE:dance-single;
#DESCRIPTION:eataninja;
#DIFFICULTY:Beginner;
#METER:5;
#RADARVALUES:0,0,0,0,0;
#NOTES:
0000
0000
0000
0000
,
0000
0000
0000
0000
,
0000
0000
0000
0000
,
0000
0000
0000
0000
,
0000
0000
0000
0000
,
1001
1001
0000
0000
,
0000
0000
0000
0000
,
0010
0000
0000
0100
,
0000
0000
0001
0000
,
1001
1001
0000
0000
,
0000
0000
0000
0000
,
0110
0110
0000
0000
,
0000
0000
0000
0000
,
1001
1001
0000
0000
,
0000
0000
0000
0000
,
0001
0000
0000
0100
,
0020
0000
0000
0000
,
0000
0000
0030
0000
,
1000
1000
1000
0000
,
0001
0000
0010
0000
,
0100
0100
0100
0000
,
1000
0000
0001
0000
,
0001
0001
0001
0000
,
1000
0000
0100
0000
,
0001
0000
0000
0100
,
0000
0000
0010
0000
,
0001
1000
0001
0001
,
1000
0000
0010
0000
,
0100
0001
0100
0100
,
0001
0000
1000
0000
,
0001
1000
0001
0001
,
1000
0000
0100
0000
,
0010
0000
0000
0001
,
0000
0000
0100
0000
,
0120
0000
0100
0000
,
0100
0000
0130
0000
,
2001
0000
0100
0000
,
0100
0000
3100
0000
,
0210
0000
0010
0000
,
0010
0000
0310
0000
,
1002
0000
0010
0000
,
0010
0000
0013
0000
,
0001
1000
0010
0000
,
1000
0001
0100
0000
,
0220
0000
0330
0000
,
2002
0000
3003
0000
,
1000
0100
0010
0000
,
0001
1000
0010
0000
,
0220
0000
0330
0000
,
2002
0000
3003
0000
,
0001
1000
0100
0000
,
1000
0001
0010
0000
,
0220
0000
0330
0000
,
2002
0000
3003
0000
,
1000
0000
0000
0010
,
0000
0000
0100
0000
,
0001
0000
0000
0010
,
0000
0000
0100
0000
,
2001
0000
0000
3100
,
0010
0000
1002
0000
,
0000
0103
0010
0000
,
1000
0000
0000
0001
,
2000
0000
3200
0000
,
0320
0000
0032
0000
,
0203
0000
0000
0000
,
0000
0000
0000
0000
,
0000
0000
0000
0300
,
0000
0000
0000
0000
,
0001
1000
0001
0001
,
0001
0000
0100
0000
,
0010
1000
0010
0010
,
0010
0000
0100
0000
,
0001
1000
0001
0001
,
0001
0000
0010
0000
,
0100
0000
0000
0001
,
0000
0000
0100
0000
,
1000
0001
1000
0001
,
1000
0010
0010
0000
,
0100
0001
0100
0001
,
1000
0001
0001
0000
,
1000
0001
1000
0001
,
1000
0100
0100
0000
,
0110
0000
0000
1001
,
0000
0000
0000
0000
0000
0001
0000
0100
;

//--------------- dance-single - eataninja ----------------
#NOTEDATA:;
#STEPSTYPE:dance-single;
#DESCRIPTION:eataninja;
#DIFFICULTY:Easy;
#METER:9;
#RADARVALUES:0,0,0,0,0;
#NOTES:
0000
0000
0000
0000
,
0000
0000
0000
0000
,
0000
0000
0000
0000
,
0000
0000
0000
0000
,
0000
0000
0000
0000
,
0001
0000
0001
0000
0100
0000
0000
0010
,
0000
0000
1000
0000
0000
0001
0000
0000
,
0010
0000
0000
0110
0000
0000
1000
0000
,
0000
1001
0000
0000
0010
0000
0100
0000
,
0001
0000
0001
0000
0010
0000
0000
0100
,
0000
0000
1000
0000
0000
0010
0000
0000
,
1000
0000
1000
0000
0100
0000
0000
0010
,
0000
0000
0001
0000
0000
0100
0000
0000
,
0001
0000
0001
0000
1000
0000
0000
0100
,
0000
0000
0010
0000
0000
0001
0000
0000
,
1000
0000
0000
1001
0000
0000
0010
0000
,
0000
0220
0000
0000
0000
0000
0000
0000
,
0000
0000
0330
0000
,
1000
1000
0001
0001
,
0010
0100
1000
0000
,
0001
0001
0100
0100
,
1000
0100
0001
0000
,
0001
0001
1000
1000
,
0100
0010
0001
0000
,
1000
0000
0000
0010
0000
0000
0100
0000
,
0000
0010
0000
0000
1000
0000
0001
0000
,
0020
1030
0020
0130
,
0020
0031
1000
1000
,
0020
0031
0020
0130
,
0020
1030
0001
1000
,
0200
0301
0200
0310
,
0200
1300
0001
0001
,
0100
0000
0000
0010
0000
0000
1000
0000
,
0000
0001
0000
0000
0010
0000
0100
0000
,
1001
0000
1002
0000
0100
0000
0000
1000
,
0000
0103
0000
0000
,
1001
0000
2001
0000
0100
0000
0000
0001
,
0000
3100
0000
0000
,
1001
0000
1002
0000
0010
0000
0000
1000
,
0000
0103
0000
0000
,
1001
0000
2001
0000
0010
0000
0000
0001
,
0000
3100
0000
0000
,
0100
0010
0001
0100
,
1000
0100
0001
1000
,
0200
0000
0000
0302
0000
0000
0103
0000
,
2000
0000
0000
3020
0000
0000
0130
0000
,
0001
1000
0100
0001
,
0100
0010
0001
0001
,
2000
0000
0000
3020
0000
0000
1030
0000
,
0200
0000
0000
0302
0000
0000
0103
0000
,
0010
0001
0100
0010
,
0001
0010
1000
0001
,
0020
0000
0000
2030
0000
0000
3010
0000
,
0002
0000
0000
0203
0000
0000
0310
0000
,
1010
0000
0000
1001
0000
0000
1010
0000
,
0000
1001
0000
0000
0000
0000
0000
0000
,
0011
0000
0000
1001
0000
0000
0011
0000
,
0000
1001
0000
0000
0000
0000
0000
0000
,
0010
0000
0000
0100
0000
0000
1001
0000
,
0000
0000
0000
0000
1000
0000
0000
0010
,
0000
0110
0000
0000
,
0200
0000
0000
0302
0000
0000
1003
0000
,
0200
0320
0032
0203
,
2300
3200
0302
2003
,
3200
0000
0000
0000
,
0000
0000
0000
0000
,
0000
0000
0000
0300
,
0010
0000
0000
0010
0000
0000
0010
0000
,
0001
1000
0001
0001
,
0100
0010
1000
0000
,
0100
0001
0100
0100
,
0010
0001
1000
0000
,
0010
0100
0001
0001
,
1000
0100
0010
0000
,
0001
0000
0000
0100
0000
0000
0010
0000
,
0000
1000
0000
0100
0000
0000
0000
0000
,
2000
3100
0002
0103
,
0020
0130
1000
0010
,
0200
1300
0200
0310
,
0200
0301
1000
1000
,
0002
0013
2000
3010
,
0200
0310
0001
1000
,
0010
0000
0000
0100
0000
0000
0001
0000
,
0000
1000
0000
1100
0000
0001
0000
0010
;

//--------------- dance-single - Highflyer ----------------
#NOTEDATA:;
#STEPSTYPE:dance-single;
#DESCRIPTION:Highflyer;
#DIFFICULTY:Medium;
#METER:11;
#RADARVALUES:0,0,0,0,0;
#NOTES:
0000
0000
0000
0000
,
0000
0000
0000
0000
,
0000
0000
0000
0000
,
1001
0000
1001
0000
2000
0100
3000
2000
,
0001
3000
2000
0010
3000
1000
0100
0010
,
0001
0000
0001
0000
0200
0010
0300
0200
,
1000
0300
0200
0001
0300
0100
0010
1000
,
0001
0000
0000
0001
0000
0000
0010
0000
0000
0010
0000
0000
0100
0000
0000
0100
,
0000
0000
0020
0000
0030
0001
0000
0000
1000
0000
0020
0000
0200
0000
0030
0000
,
0310
0000
0010
0000
0200
0001
0300
0010
,
2000
0000
3100
0020
0000
0130
1000
0001
,
0100
0000
0100
0000
0002
0010
0003
0002
,
0100
0003
0002
1000
0003
0001
0010
0100
,
1000
0000
1000
0000
0002
0100
0003
0002
,
0010
0003
0002
1000
0003
1000
0010
0100
,
0001
0000
0000
0001
0000
0000
1000
0000
0000
1000
0000
0000
0100
0000
0000
0100
,
0000
0020
0000
0000
0000
0000
0000
0001
,
0000
0000
0001
0000
0000
0001
0000
0000
0000
0000
0000
0000
0000
0000
0030
0000
,
1001
0000
0000
2000
0000
3020
0000
0032
,
0000
0003
0000
0020
0000
2000
0000
3030
,
1001
0000
0000
2000
0000
3200
0000
0302
,
0000
0003
0000
0200
0000
2000
0000
3300
,
1001
0000
0000
0002
0000
0023
0000
2030
,
0000
3000
0000
0020
0000
0002
0000
0033
,
1000
0000
0000
0010
0000
0000
1010
0000
1000
0000
0000
0000
1000
0000
0000
0100
,
0000
1100
1000
0001
0000
2000
0000
0000
,
3001
0020
0030
0100
2000
3000
0001
0200
,
0300
0010
1000
0001
1000
0100
0001
0100
,
1000
0002
0003
0100
0020
0030
1000
0001
,
1000
0100
0010
0001
1000
0010
0100
0001
,
1000
0200
0300
1000
0020
0030
0100
0002
,
0003
1000
0001
0100
0001
0010
1000
0010
,
0002
0000
0000
2003
0000
0000
3020
0000
,
0000
0230
0000
0002
0000
0303
0000
0000
,
1001
0000
1001
0000
2000
0000
0000
3200
,
0000
0000
0320
0000
0000
0031
0000
0000
,
1010
0000
1010
0000
2000
0000
0000
3020
,
0000
0000
0230
0000
0000
0310
0000
0000
,
0110
0000
0110
0000
0002
0000
0000
2003
,
0000
0000
3200
0000
0000
0320
0000
0030
,
1001
0000
1001
0000
2000
0000
0000
3002
,
0000
0000
0203
0000
0000
0320
0000
0030
,
1000
0010
1000
0000
0001
0010
0001
0000
,
1000
0100
1000
0000
0001
0100
0001
0000
,
1000
0000
0000
1000
0000
0000
0001
0000
0000
0001
0000
0000
0110
0000
0000
0000
,
0100
0000
0000
0100
0000
0000
0010
0000
0000
0010
0000
0000
1001
0000
0000
0000
,
1000
0100
1000
0000
0001
0100
0001
0000
,
1000
0010
1000
0000
0001
0010
0001
0000
,
0100
0000
0000
0100
0000
0000
0010
0000
0000
0010
0000
0000
0110
0000
0000
0000
,
1000
0000
0000
1000
0000
0000
0001
0000
0000
0001
0000
0000
1001
0000
0000
0000
,
1000
0100
0010
0000
0001
0100
0010
0000
,
0100
0001
1000
0000
0100
0010
0001
0000
,
1000
0000
0000
0001
0000
0000
1000
0000
0000
0001
0000
0000
1001
0000
0000
0000
,
0100
0000
0000
0010
0000
0000
0100
0000
0000
0010
0000
0000
0110
0000
0000
0000
,
1010
0000
0000
1001
0000
0000
0011
0000
,
0000
0110
0000
0000
0001
0100
1000
0100
,
0101
0000
0000
1001
0000
0000
1100
0000
,
0000
0110
0000
0000
1000
0100
0001
0100
,
1100
0000
0000
1001
0000
0000
0101
0000
,
0001
0010
1000
0010
0011
0000
0000
1001
,
0000
0000
0110
0000
1000
0010
0001
0010
,
1010
0000
0000
0110
0000
0000
0102
0000
,
2003
3200
0320
0230
,
2300
3002
0203
0320
,
0230
0000
0000
0000
,
0000
0000
0000
0000
,
0000
0000
0000
0000
0000
0000
0000
0300
,
0002
0003
1000
0000
0100
0010
0100
0010
,
1001
0000
0000
0002
0000
0023
0000
2030
,
0000
3000
0000
0020
0000
0002
0000
0033
,
1001
0000
0000
0002
0000
0203
0000
2300
,
0000
3000
0000
0200
0000
0002
0000
0303
,
1001
0000
0000
2000
0000
3020
0000
0032
,
0000
0003
0000
0020
0000
2000
0000
3030
,
0001
0000
0000
0010
0000
0000
0011
0000
0001
0000
0000
0000
0001
0000
0000
0100
,
0000
0101
0001
1000
0000
0002
0000
0000
,
1003
0020
0030
0100
0002
0003
1000
0200
,
0300
0010
0001
1000
0001
0100
1000
0100
,
0001
2000
3000
0100
0020
0030
0001
1000
,
0001
0100
0010
1000
0001
0010
0100
1000
,
0001
0200
0300
0001
0020
0030
0100
2000
,
3000
0001
1000
0100
1000
0010
0001
0010
,
2000
0000
0000
3002
0000
0000
0023
0000
,
0000
0230
0000
2000
3300
1001
0000
1001
;

//--------------- dance-single - Highflyer ----------------
#NOTEDATA:;
#STEPSTYPE:dance-single;
#DESCRIPTION:Highflyer;
#DIFFICULTY:Hard;
#METER:14;
#RADARVALUES:0,0,0,0,0;
#NOTES:
0000
0000
0000
0000
,
0000
0000
0000
0000
,
0000
0000
0000
0000
,
1001
0000
0110
0000
1000
0100
0001
1000
,
0010
0001
1000
0100
0001
1000
0010
0100
,
0110
0000
1001
0000
0001
0100
1000
0001
,
0010
1000
0001
0100
1000
0001
0010
0100
,
0101
0000
0000
0101
0000
0000
1100
0000
0000
1100
0000
0000
1010
0000
0000
1010
,
0000
0000
0001
0000
0010
0100
0000
0010
0001
0000
1000
0000
0010
0000
0100
0000
,
0101
0000
1010
0000
0010
0100
1000
0100
,
0010
0001
0010
0100
1000
0100
0001
1000
,
1100
0000
0011
0000
0010
0100
0001
0100
,
0010
1000
0010
0100
0001
0100
1000
0010
,
0110
0000
1001
0000
0001
0100
1000
0001
,
0010
1000
0010
0100
1000
0100
0001
0010
,
0110
0000
0000
0110
0000
0000
0011
0000
0000
0011
0000
0000
1010
0000
0000
1010
,
0000
0000
2000
0000
0000
0001
0000
0000
0001
0000
0000
0001
0000
0000
3100
0000
,
0000
0000
0100
0000
0000
0100
0000
0000
0010
0000
0001
0000
1000
0000
0010
0000
,
0110
0000
0000
1001
0000
0011
0000
1200
,
0000
0000
0000
0001
0000
1300
0000
0000
,
1001
0000
0000
0101
0000
1010
0000
0120
,
0000
0000
0000
0001
0000
1030
0100
0010
,
0011
0000
0000
1001
0000
1010
0000
1200
,
0000
0000
0000
0001
0000
1300
0000
0000
,
0101
0000
0000
0010
0000
0000
1010
0000
1000
0000
0001
0000
0011
0000
0000
0010
,
0000
0001
0100
0110
0000
0010
1000
0001
,
0010
0000
0100
1000
0100
0000
0010
0000
0001
0100
0001
0000
1000
0000
0100
0010
,
0100
0010
0001
0100
0010
0100
1000
0100
,
0010
0000
1000
0001
1000
0000
0100
0000
0010
0001
0010
0000
0100
0000
1000
0000
,
0010
0100
0010
0001
0010
0100
0010
1000
,
0001
0000
0010
0100
0010
0000
0100
0000
1000
0010
1000
0000
0010
0000
0100
0001
,
0100
0010
1000
0100
0010
0100
0001
0100
,
1000
0010
0100
0000
1000
0000
0100
0010
1000
0000
0100
0000
0010
0100
1000
0000
,
0001
0101
0000
1010
0000
0002
2000
3000
,
0013
0000
0010
0000
0001
0100
1000
0100
,
0010
1000
0100
0010
1000
0020
0000
0030
,
0100
0000
0100
0000
1000
0100
0001
0100
,
0010
0001
0100
0010
0001
0020
0000
0030
,
1000
0000
1000
0000
0001
0010
1000
0010
,
0100
1000
0010
0100
1000
0200
0000
0300
,
0001
0000
0001
0000
1000
0010
0001
0010
,
0100
0001
0010
0100
0001
0200
0000
0300
,
1000
0010
0100
0001
1000
0100
1000
0001
,
0100
0010
0100
0001
1000
0100
0010
0010
,
0100
0000
0000
0100
0000
0000
0100
0000
0000
0100
0000
0000
1001
0000
0000
0000
,
0100
0000
0000
0100
0000
0000
0100
0000
0000
0100
0000
0000
1001
0000
0000
0000
,
0001
0100
0010
1000
0100
0010
0100
1000
,
0001
0100
0001
1000
0010
0100
0100
0100
,
0001
0000
0000
0001
0000
0000
0001
0000
0000
0001
0000
0000
0110
0000
0000
0000
,
1000
0000
0000
1000
0000
0000
1000
0000
0000
1000
0000
0000
0110
0000
0000
0000
,
1000
0100
0010
0100
1000
0001
1000
0010
,
0100
0001
0100
0010
1000
0100
0010
0010
,
0100
0000
0000
0100
0000
0000
0100
0000
0000
0100
0000
0000
1100
0000
0000
0000
,
0010
0000
0000
0010
0000
0000
0010
0000
0000
0010
0000
0000
0011
0000
0001
0000
,
2000
3010
0001
0020
1030
0100
0002
0103
,
1000
0002
0103
1000
0100
0010
0100
0010
,
2000
3100
0001
0200
1300
0010
0002
0013
,
1000
0200
0310
0001
1000
0010
0100
0010
,
2000
0000
0000
3002
0000
0000
0023
0000
,
0130
1000
0100
0010
0002
0000
0000
0203
,
0000
0000
0320
0000
1030
0001
0100
0010
,
2000
0000
0000
0000
0000
0000
3200
0000
0000
0000
0000
0000
0310
0001
0010
0000
,
0200
2300
3002
0203
,
2300
3200
0302
0023
,
2030
0000
0000
0000
,
0000
0000
0000
0000
,
0000
0000
0000
0000
0000
0000
0000
3000
,
0010
0000
0000
0001
1000
0000
0010
0000
0100
0001
0100
0000
0020
0000
0030
0000
,
0110
0000
0000
1001
0000
1100
0000
0021
,
0000
0000
0000
1000
0000
0031
0000
0000
,
1001
0000
0000
1010
0000
0101
0000
0210
,
0000
0000
0000
1000
0000
0301
0010
0100
,
1100
0000
0000
1001
0000
0101
0000
0021
,
0000
0000
0000
1000
0000
0031
0000
0000
,
1010
0000
0000
0100
0000
0000
0101
0000
0001
0000
1000
0000
1100
0000
0000
0100
,
0000
1000
0010
0110
0000
0100
0001
1000
,
0100
0000
0010
0001
1000
0000
0100
0000
1000
0010
0100
0000
0001
0000
0010
0100
,
1000
0100
1000
0010
0100
0010
0001
0010
,
0100
0000
0001
1000
0100
0000
0010
0000
0100
1000
0001
0000
0010
0000
0001
0000
,
0100
0010
0100
1000
0100
0010
0100
0001
,
1000
0000
0100
0010
0001
0000
0010
0000
0001
0100
0010
0000
0100
0000
0010
1000
,
0001
0100
0001
0010
0100
0010
1000
0010
,
0001
0100
0001
0000
0010
0000
0100
1000
0100
0000
1000
0000
0001
0100
0001
0000
,
0100
0101
0000
1010
0000
1001
0000
1001
;

//--------------- dance-single - Highflyer ----------------
#NOTEDATA:;
#STEPSTYPE:dance-single;
#DESCRIPTION:Highflyer;
#DIFFICULTY:Challenge;
#METER:18;
#RADARVALUES:0,0,0,0,0;
#NOTES:
0000
0000
0000
0000
,
0000
0000
0000
0000
,
0000
0000
0000
0000
,
1001
0000
0000
0000
0110
0000
0000
0000
1000
0100
1000
0100
0010
0000
0001
0100
,
0001
0100
0010
0000
1000
0001
1000
0001
0100
0000
0010
0100
0001
1000
0100
0010
,
0200
0000
0000
0000
2300
0000
0000
0000
3001
0010
0001
0010
0100
0000
1000
0010
,
1000
0010
0100
0000
0001
0100
0001
0100
0010
0000
1000
0100
0010
0100
1000
0001
,
0100
0000
0000
0101
0000
0000
1100
0000
0000
1100
0000
0000
1010
0000
0000
1010
,
0000
1000
0001
0010
0100
1000
0010
0100
0001
1000
0100
0010
0001
0010
0100
1000
,
0002
0000
0000
0000
1003
0000
0000
0000
0001
1000
0001
1000
0010
0000
0100
0001
,
0100
0001
1000
0000
0100
0010
0100
0010
0001
0000
0100
0010
1000
0001
0010
0100
,
2000
0000
0000
0000
3020
0000
0000
0000
0130
0001
0100
0001
0010
0000
0100
1000
,
0100
1000
0010
0000
0100
0001
1000
0010
0100
0000
0010
1000
0001
0010
0100
1000
,
0020
0000
0000
0000
0230
0000
0000
0000
0301
1000
0001
1000
0100
0000
0010
0001
,
0010
0001
1000
0000
0010
0100
0001
1000
0010
0000
0100
0001
0010
0100
1000
0001
,
0100
0000
0000
0110
0000
0000
0011
0000
0000
0011
0000
0000
1010
0000
0000
1010
,
0000
0010
1000
0100
0010
0100
1000
0001
0100
0010
0100
0001
1000
0100
0020
0000
,
0000
0000
1000
0000
0000
0001
0000
0000
0031
1000
0001
1000
0010
0100
0010
0100
,
0002
0000
0003
1001
0000
0011
0000
1200
,
0000
0000
0000
0001
0000
1300
0001
0100
,
0110
0000
0000
0101
0000
1010
0000
0120
,
0000
0000
0000
0001
0000
1030
0100
0010
,
0011
0000
0000
1001
0000
1010
0000
1200
,
0000
0000
0000
0001
0000
1300
0001
0100
,
0101
0000
0000
0010
0000
0000
1010
0000
1000
0000
0001
0000
0011
0000
0000
0010
,
0000
0000
0001
0000
0100
0000
0110
0000
0000
0000
0010
1000
0001
1000
0010
0100
,
0001
0000
1000
0100
0001
0000
0010
0000
0001
0100
1000
0000
0010
0000
1000
0100
,
0001
0000
0010
0000
0001
0100
0001
0100
0010
1000
0100
0010
0100
0001
0100
1000
,
0001
0000
1000
0010
0001
0000
0100
0000
0001
0010
1000
0000
0100
0000
0010
0001
,
0010
0001
1000
0100
0001
0100
1000
0010
0100
0001
1000
0010
0001
0010
1000
0001
,
0010
0000
0001
0100
1000
0000
0010
0000
1000
0100
0001
0000
0010
0000
0001
0100
,
1000
0000
0010
0000
1000
0100
1000
0100
0010
0001
0100
0010
0100
1000
0100
0001
,
1000
0100
0010
0100
0001
0000
0100
0010
0001
0100
1000
0000
0100
0001
1000
0100
,
0001
0000
0100
1000
0010
0100
1000
0100
0001
0010
0100
1000
0001
0100
0010
0100
,
0020
0000
0000
0000
0230
0000
0300
0000
0010
1000
0001
0010
0100
0001
0100
1000
,
0001
0100
0010
0001
0010
1000
0001
0010
0100
0000
2000
0000
0000
0000
3000
0000
,
0001
0000
0000
0000
0001
0000
0000
0000
1000
0100
0010
0001
0100
1000
0100
0010
,
1000
0001
0010
1000
0010
0100
1000
0001
0100
0000
0020
0000
0000
0000
0030
0000
,
1000
0000
0000
0000
1000
0000
0000
0000
0001
1000
0100
1000
0010
0001
0010
0100
,
0001
1000
0100
0001
0100
0010
0001
1000
0010
0000
0200
0000
0000
0000
0300
0000
,
0001
0000
0000
0000
0001
0000
0000
0000
1000
0010
1000
0001
0100
1000
0100
0001
,
1000
0001
0010
1000
0010
0100
1000
0001
0100
0000
0220
0000
0000
0000
0330
0000
,
1000
0010
0100
0001
1000
0100
1000
0001
,
0100
0000
0010
0000
0100
0000
0001
0000
1000
0000
0100
0000
0010
0001
0010
0001
,
1000
0000
0001
0100
0000
1000
0100
0000
0001
0100
0000
0000
1001
0000
0000
0000
,
0010
0000
0001
0010
0000
1000
0010
0000
0001
0010
0000
0000
1001
0000
0000
0000
,
0001
0100
0010
1000
0100
0010
0100
1000
,
0001
0000
0100
0000
0001
0000
1000
0000
0010
0000
0100
0001
0100
0010
1000
0100
,
0010
0000
0001
0100
0000
1000
0100
0000
0001
0100
0000
0000
0110
0000
0000
0000
,
1000
0000
0001
0010
0000
1000
0010
0000
0001
0010
0000
0000
0110
0000
0000
0000
,
1000
0100
0010
0100
1000
0001
1000
0010
,
0100
0000
0001
0000
0100
0000
0010
0000
1000
0000
0100
0000
0010
0001
0100
0010
,
1000
0000
0001
0010
0000
1000
0010
0000
0001
0010
0000
0000
0011
0000
0000
0000
,
1000
0000
0001
0100
0000
1000
0100
0000
0001
0100
0000
0000
0001
1000
0001
0100
,
0010
1000
0100
0001
0100
1000
0001
0100
1000
0100
0001
1000
0001
0010
1000
0010
,
0001
1000
0010
0100
1000
0100
0001
1000
0100
0010
0001
1000
0010
0100
0001
1000
,
0100
0010
0100
0001
0100
1000
0001
0100
1000
0100
0010
1000
0001
0010
1000
0010
,
0001
1000
0001
0100
1000
0100
0001
1000
0100
0010
0100
1000
0001
0100
0010
1000
,
0002
0000
0000
2003
0000
0000
3020
0000
,
0130
0001
1000
0100
0010
0100
1000
0001
0200
0000
0000
0000
0000
0000
0320
0000
,
0000
0000
0000
0000
2030
0000
0000
0000
3001
0010
0100
1000
0100
0010
0001
1000
,
0020
0000
0000
0000
0000
0000
0230
0000
0000
0000
0000
0000
0310
1000
0010
0100
,
0002
2003
3002
0203
,
2300
3200
0302
0023
,
2030
0000
0000
0000
,
0000
0000
0000
0000
,
0000
0000
0000
0000
0000
0000
0000
3000
,
0010
0001
0000
0001
1000
0000
0010
0100
0001
1000
0100
0010
0100
1000
0001
0100
,
0010
0000
0000
1000
0001
0000
1001
0000
0000
0000
1100
0000
0000
0000
0021
0000
,
0001
0000
0000
1000
0000
0031
1000
0010
,
1001
0000
0000
0001
0100
0000
1010
0000
0000
0000
0101
0000
0000
0000
0210
0000
,
0001
0000
0000
1000
0000
0301
0010
0100
,
1100
0000
0000
1000
0010
0000
1001
0000
0000
0000
0101
0000
0000
0000
0021
0000
,
0100
0000
0000
1000
0000
0031
1000
0010
,
1010
0000
0000
0100
0000
0000
0101
0000
0001
0000
1000
0000
1100
0000
0000
0100
,
0000
0000
1000
0000
0010
0000
0110
0000
0000
0000
0010
1000
0001
1000
0010
0100
,
0001
0000
1000
0100
0001
0000
0010
0000
0001
0100
1000
0000
0010
0000
1000
0100
,
0001
0000
0010
0000
0001
0100
0001
0100
0010
1000
0100
0010
0100
0001
0100
1000
,
0001
0000
1000
0010
0001
0000
0100
0000
0001
0010
1000
0000
0100
0000
0010
0001
,
0010
0001
1000
0100
0001
0100
1000
0010
0100
0001
1000
0010
0001
0010
1000
0001
,
0010
0000
0001
0100
1000
0000
0010
0000
1000
0100
0001
0000
0010
0000
0001
0100
,
1000
0000
0010
0000
1000
0100
1000
0100
0010
0001
0100
0010
0100
1000
0100
0001
,
1000
0100
0010
0100
0001
0000
0100
0010
0001
0100
1000
0000
0100
0001
1000
0100
,
0001
0000
0100
1000
0001
0100
0010
1000
0010
1000
0100
0000
0000
0000
0100
0000
;
