#TITLE:WORM RAVE;
#SUBTITLE:(DM DOKURO REMIX);
#ARTIST:METAROOM;
#TITLETRANSLIT:;
#SUBTITLETRANSLIT:;
#ARTISTTRANSLIT:;
#GENRE:;
#CREDIT:;
#BANNER:WORM RAVE (DM DOKURO REMIX).png;
#BACKGROUND:WORM RAVE (DM DOKURO REMIX)-bg.png;
#LYRICSPATH:;
#CDTITLE:;
#MUSIC:WORM RAVE (DM DOKURO REMIX).ogg;
#OFFSET:1.379310;
#SAMPLESTART:5.517241;
#SAMPLELENGTH:22.068998;
#LASTBEATHINT:1.009951;
#SELECTABLE:YES;
#DISPLAYBPM:174.000000;
#BPMS:0.000000=174.000000
,276.000000=348.000000
,277.000000=174.000000
;
#STOPS:276.000000=0.086000,
276.500000=0.086000
;
#BGCHANGES:;
#KEYSOUNDS:;
#ATTACKS:;

//---------------dance-single - ----------------
#NOTES:
     dance-single:
     :
     Challenge:
     17:
     0.910743,1.062945,0.453018,0.444781,0.959574,774.000000,719.000000,55.000000,54.000000,2.000000,0.000000,0.910743,1.062945,0.453018,0.444781,0.959574,774.000000,719.000000,55.000000,54.000000,2.000000,0.000000:
0000
0000
0000
0000
,
0000
0000
0000
0000
,
0000
0000
0000
0000
,
0000
0000
0000
0000
,
0000
0000
0000
0000
,
2001
0000
0000
0100
0000
3100
0000
0000
0110
0000
0000
0010
0000
0000
0001
0000
,
2000
0000
0000
0010
0000
0000
3010
0000
0110
0000
0000
0000
0100
0001
1000
0001
,
0020
0000
0000
0100
0000
0130
0000
0000
0110
0000
0000
0001
0000
0000
1000
0000
,
0020
0000
0000
0100
0000
0000
0130
0000
0001
1000
0001
1000
0100
0010
0001
1000
,
0020
0000
0000
0100
0000
1030
0000
0000
1010
0000
0000
0001
0000
0000
1000
0000
,
0100
0010
0100
1000
0001
0000
1000
0010
0100
0010
1000
0000
0010
0001
0010
0100
,
0001
1000
1000
0001
0011
0010
0000
0001
,
2000
0000
0000
0001
0000
0000
3010
0000
1001
0000
1000
0100
0000
0010
0100
0000
,
0010
0000
0001
1000
0010
0000
0200
0000
0000
0000
0310
0001
0000
0000
0010
1000
,
0000
0000
0001
0010
0000
0000
1000
0010
0000
0000
0100
1000
0000
0100
0010
0001
,
1000
0000
0001
0100
0010
0000
0200
0000
0000
0000
0310
0001
0000
0000
0010
1000
,
0000
0000
0001
0010
0000
0000
1000
0010
0000
0000
1001
0000
1000
0001
0010
0100
,
0010
0000
0001
1000
0010
0000
0200
0000
0000
0000
0310
0001
0000
0010
1000
0001
,
0000
0000
0010
1000
0000
0010
0001
1000
0000
0000
0010
0001
0000
0010
1000
0001
,
0010
0000
0100
0010
0001
0000
2000
0000
0000
3010
0100
0001
1000
0000
0001
0000
,
0011
0000
0000
1100
0000
0000
1010
0000
0000
0101
0000
0000
1001
0000
1000
0100
,
0010
0000
0000
0100
0001
0000
0100
0000
0000
0010
0001
0000
1000
0000
0010
0000
,
0200
0000
0000
0000
0301
1000
0200
0000
0010
0000
0010
0000
0301
0000
0100
0000
,
1000
0000
0001
0100
0010
0100
1000
0000
0000
0000
0001
0010
0100
0010
1000
0001
,
0000
0000
1000
0000
0010
0100
0010
1000
0001
0000
0000
1000
0100
0010
0001
1000
,
0010
0000
0000
0100
0002
0000
1000
0000
0000
0013
0000
0000
0110
0000
0001
0000
,
1000
0000
0001
0100
1000
0100
0010
0000
0001
0010
0100
0000
0010
1000
0000
1000
,
0001
0010
1100
1000
0010
0101
0001
1000
,
1001
0000
0000
0001
0020
0000
1000
0000
0100
0000
0130
0000
0010
0000
0001
1000
,
0010
0000
0100
0000
0001
1000
0100
0000
0000
0110
0000
0000
0001
0010
1000
0000
,
0000
0110
0000
0000
1000
0010
0001
0000
0000
0110
0000
0000
1001
0000
0001
0000
,
0010
0100
1000
0000
0001
0000
0200
0000
0000
0310
0001
0010
0100
0000
0001
2000
,
0000
0000
0000
3100
0020
0000
0000
1000
0000
0000
0031
0000
1000
0001
0100
0010
,
0002
0000
0000
0000
0000
0000
0013
0000
0000
0000
0000
0000
0100
0000
0000
0000
0000
0000
0001
0000
0000
2000
0000
0000
0000
0000
0000
0000
0000
0000
3100
0000
0000
0000
0000
0000
0010
0000
0000
0000
0100
0000
0000
0000
0100
0000
0000
0000
,
1000
0000
0000
0001
0100
0000
2000
0000
0000
0000
3100
0000
0010
0000
1000
0000
,
0001
0000
0010
0000
1100
0000
1000
0000
0010
0000
0001
0010
1000
0000
0001
0000
,
0010
0100
0000
1000
0200
0000
0010
0000
0010
0000
0010
0000
0010
0000
0310
0000
,
1001
0001
0100
0010
1000
0010
0000
1000
,
0000
1000
0001
0000
0020
0100
0031
0000
,
1000
0001
0010
0100
1000
0100
0000
1000
,
0001
0100
0010
0000
1000
0010
0100
0000
0001
1000
0001
0010
0100
1000
0001
0000
,
1001
1000
0010
0100
0001
0100
0000
0001
,
0000
0001
1000
0000
0200
0010
1300
0000
,
0001
0000
1000
0000
0100
0000
0010
0000
0001
0000
0010
0000
0000
0000
0001
0100
,
0010
1000
0001
1000
0100
0010
0001
0010
0100
1000
0001
0100
0010
1000
0001
0010
,
0100
0000
0000
0000
0110
0000
0000
0000
0021
0000
0000
0100
0000
0000
1000
0000
,
0000
0100
0000
0000
0031
0000
0000
0000
0021
0000
0000
0000
1030
0000
0000
0000
,
0110
0000
0000
0000
1001
0000
0000
0000
0201
0000
0000
0010
0000
0000
1000
0000
,
0000
0010
0000
0000
0301
0000
0000
0000
0201
0000
0000
0000
1300
0000
0000
0000
,
0110
0000
0000
0000
1001
0000
0000
0000
1200
0000
0000
0010
0000
0000
0001
0000
,
0000
0010
0000
0000
1300
0000
0000
0000
1200
0000
0000
0000
0301
0000
0000
0000
,
0110
0000
0000
0000
1001
0000
0000
0000
1020
0000
0000
0001
0000
0000
0130
0001
,
1000
0100
0010
0001
1000
0010
0100
0010
0000
0100
1000
0100
0001
1000
0000
0100
,
0010
0000
0100
0000
0110
0000
1000
0000
0001
0000
0100
0010
0000
0100
1000
0000
,
0100
0010
0000
0100
0001
0000
1000
0000
0100
0000
0010
0100
0000
0100
0010
0000
,
1001
0000
0010
0000
0110
0000
1000
0000
0001
0000
0010
0100
0000
0010
1000
0000
,
0010
0100
0000
0010
0001
0000
1000
0000
0010
0000
0100
0010
0000
0010
0100
0000
,
1001
0000
0001
0000
0100
0000
0010
0000
1000
0001
0010
0100
1000
0100
0010
0001
,
0100
0000
0001
0000
1000
0000
0200
0000
0000
0000
0310
0000
0001
0010
0100
0010
,
2000
0000
0000
0000
3010
0000
0001
0000
1000
0000
0001
0100
0000
0100
0010
1000
,
0001
0010
0100
1000
0001
0100
0010
0001
0010
1000
0001
0010
0100
1000
0001
0100
,
0010
0100
1000
0100
0001
1000
1001
0001
,
0010
0100
0001
0100
1000
0001
1001
1000
,
0001
0010
0100
1000
0001
0010
0100
1000
0002
0000
0000
0000
1003
0010
0100
0001
,
1000
0010
0100
0001
2000
0000
0000
0000
3001
0000
1000
0100
0010
0001
0100
0010
,
1000
0000
0010
0000
0001
0000
0010
0000
1000
0000
0001
1000
0200
0000
0000
0000
,
0310
0000
0100
0000
0001
0000
0100
0000
1000
0000
0001
0100
0020
0000
0000
0000
,
2030
0000
3010
0102
0000
0013
2100
0000
,
3010
0102
0000
0013
2100
0000
3001
0100
,
00M0
0000
00M0
0000
0001
1000
0100
0010
0000
0001
1000
0020
0100
0000
1030
0000
,
0010
1000
0001
0010
0000
0100
1000
0001
0000
1000
0010
0200
0001
0000
0310
0000
,
0100
1000
0100
0010
0000
0100
0001
1000
0000
0001
0010
0200
1000
0000
0310
0000
,
0100
0010
0001
1000
0010
0000
0100
0010
0100
0001
1000
0100
0010
0000
0100
0010
,
1000
0010
0100
1000
0001
0100
0010
1000
0000
0001
0010
0200
1000
0000
0310
0000
,
0100
1000
0001
0100
0010
0001
0010
1000
0000
0001
0100
0020
1000
0000
0130
0000
,
0010
0001
0010
1000
0001
0010
0100
1000
0000
0001
0010
0200
1000
0000
0310
0000
,
0100
1000
0001
0100
0010
0000
0100
0010
0100
0001
1000
0100
0010
0100
0000
1000
,
0002
0000
0000
0000
0103
0000
1000
0000
1100
0000
0100
0020
0001
0000
0000
0000
,
1000
0000
0000
0000
0130
0000
0001
0000
1001
0000
1000
0100
0010
0000
0001
0000
,
2000
0000
0000
0000
3010
0000
0001
0000
0011
0000
0010
1000
0001
0000
0010
0000
,
0100
1000
0001
0100
0010
0000
1000
0000
0010
0100
0001
1000
0100
0000
1000
0000
,
1002
0000
0000
0000
0013
0000
1000
0000
1010
0000
0010
0200
0001
0000
0000
0000
,
1000
0000
0000
0000
0310
0000
0001
0000
1001
0000
1000
0010
0100
0000
0001
0000
,
2000
0000
0000
0000
3100
0000
0001
0000
0101
0000
0100
1000
0001
0000
0100
0000
,
1000
0100
0001
1000
0100
0000
0000
0000
0001
0100
1000
0001
0100
0000
0000
0000
,
0020
0000
0000
0000
,
0000
0000
0000
0000
,
0000
0000
0000
0000
,
0000
0000
0000
0000
,
0030
0000
0000
0000
;

//---------------dance-double - ----------------
#NOTES:
     dance-double:
     :
     Challenge:
     18:
     0.896623,1.062945,0.345941,0.453018,0.943101,762.000000,720.000000,42.000000,55.000000,2.000000,0.000000,0.896623,1.062945,0.345941,0.453018,0.943101,762.000000,720.000000,42.000000,55.000000,2.000000,0.000000:
// measure 0
00000000
00000000
00000000
00000000
,  // measure 1
00000000
00000000
00000000
00000000
,  // measure 2
00000000
00000000
00000000
00000000
,  // measure 3
00000000
00000000
00000000
00000000
,  // measure 4
00000000
00000000
00000000
00000000
,  // measure 5
10020000
00000000
00000000
01000000
00000000
01030000
00000000
00000000
01001000
00000000
00000000
00001000
00000000
00000000
00010000
00000000
,  // measure 6
00000200
00000000
00000000
00000010
00000000
00000000
00000310
00000000
00001001
00000000
00000000
00000000
00000001
00001000
00000010
00000100
,  // measure 7
00000020
00000000
00000000
00010000
00000000
00010030
00000000
00000000
00011000
00000000
00000000
00001000
00000000
00000000
00100000
00000000
,  // measure 8
00020000
00000000
00000000
10000000
00000000
00000000
10030000
00000000
00100000
01000000
00100000
10000000
00010000
00100000
00001000
00010000
,  // measure 9
00002000
00000000
00000000
00100000
00000000
00013000
00000000
00000000
00010010
00000000
00000000
00000010
00000000
00000000
00000100
00000000
,  // measure 10
00000001
00001000
00000010
00010000
00001000
00000000
00010000
00001000
00100000
00001000
00010000
00000000
00100000
01000000
00010000
10000000
,  // measure 11
01000000
00100000
00100000
00010000
10010000
10000000
00000000
00010000
,  // measure 12
02000000
00000000
00000000
00100000
00000000
00000000
03001000
00000000
00011000
00000000
00010000
00000100
00000000
00000010
00000001
00000000
,  // measure 13
00001001
00000000
00001000
00000010
00000100
00000000
00002000
00000000
00000000
00000000
00013000
00100000
00000000
00000000
10000000
00010000
,  // measure 14
00000000
00000000
00100000
01000000
00000000
00000000
00010000
00001000
00000000
00000000
00000010
00000001
00000000
00001000
00000010
00000100
,  // measure 15
00000001
00000000
00001000
00000100
00000010
00000000
00000200
00000000
00000000
00000000
00001300
00000001
00000000
00000000
00000100
00001000
,  // measure 16
00000000
00000000
00010000
00100000
00000000
00000000
10000000
00010000
00000000
00000000
10010000
00000000
10000000
01000000
00100000
00010000
,  // measure 17
00100000
00000000
00001000
00010000
00000010
00000000
00002000
00000000
00000000
00000000
00003001
00000100
00000000
00001000
00010000
00001000
,  // measure 18
00000000
00000000
00010000
00100000
00000000
10000000
00010000
10000000
00000000
00000000
01000000
00010000
00000000
00001000
00010000
00001000
,  // measure 19
00000010
00000000
00000001
00000010
00000100
00000000
00000020
00000000
00000000
00000031
00001000
00000010
00000100
00000000
00001000
00000000
,  // measure 20
00011000
00000000
00000000
01001000
00000000
00000000
00011000
00000000
00000000
00010100
00000000
00000000
00011000
00000000
00001000
01000000
,  // measure 21
00100000
00000000
00000000
01000000
10000000
00000000
01000000
00000000
00000000
00010000
10000000
00000000
01000000
00000000
00100000
00000000
,  // measure 22
02000000
00000000
00000000
00000000
03010000
00001000
00200000
00000000
00010000
00000000
00010000
00000000
00301000
00000000
00010000
00000000
,  // measure 23
00000100
00000000
00001000
00000100
00000010
00000100
00000001
00000000
00000000
00000000
00001000
00000010
00000100
00000010
00000001
00001000
,  // measure 24
00000000
00000000
00000010
00000000
00000100
00000010
00010000
00001000
00010000
00000000
00000000
00100000
00010000
00001000
01000000
00100000
,  // measure 25
01000000
00010000
00000000
10000000
02000000
00000000
00010000
00000000
00000000
03100000
00000000
00000000
10010000
00000000
00010000
00000000
,  // measure 26
01000000
00000000
00100000
00010000
00001000
00100000
00001000
00000000
00010000
00001000
00000010
00000000
00000100
00001000
00000000
00001000
,  // measure 27
00000001
00000100
00001000
00010000
00100000
10000000
00010000
00100000
,  // measure 28
00002000
00000000
00000000
00013000
00200000
00000000
10000000
00000000
01000000
00000000
01300000
00000000
00010000
00000000
10000000
00010000
,  // measure 29
00100000
00000000
00010000
00000000
00100000
00001000
00010000
00000000
00000000
00011000
00000000
00000000
00010000
00001000
00000010
00000000
,  // measure 30
00000000
00011000
00000000
00000000
00001000
00010000
00100000
00000000
00000000
00011000
00000000
00000000
00010000
00000000
00000100
00000000
,  // measure 31
00000010
00000001
00001000
00000000
00000010
00000000
00000200
00000000
00000000
00001300
00010000
00001000
00000100
00000000
00000010
00020000
,  // measure 32
00000000
00000000
00000000
00031000
02000000
00000000
00000000
00010000
00000000
00000000
03100000
00000000
10000000
00010000
00100000
01000000
,  // measure 33
00020000
00000000
00000000
00000000
00000000
00000000
01030000
00000000
00000000
00000000
00000000
00000000
10000000
00000000
00000000
00000000
00000000
00000000
00010000
00000000
00000000
02000000
00000000
00000000
00000000
00000000
00000000
00000000
00000000
00000000
03001000
00000000
00000000
00000000
00000000
00000000
00010000
00000000
00000000
00000000
00001000
00000000
00000000
00000000
00001000
00000000
00000000
00000000
,  // measure 34
00000200
00000000
00000000
00000000
00000000
00000000
00000000
00000000
00000300
00000001
00000000
00000000
00001000
00000000
00000000
00000000
00000000
00000000
00000200
00000000
00000000
00000000
00000000
00000000
00000000
00000000
00000000
00000000
00000000
00000000
00000310
00000000
00000000
00000000
00000000
00000000
00000001
00000000
00000000
00000000
00000000
00000000
00001000
00000000
00000000
00000000
00000000
00000000
,  // measure 35
00000001
00000000
00000100
00000000
00001000
00000000
00010000
00000000
00100000
00000000
10000000
00010000
00100000
00000000
01000000
00000000
,  // measure 36
00010000
00001000
00000000
00100000
00002000
00000000
00010000
00000000
00010000
00000000
00010000
00000000
00010000
00000000
00013000
00000000
,  // measure 37
00011000
00001000
00000100
00000001
00001000
00000001
00000000
00000010
,  // measure 38
00000000
00001000
00000010
00000000
00002000
00100000
00013000
00000000
,  // measure 39
00001000
00010000
00100000
10000000
00010000
10000000
00000000
00010000
,  // measure 40
00100000
01000000
10000000
00000000
00010000
01000000
00100000
00000000
01000000
00010000
10000000
00010000
00100000
00001000
00010000
00000000
,  // measure 41
00011000
00001000
00000010
00000001
00001000
00000001
00000000
00000100
,  // measure 42
00000000
00001000
00000100
00000000
00002000
01000000
00013000
00000000
,  // measure 43
00001000
00000000
00010000
00000000
01000000
00000000
10000000
00000000
00010000
00000000
10000000
00000000
00000000
00000000
00010000
10000000
,  // measure 44
01000000
00100000
00010000
10000000
00100000
01000000
00010000
01000000
00001000
00010000
00001000
00100000
00001000
00010000
00000100
00000010
,  // measure 45
00000001
00000000
00000000
00000000
00001001
00000000
00000000
00000000
00001020
00000000
00000000
00000100
00000000
00000000
00000001
00000000
,  // measure 46
00000000
00000100
00000000
00000000
00010030
00000000
00000000
00000000
00021000
00000000
00000000
00000000
01030000
00000000
00000000
00000000
,  // measure 47
01100000
00000000
00000000
00000000
10010000
00000000
00000000
00000000
00210000
00000000
00000000
01000000
00000000
00000000
10000000
00000000
,  // measure 48
00000000
01000000
00000000
00000000
00301000
00000000
00000000
00000000
00012000
00000000
00000000
00000000
00003100
00000000
00000000
00000000
,  // measure 49
00000110
00000000
00000000
00000000
00001001
00000000
00000000
00000000
00001200
00000000
00000000
00000010
00000000
00000000
00000001
00000000
,  // measure 50
00000000
00000010
00000000
00000000
00010300
00000000
00000000
00000000
00021000
00000000
00000000
00000000
00130000
00000000
00000000
00000000
,  // measure 51
01100000
00000000
00000000
00000000
10010000
00000000
00000000
00000000
02010000
00000000
00000000
00100000
00000000
00000000
03010000
10000000
,  // measure 52
01000000
10000000
00010000
01000000
00100000
00010000
00001000
00010000
00000000
00001000
00000100
00000010
00001000
00000001
00000000
00001000
,  // measure 53
00000100
00000000
00000010
00000000
00000110
00000000
00000001
00000000
00001000
00000000
00000010
00000100
00000000
00001000
00000100
00000000
,  // measure 54
00001000
00010000
00000000
00100000
00010000
00000000
00100000
00000000
01000000
00000000
00010000
10000000
00000000
10000000
00010000
00000000
,  // measure 55
10010000
00000000
01000000
00000000
01100000
00000000
10000000
00000000
00010000
00000000
00100000
01000000
00000000
00010000
01000000
00000000
,  // measure 56
00010000
00001000
00000000
00000010
00001000
00000000
00000010
00000000
00000100
00000000
00001000
00000001
00000000
00000001
00001000
00000000
,  // measure 57
00001001
00000000
00000001
00000000
00000100
00000000
00000010
00000000
00001000
00000010
00010000
00001000
00100000
01000000
00100000
00010000
,  // measure 58
10000000
00000000
00100000
00000000
00010000
00000000
00200000
00000000
00000000
00000000
10300000
00000000
00010000
00100000
01000000
00100000
,  // measure 59
20000000
00000000
00000000
00000000
30100000
00000000
01000000
00000000
10000000
00000000
00010000
01000000
00000000
01000000
00100000
00010000
,  // measure 60
00001000
00100000
00001000
00010000
00000100
00000010
00000100
00000001
00000100
00000010
00000001
00000010
00000100
00001000
00000001
00000100
,  // measure 61
00000010
00000100
00001000
00000100
00000010
00010000
00011000
00001000
,  // measure 62
00100000
01000000
00010000
01000000
00100000
00001000
00011000
00010000
,  // measure 63
00000010
00001000
00000001
00000100
00000010
00001000
00000001
00000100
00000020
00000000
00000000
00000000
00001030
00000001
00000010
00000100
,  // measure 64
00001000
00000001
00000010
00000100
00002000
00000000
00000000
00000000
00003001
00000000
00000100
00000010
00000100
00001000
00010000
00001000
,  // measure 65
00100000
00000000
01000000
00000000
00010000
00000000
01000000
00000000
00100000
00000000
00010000
10000000
00200000
00000000
00000000
00000000
,  // measure 66
01300000
00000000
00001000
00000000
00010000
00000000
00001000
00000000
00000100
00000000
00000010
00001000
00000002
00000000
00000000
00000000
,  // measure 67
00000023
00001000
00001030
00020000
00001000
00031000
02000000
00001000
,  // measure 68
03001000
00020000
00001000
00031000
00000100
00001000
00010000
00100000
,  // measure 69
0M000000
00000000
0M000000
00000000
10000000
00010000
00100000
01000000
00000000
00100000
00010000
00200000
01000000
00000000
00310000
00000000
,  // measure 70
00100000
00010000
10000000
00100000
00000000
00010000
00001000
01000000
00000000
00001000
00010000
00002000
01000000
00000000
00013000
00000000
,  // measure 71
00001000
00000100
00001000
00010000
00000000
00000100
00001000
00000001
00000000
00000100
00001000
00000200
00000010
00000000
00000301
00000000
,  // measure 72
00001000
00000001
00000010
00000100
00001000
00000000
00000001
00000100
00000010
00000100
00001000
00010000
00001000
00000000
00100000
00001000
,  // measure 73
00010000
00100000
00010000
00001000
01000000
00010000
10000000
01000000
00000000
00100000
00010000
00200000
01000000
00000000
00310000
00000000
,  // measure 74
00100000
00010000
10000000
00100000
01000000
00100000
00010000
00001000
00000000
00010000
00000010
00020000
00001000
00000000
00030100
00000000
,  // measure 75
00010000
00001000
00000010
00000100
00001000
00000001
00000100
00000010
00000000
00000100
00000001
00000200
00000010
00000000
00000301
00000000
,  // measure 76
00000100
00000001
00001000
00000100
00000010
00000000
00000001
00001000
00000010
00000100
00001000
00000000
00010000
00100000
00000000
00010000
,  // measure 77
00002000
00000000
00013000
00100000
00001000
00100000
20000000
00000000
,  // measure 78
00010000
00000000
00000000
00000000
31000000
00000000
00100000
00000000
00101000
00000000
00001000
00010000
00000010
00000000
00010000
00000000
,  // measure 79
00002000
00000000
00103000
01000000
00001000
01000000
10000000
00010000
,  // measure 80
10000000
01000000
00100000
00010000
10000000
00000000
00010000
00000000
10000000
00100000
01000000
00100000
00010000
00000000
00001000
00000000
,  // measure 81
00020000
00000000
00030100
00000010
00010000
00000010
00000002
00000000
,  // measure 82
00001000
00000000
00000000
00000000
00000103
00000000
00000010
00000000
00010010
00000000
00010000
00001000
00100000
00000000
00001000
00000000
,  // measure 83
00020000
00000000
00030010
00000100
00010000
00000100
00000001
00001000
,  // measure 84
00000100
00000010
00001000
00010000
00001000
00000000
00000000
00000000
01000000
00100000
00010000
00001000
00010000
00000000
00000000
00000000
,  // measure 85
00002000
00000000
00000000
00000000
,  // measure 86
00000000
00000000
00000000
00000000
,  // measure 87
00000000
00000000
00000000
00000000
,  // measure 88
00000000
00000000
00000000
00000000
,  // measure 89
00003000
00000000
00000000
00000000
;

//---------------dance-single - ----------------
#NOTES:
     dance-single:
     :
     Hard:
     16:
     0.893093,0.989638,0.387124,0.296521,0.885444,759.000000,712.000000,47.000000,36.000000,2.000000,0.000000,0.893093,0.989638,0.387124,0.296521,0.885444,759.000000,712.000000,47.000000,36.000000,2.000000,0.000000:
0000
0000
0000
0000
,
0000
0000
0000
0000
,
0000
0000
0000
0000
,
0000
0000
0000
0000
,
0000
0000
0000
0000
,
0001
0000
0000
0100
0000
0100
0000
0000
1010
0000
0000
1000
0000
0000
0001
0000
,
1000
0000
0000
0100
0000
0000
0100
0000
0011
0000
0000
0000
0001
0000
1000
0010
,
0100
0000
0000
0010
0000
0010
0000
0000
0101
0000
0000
0001
0000
0000
1000
0000
,
0001
0000
0000
0010
0000
0000
0010
0000
0100
1000
0001
0000
1000
0010
0100
0000
,
0010
0000
0000
0100
0000
0001
0000
0000
1001
0000
0000
1000
0000
0000
0100
0000
,
0010
0001
1000
0000
0001
0000
0001
0100
0000
0010
1000
0000
0001
1000
0100
0000
,
0010
0100
0100
0010
1001
0001
0000
0100
,
0010
0000
0000
1000
0000
0000
0001
0000
0011
0000
0010
0100
0000
0010
0001
0000
,
1000
0000
0001
0000
0100
0000
2000
0000
0000
0000
3100
0010
0100
0000
0001
0000
,
1000
0000
0100
0010
0100
0000
1000
0000
0001
0000
0100
0010
0100
0000
0001
0000
,
1000
0000
0001
0000
0010
0000
2000
0000
0000
0000
3010
0100
1000
0000
0001
0000
,
0100
0000
0010
0100
0001
0000
1000
0000
0100
0000
0010
0000
0100
1000
0001
0100
,
0001
0000
1000
0000
0100
0000
0002
0000
0000
0103
0010
0001
0000
0010
0001
1000
,
0000
0001
1000
0010
0000
1000
0010
0100
0000
0010
0100
0001
0000
0100
0001
1000
,
0001
0000
1000
0000
0010
0000
0002
0000
0000
0000
0013
1000
0001
0000
1000
0000
,
0100
0000
0000
0011
0000
0000
0100
0000
0000
1010
0000
0000
0001
0000
1000
0100
,
0010
0000
0000
0010
0001
0000
1000
0000
0000
1000
0010
0000
0100
0000
1000
0000
,
0200
0000
0000
0000
0301
1000
0100
0000
0010
0000
0010
0000
1000
0000
0010
0000
,
0001
0000
1000
0010
0100
0010
1000
0000
0000
0000
0001
1000
0100
1000
0001
0100
,
0000
0000
0010
0000
0100
0001
1000
0100
0010
0000
0000
0001
1000
0010
0100
0001
,
2000
0000
0000
3100
0010
0000
0011
0000
0000
1001
0000
0000
1000
0000
0010
0000
,
0010
0000
0100
0001
0100
0000
0010
0000
1000
0001
0010
0000
0100
0010
0000
0100
,
1000
0000
0001
0000
0100
0000
0010
0000
1000
0010
1000
0010
0100
0000
0001
0000
,
1001
0000
0000
1100
0000
0000
0100
0000
0001
0000
0100
0000
0010
0000
0001
1000
,
0010
0000
0100
0000
0001
1000
0100
0000
0000
0110
0000
0000
0010
0001
0100
0000
,
0000
1010
0000
0000
0010
1000
0100
0000
0000
0011
0000
0000
0001
0000
1000
0000
,
0010
0100
0001
0000
1000
0000
0200
0000
0000
0310
0001
1000
0010
0000
0100
0002
,
0000
0000
0000
1003
0100
0000
0000
0011
0000
0000
1001
0000
1000
0010
0100
0010
,
2000
0000
0000
0000
0000
0000
3001
0000
0000
0000
0000
0000
0010
0000
0000
0000
0000
0000
0100
0000
0000
0010
0000
0000
0000
0000
0000
0000
0000
0000
0100
0000
0000
0000
0000
0000
0001
0000
0000
0000
0100
0000
0000
0000
0010
0000
0000
0000
,
0200
0000
0000
1300
0001
0000
0200
0000
0000
0000
0310
0000
1000
0000
0001
0000
,
0010
0000
0100
0000
0010
0000
0001
0000
1000
0010
1000
0010
0100
0000
0001
0000
,
1000
0100
0000
0010
0100
0000
0010
0000
0010
0000
0010
0000
0010
0000
0010
0000
,
1001
0001
0100
0010
0001
0010
0100
0001
,
1000
0100
0010
0100
0001
0100
1000
0000
,
0001
1000
0100
0010
1000
0010
0100
1000
,
0001
0100
0010
0000
1000
0001
0010
0000
0100
1000
0001
0000
1000
0010
0100
0000
,
1001
0001
0010
0100
0001
0100
0010
0001
,
1000
0010
0100
0010
0001
0010
1000
0000
,
0001
0000
1000
0000
0100
0000
0010
0000
1000
0000
0010
0000
0100
0000
0010
0001
,
1000
0010
1000
0010
0100
0001
0100
0001
1000
0100
0010
0100
1000
0001
0100
0000
,
1001
0000
0000
0000
0110
0000
0000
0000
0002
0000
0000
0023
0000
0000
2030
0000
,
0000
3002
0000
0000
0103
0000
0000
0000
1100
0000
0000
0000
0011
0000
0000
0000
,
1001
0000
0000
0000
0110
0000
0000
0000
2000
0000
0000
3020
0000
0000
0032
0000
,
0000
2003
0000
0000
3100
0000
0000
0000
0101
0000
0000
0000
1010
0000
0000
0000
,
1001
0000
0000
0000
0011
0000
0000
0000
0020
0000
0000
2030
0000
0000
3002
0000
,
0000
0203
0000
0000
1300
0000
0000
0000
1100
0000
0000
0000
0011
0000
0000
0000
,
1001
0000
0000
0000
1010
0000
0000
0000
0020
0000
0000
0230
0000
0000
0301
1000
,
0010
0100
0010
0100
0001
1000
0001
0010
0000
1000
0010
0000
0010
0001
0000
0001
,
1000
0000
0010
0000
0001
0000
0010
0000
0100
0000
1000
0100
0000
0100
0001
0000
,
0001
1000
0000
1000
0100
0000
1000
0000
1001
0000
0000
0110
0000
0000
1001
0000
,
0001
0000
0010
0000
1000
0000
0010
0000
0100
0000
0001
0100
0000
0100
1000
0000
,
1000
0001
0000
0001
0100
0000
0001
0000
1001
0000
0000
0110
0000
0000
1001
0000
,
0001
0000
0100
0000
0010
0000
0100
0000
1000
0100
0010
0000
0100
0001
1000
0001
,
0010
0000
0100
0000
0001
0000
0100
0000
1000
0000
0001
0000
0100
0010
1000
0001
,
0020
0000
0000
0000
0100
0000
0000
0000
1030
0000
0010
0001
0000
1000
0010
0100
,
0001
1000
0100
0010
0100
1000
0001
0100
0010
1000
0001
0010
0100
1000
0001
0100
,
0020
0000
0130
0001
1000
0100
0010
0100
,
0002
0000
0103
1000
0001
0100
0010
1000
,
0001
0010
0100
0010
0001
0010
0100
0010
0002
0000
0000
0000
1003
0010
0100
0010
,
1000
0010
0100
0010
2000
0000
0000
0000
3001
0100
0010
1000
0001
0010
0100
1000
,
0001
0000
0000
0000
0101
0000
0000
0000
1010
0000
0000
0000
1000
0100
0010
0001
,
1000
0000
0000
0000
1100
0000
0000
0000
0011
0000
0001
1000
0020
0000
0000
0000
,
0031
0010
1000
0001
0010
1000
0001
0100
,
1000
0001
0100
1000
0001
0010
1000
0100
,
000M
0000
000M
0000
1000
0100
0010
0100
0000
0010
0001
1000
0010
0000
0100
0000
,
0001
1000
0010
1000
0001
1000
0100
0010
0000
0001
1000
0010
0100
0000
0001
0000
,
1000
0001
0010
0001
1000
0001
0100
0010
0000
0100
0001
1000
0100
0000
0010
0000
,
0001
0010
0100
1000
0001
0000
1000
0000
0001
0100
0010
1000
0001
0000
1000
0000
,
0100
0010
0100
1000
0001
0100
0010
1000
0000
0001
1000
0100
0010
0000
0001
0000
,
1000
0001
1000
0010
0100
0001
1000
0100
0000
0010
0001
1000
0010
0000
0100
0000
,
0010
1000
0001
0010
0100
1000
0001
0100
0000
0001
1000
0100
0010
0000
0001
0000
,
1000
0010
0100
0001
1000
0000
0001
0000
1000
0100
0010
0001
1000
0010
0000
0100
,
0010
1000
0010
0100
1200
0000
0001
0000
,
0310
0000
1000
0000
0001
0000
0010
0100
0000
0010
0001
1000
0010
0000
0100
0000
,
0001
1000
0100
0010
1020
0000
0001
0000
,
0130
1000
0001
0100
0010
0000
1000
0000
0001
0010
0100
1000
0001
0000
0000
0000
,
1000
0001
0010
0100
0201
0000
1000
0000
,
0310
0000
0001
0000
1000
0000
0010
0100
0000
0010
1000
0001
0010
0000
0100
0000
,
1000
0001
0100
0010
0021
0000
1000
0000
,
0130
0001
0010
0100
1000
0000
0000
0000
0100
1000
0010
0100
0001
0000
0000
0000
,
2000
0000
0000
0000
,
0000
0000
0000
0000
,
0000
0000
0000
0000
,
0000
0000
0000
0000
,
3000
0000
0000
0000
;

//---------------dance-double - ----------------
#NOTES:
     dance-double:
     :
     Hard:
     17:
     0.884856,0.989638,0.321231,0.304758,0.873089,752.000000,713.000000,39.000000,37.000000,2.000000,0.000000,0.884856,0.989638,0.321231,0.304758,0.873089,752.000000,713.000000,39.000000,37.000000,2.000000,0.000000:
00000000
00000000
00000000
00000000
,
00000000
00000000
00000000
00000000
,
00000000
00000000
00000000
00000000
,
00000000
00000000
00000000
00000000
,
00000000
00000000
00000000
00000000
,
00000001
00000000
00000000
00000100
00000000
00000100
00000000
00000000
00010010
00000000
00000000
00010000
00000000
00000000
00001000
00000000
,
00100000
00000000
00000000
00010000
00000000
00000000
00010000
00000000
11000000
00000000
00000000
00000000
10000000
00000000
00010000
01000000
,
00100000
00000000
00000000
10000000
00000000
10000000
00000000
00000000
00110000
00000000
00000000
00100000
00000000
00000000
00001000
00000000
,
00010000
00000000
00000000
00000010
00000000
00000000
00000010
00000000
00000100
00000001
00001000
00000000
00000001
00000010
00000100
00000000
,
00000010
00000000
00000000
00000001
00000000
00001000
00000000
00000000
00010010
00000000
00000000
00000010
00000000
00000000
00010000
00000000
,
00001000
00100000
00001000
00100000
00010000
00000000
10000000
00100000
00000000
00100000
01000000
00000000
00010000
10000000
01000000
00000000
,
00010000
00001000
00001000
00010000
00010010
00000010
00000000
00000100
,
00000001
00000000
00000000
00001000
00000000
00000000
00000100
00000000
00010100
00000000
00010000
00001000
00000000
00100000
00001000
00000000
,
00010000
00000000
00100000
00000000
10000000
00000000
00020000
00000000
00000000
00000000
00130000
01000000
00100000
00000000
00001000
00000000
,
00010000
00000000
00000010
00000100
00000010
00000000
00010000
00000000
00001000
00000000
00100000
01000000
00100000
00000000
00001000
00000000
,
00010000
00000000
00100000
00000000
10000000
00000000
00020000
00000000
00000000
00000000
01030000
00100000
01000000
00000000
00001000
00000000
,
00010000
00000000
00000100
00000010
00000100
00000000
00010000
00000000
00001000
00000000
01000000
00000000
00100000
10000000
00010000
00000000
,
00100000
00000000
01000000
00000000
00010000
00000000
00002000
00000000
00000000
00103000
01000000
00100000
00000000
01000000
10000000
00010000
,
00000000
01000000
00001000
01000000
00000000
00001000
00010000
00000010
00000000
00000100
00000010
00000100
00000000
00000001
00001000
00000100
,
00000010
00000000
00000100
00000000
00010000
00000000
00002000
00000000
00000000
00000000
01003000
00100000
10000000
00000000
00010000
00000000
,
00100000
00000000
00000000
10010000
00000000
00000000
00010000
00000000
00000000
00101000
00000000
00000000
00001000
00000000
00010000
00000100
,
00001000
00000000
00000000
00001000
00000001
00000000
00000100
00000000
00000000
00000100
00000010
00000000
00000100
00000000
00001000
00000000
,
00000200
00000000
00000301
00001000
00000100
00000100
00010000
00001000
,
00100000
00000000
00001000
00010000
00001000
01000000
00100000
00000000
00000000
00000000
01000000
00100000
10000000
00010000
10000000
01000000
,
00000000
00000000
00100000
00000000
00001000
00100000
00010000
00100000
00001000
00000000
00000000
00010000
00001000
00010000
00000100
00000010
,
00000100
00000000
00000000
00001000
00000001
00000000
00000101
00000000
00000000
00001001
00000000
00000000
00001000
00000000
00000001
00000000
,
00000100
00000000
00000010
00010000
00001000
00100000
00001000
00000000
00100000
00010000
10000000
00000000
00010000
01000000
00000000
00100000
,
10000000
00000000
00010000
00000000
10000000
00000000
01000000
00000000
00010000
00001000
00010000
00001000
00100000
00000000
00001000
00000000
,
00010000
00001000
00000100
00000001
00001000
00001000
00000100
00000000
,
00000010
00000000
00000001
00000000
00001000
00000010
00000100
00000000
00000000
00001000
00000000
00000000
00010000
00000000
00011000
00000000
,
00000000
01001000
00000000
00000000
00001000
00000000
00011000
00000000
00000000
00010100
00000000
00000000
00010000
00000000
00001000
00000000
,
00100000
00010000
10000000
00000000
00010000
00000000
02000000
00000000
00000000
03100000
10000000
00010000
00100000
00000000
00001000
00020000
,
00000000
00000000
00000000
00030100
00000010
00000000
00000000
00000011
00000000
00000000
00001001
00000000
00001000
00000010
00000100
00000010
,
00020000
00000000
00000000
00000000
00000000
00000000
00031000
00000000
00000000
00000000
00000000
00000000
00100000
00000000
00000000
00000000
00000000
00000000
00010000
00000000
00000000
00200000
00000000
00000000
00000000
00000000
00000000
00000000
00000000
00000000
01300000
00000000
00000000
00000000
00000000
00000000
00010000
00000000
00000000
00000000
01000000
00000000
00000000
00000000
00100000
00000000
00000000
00000000
,
02000000
00000000
00000000
00000000
00000000
00000000
00000000
00000000
03000000
10000000
00000000
00000000
00010000
00000000
00000000
00000000
00000000
00000000
02000000
00000000
00000000
00000000
00000000
00000000
00000000
00000000
00000000
00000000
00000000
00000000
03100000
00000000
00000000
00000000
00000000
00000000
01000000
00000000
00000000
00000000
00000000
00000000
01000000
00000000
00000000
00000000
00000000
00000000
,
00010000
00000000
10000000
00000000
01000000
00000000
00010000
00000000
00001000
00010000
00001000
00010000
00000010
00000000
00010000
00000000
,
00001000
00000100
00000000
00000010
00000100
00000000
00000010
00000000
00000010
00000000
00000010
00000000
00000010
00000000
00000010
00000000
,
00001001
00001000
00000100
00000010
00001000
00000010
00000001
00001000
,
00000010
00000100
00001000
00010000
00100000
01000000
00010000
00000000
,
10000000
00010000
00100000
01000000
00010000
01000000
10000000
00010000
,
01000000
00010000
10000000
00000000
00010000
00100000
00001000
00000000
00010000
00000010
00001000
00000000
00000010
00001000
00000001
00000000
,
00001001
00001000
00000010
00000100
00001000
00000100
00000001
00001000
,
00000100
00000010
00001000
00010000
01000000
00100000
00010000
00000000
,
10000000
00000000
00010000
00000000
01000000
00000000
00100000
00000000
00010000
00000000
00100000
00000000
10000000
00000000
00010000
00100000
,
00001000
00010000
00001000
00010000
00000100
00001000
00000100
00001000
00000001
00000100
00000001
00000100
00000010
00010000
00000010
00010000
,
00001000
00000000
00000000
00000000
01100000
00000000
00000000
00000000
20000000
00000000
00000000
32000000
00000000
00000000
03200000
00000000
,
00000000
00320000
00000000
00000000
00031000
00000000
00000000
00000000
00000110
00000000
00000000
00000000
00001001
00000000
00000000
00000000
,
00010100
00000000
00000000
00000000
00000110
00000000
00000000
00000000
00000002
00000000
00000000
00000203
00000000
00000000
00000320
00000000
,
00000000
00002030
00000000
00000000
00013000
00000000
00000000
00000000
01100000
00000000
00000000
00000000
10010000
00000000
00000000
00000000
,
00101000
00000000
00000000
00000000
01100000
00000000
00000000
00000000
20000000
00000000
00000000
30200000
00000000
00000000
02300000
00000000
,
00000000
03020000
00000000
00000000
00031000
00000000
00000000
00000000
00000110
00000000
00000000
00000000
00001001
00000000
00000000
00000000
,
00010010
00000000
00000000
00000000
00000110
00000000
00000000
00000000
00000002
00000000
00000000
00000023
00000000
00000000
00000130
00001000
,
00000001
00000100
00000001
00001000
00000010
00010000
00001000
00010000
00000000
01000000
00010000
00000000
00010000
00001000
00000000
00001000
,
01000000
00000000
00010000
00000000
10000000
00000000
01000000
00000000
00100000
00000000
10000000
00100000
00000000
00100000
00010000
00000000
,
00010000
10000000
00000000
10000000
00100000
00000000
00010000
00000000
00011000
00000000
00000000
01001000
00000000
00000000
00010100
00000000
,
00000100
00000000
00001000
00000000
00000001
00000000
00000100
00000000
00000010
00000000
00000001
00000010
00000000
00000010
00001000
00000000
,
00001000
00000001
00000000
00000001
00000010
00000000
00001000
00000000
00011000
00000000
00000000
00010100
00000000
00000000
01001000
00000000
,
01000000
00000000
00010000
00000000
10000000
00000000
01000000
00000000
00100000
01000000
00010000
00000000
01000000
10000000
00010000
10000000
,
00100000
00000000
01000000
00000000
10000000
00000000
02000000
00000000
00000000
00000000
03100000
00000000
00010000
00001000
00100000
00001000
,
00020000
00000000
00000000
00000000
00030100
00000000
00000000
00000000
00000010
00000000
00000001
00001000
00000000
00000010
00000100
00000010
,
00001000
00000001
00001000
00000100
00010000
00001000
00100000
00010000
00100000
01000000
10000000
01000000
00100000
00010000
10000000
00100000
,
02000000
00000000
03100000
10000000
00010000
00100000
01000000
00010000
,
00002000
00000000
00013000
01000000
00100000
00001000
00010000
00000010
,
00001000
00000010
00000100
00000010
00001000
00000010
00000100
00000010
00020000
00000000
00000000
00000000
00031000
00100000
01000000
00100000
,
00010000
00100000
01000000
00100000
00020000
00000000
00000000
00000000
10030000
00100000
01000000
00010000
10000000
01000000
00100000
00010000
,
00100000
00000000
00001000
00000000
00010000
00000000
00001000
00000000
00000100
00000000
00000000
00000000
00000001
00001000
00000100
00001000
,
00000010
00000000
00000000
00000000
00010010
00000000
00000000
00000000
00011000
00000000
00001000
00100000
00020000
00000000
00000000
00000000
,
10030000
00100000
00010000
10000000
01000000
00010000
10000000
01000000
,
00010000
00001000
00000010
00000001
00001000
00000010
00000001
00000010
,
000M0000
00000000
000M0000
00000000
00000100
00000010
00001000
00000010
00000000
00000100
00000001
00001000
00000001
00000000
00001000
00000000
,
00000010
00010000
00001000
00010000
00000010
00010000
00001000
00100000
00000000
00010000
00100000
01000000
00100000
00000000
00010000
00000000
,
10000000
00100000
01000000
00100000
10000000
00100000
01000000
00010000
00000000
10000000
00010000
00100000
00010000
00000000
00100000
00000000
,
00001000
00010000
00000010
00000100
00000010
00000000
00001000
00000000
00000001
00000010
00000100
00001000
00000001
00000000
00001000
00000000
,
00000010
00000100
00000001
00001000
00000100
00010000
00001000
01000000
00000000
00010000
00100000
01000000
10000000
00000000
00010000
00000000
,
01000000
00010000
10000000
01000000
00100000
00001000
00010000
00000100
00000000
00001000
00000001
00000100
00000010
00000000
00001000
00000000
,
00000010
00000100
00000001
00001000
00000100
00010000
00001000
01000000
00000000
00010000
10000000
01000000
00100000
00000000
00001000
00000000
,
00010000
00001000
00100000
01000000
00100000
00000000
00001000
00000000
00010000
00000010
00000100
00000001
00001000
00000100
00000000
00000010
,
00000100
00000001
00000100
00000010
00002000
00000000
00010000
00000000
,
01003000
00000000
00001000
00000000
00010000
00000000
01000000
10000000
00000000
01000000
00100000
00010000
10000000
00000000
00100000
00000000
,
01000000
10000000
01000000
00100000
00020000
00000000
00031000
00010000
,
00000100
00000010
00000001
00001000
00000010
00000000
00000100
00000000
00000001
00001000
00000010
00010000
00001000
00000000
00000000
00000000
,
00010000
00001000
00010000
01000000
00200000
00000000
10000000
00000000
,
01300000
00000000
00100000
00000000
00010000
00000000
10000000
00100000
00000000
01000000
00010000
10000000
01000000
00000000
00100000
00000000
,
00001000
00010000
00001000
00000100
00000020
00000000
00000031
00000010
,
00001000
00000010
00010000
00001000
01000000
00000000
00000000
00000000
00010000
01000000
00001000
00010000
00000100
00000000
00000000
00000000
,
00020000
00000000
00000000
00000000
,
00000000
00000000
00000000
00000000
,
00000000
00000000
00000000
00000000
,
00000000
00000000
00000000
00000000
,
00030000
00000000
00000000
00000000
;

//---------------dance-single - ----------------
#NOTES:
     dance-single:
     :
     Medium:
     14:
     0.644815,0.733065,0.156497,0.370651,0.362414,548.000000,529.000000,19.000000,45.000000,2.000000,0.000000,0.644815,0.733065,0.156497,0.370651,0.362414,548.000000,529.000000,19.000000,45.000000,2.000000,0.000000:
0000
0000
0000
0000
,
0000
0000
0000
0000
,
0000
0000
0000
0000
,
0000
0000
0000
0000
,
0000
0000
0000
0000
,
0001
0000
0000
0100
0000
0100
0000
0000
0110
0000
0000
1000
0000
0000
0001
0000
,
0010
0000
0000
0100
0000
0000
0100
0000
0110
0000
0000
0000
0001
0000
1000
0000
,
0010
0000
0000
0100
0000
0100
0000
0000
0110
0000
0000
0001
0000
0000
1000
0000
,
0100
0000
0000
0010
0000
0000
0010
0000
0100
0000
0001
0000
0100
0000
1000
0000
,
0001
0000
0000
0100
0000
0100
0000
0000
1010
0000
0000
1000
0000
0000
0001
0000
,
0010
0000
0100
0000
0001
0000
0100
0000
1000
0001
1000
0000
0001
0000
0000
0000
,
1000
0010
0010
0100
1000
0100
0000
0001
,
1000
0000
0000
0100
0000
0000
0100
0000
0110
0000
0000
1001
0000
0000
1001
0000
,
0001
0100
0010
0200
0000
0010
0000
0001
,
0000
0010
0000
1000
0000
0010
0000
0301
,
1000
0100
0010
0200
0000
0010
0000
0001
,
0000
0010
0000
1300
0000
0001
0100
0010
,
0001
0010
1000
0002
0000
0100
0000
1000
,
0000
0010
0000
1000
0000
0100
0000
1003
,
0001
0010
0100
2000
0000
3001
0100
0010
,
1000
0000
0000
1000
0000
0000
0001
0000
0000
0001
0000
0000
0010
0000
0100
0010
,
0100
0000
2000
0100
0000
3002
0100
0000
,
1003
0000
0100
0001
0100
1000
0001
0100
,
0010
0000
1000
0000
0001
1000
0001
0000
0000
0000
0010
0000
0100
0010
0100
0010
,
0000
0100
0001
0100
1000
0000
0001
0100
,
0020
0000
0000
0000
1030
0000
0001
0000
0000
0001
0000
0000
0010
0000
0100
0000
,
0100
0000
0010
0000
1000
0000
0010
0000
0001
1000
0001
0000
0100
0010
0000
0100
,
0020
0000
0031
0020
0000
0000
1030
0001
,
0010
0000
0000
0010
0000
0000
0100
0000
0001
0000
0100
0000
1000
0000
0001
1000
,
0001
0000
0100
0000
0010
0000
1000
0000
0000
1000
0000
0000
0001
0000
0010
0000
,
0000
1100
0000
0000
1000
0000
0010
0000
0000
0101
0000
0000
0001
0000
1000
0000
,
0100
0010
0100
0000
0010
0000
0002
0000
0000
0000
1003
0000
0010
0000
0000
0200
,
0000
0000
0000
0000
0301
0000
0000
0001
0000
0000
0001
0000
1000
0000
0100
0000
,
0001
0000
0000
0000
0000
0000
0100
0000
0000
0000
0000
0000
1000
0000
0000
0000
0000
0000
0000
0000
0000
0002
0000
0000
0000
0000
0000
0000
0000
0000
0103
0000
0000
0000
0000
0000
0010
0000
0000
0000
0100
0000
0000
0000
0010
0000
0000
0000
,
2000
0000
3100
0002
0000
0103
1000
0001
,
0200
0000
1300
0200
0000
0301
1000
0000
,
0100
0010
0000
0100
0010
0000
0001
0000
1000
0000
0001
0000
1000
0000
0001
0000
,
1001
0000
1000
0000
0010
1000
0000
0010
,
0000
0010
0100
0000
0001
1000
0001
0000
,
1000
0001
1000
0000
0100
1000
0000
0100
,
0000
0100
0010
0000
0001
1000
0000
1000
,
1001
0000
0001
0000
0100
0001
0000
0100
,
0000
0100
0010
0000
1000
0001
1000
0000
,
0001
1000
0001
0000
0010
0100
0000
0100
,
1000
0000
0001
0000
0100
0000
0010
0000
0100
0000
0001
0000
1000
0001
1000
0001
,
2000
0000
0000
0000
3100
0000
0000
0000
0001
0000
0000
0001
0000
0000
0100
0000
,
0000
0100
0000
0000
1000
0000
0000
0000
0002
0000
0000
0000
1003
0000
0000
0000
,
0002
0000
0000
0000
0103
0000
0000
0000
1000
0000
0000
1000
0000
0000
0100
0000
,
0000
0100
0000
0000
0001
0000
0000
0000
2000
0000
0000
0000
3001
0000
0000
0000
,
2001
0000
0000
0000
3010
0000
0000
0000
0001
0000
0000
0001
0000
0000
0010
0000
,
0000
0010
0000
0000
1000
0000
0000
0000
0002
0000
0000
0000
1003
0000
0000
0000
,
0002
0000
0000
0000
0013
0000
0000
0000
1000
0000
0000
1000
0000
0000
0010
0000
,
0001
0000
1000
0000
0010
0000
0100
0010
0000
0100
0010
0000
1000
0001
0000
1000
,
0001
0000
0010
0000
0100
0000
0000
0000
1000
0000
0001
1000
0000
0010
0100
0000
,
0010
1000
0000
0010
0100
0000
0001
0000
2000
0000
0000
3200
0000
0000
0310
0000
,
0001
0000
1000
0000
0010
0000
0000
0000
1000
0000
0001
1000
0000
0100
0010
0000
,
0100
1000
0000
0100
0010
0000
0001
0000
2000
0000
0000
3020
0000
0000
0130
0000
,
0001
0000
1000
0000
0100
0000
0001
0000
0100
0010
0100
0000
1000
0001
1000
0000
,
0001
0000
0100
0000
0010
0000
1000
0000
0000
0000
0001
0000
1000
0001
1000
0001
,
2000
0000
0000
0000
0000
0000
0000
0000
3100
0000
0010
0100
0000
0010
0001
0000
,
1000
0000
0001
0000
0100
0000
0010
1000
0000
0010
0100
0000
0001
1000
0000
0001
,
0020
0000
0130
0000
0001
0100
1000
0001
,
0200
0000
0310
0000
0001
0010
1000
0001
,
0010
0000
0100
0010
0100
0000
1000
0100
2000
0000
0000
0000
3001
0000
0100
0001
,
0100
0000
0010
0100
0020
0000
0000
0000
0000
0000
1030
0001
1000
0001
1000
0000
,
0001
0010
1000
0010
0100
0000
1001
0000
,
1000
0010
0001
0010
0100
0000
0020
0000
,
1030
0000
0010
0001
0000
0010
1000
0000
,
0001
0010
0000
1000
0010
0001
1000
0010
,
0M00
0000
0M00
0000
1000
0000
0001
0000
0010
0000
0100
0010
0100
0000
1000
0000
,
0001
0000
0100
0000
1000
0000
0100
0000
0010
0000
1000
0001
1000
0000
0100
0000
,
0010
0000
1000
0000
0010
0000
0001
0000
1000
0000
0010
0100
0010
0000
1000
0000
,
0001
0100
2000
0000
3001
0010
2000
0000
,
3001
0000
0010
0000
0100
0000
1000
0000
0001
0000
0100
0010
1000
0000
0001
0000
,
0010
0000
1000
0000
0010
0000
0100
0000
1000
0000
0001
0100
0010
0000
1000
0000
,
0010
0000
0001
0000
0010
0000
0100
0000
0001
0000
1000
0001
0010
0000
0001
0000
,
1000
0000
0100
0000
0002
0000
0000
0000
1003
0000
0010
0000
0001
1000
0000
0001
,
0200
0310
2010
0001
,
3100
0000
0010
0000
1001
0001
1000
0000
,
0200
0310
0012
1000
,
0103
0001
1000
0100
0001
0100
1000
0000
,
0002
0103
2010
0001
,
3100
0000
0010
0000
1001
1000
0001
0000
,
2000
3100
0012
1000
,
0103
0010
0100
0010
0100
0000
0000
0000
0001
1000
0001
1000
0001
0000
0000
0000
,
0020
0000
0000
0000
,
0000
0000
0000
0000
,
0000
0000
0000
0000
,
0000
0000
0000
0000
,
0030
0000
0000
0000
;

//---------------dance-double - ----------------
#NOTES:
     dance-double:
     :
     Medium:
     14:
     0.648345,0.769719,0.148260,0.354178,0.358296,551.000000,533.000000,18.000000,43.000000,2.000000,0.000000,0.648345,0.769719,0.148260,0.354178,0.358296,551.000000,533.000000,18.000000,43.000000,2.000000,0.000000:
00000000
00000000
00000000
00000000
,
00000000
00000000
00000000
00000000
,
00000000
00000000
00000000
00000000
,
00000000
00000000
00000000
00000000
,
00000000
00000000
00000000
00000000
,
10000000
00000000
00000000
00100000
00000000
00100000
00000000
00000000
01100000
00000000
00000000
10000000
00000000
00000000
00010000
00000000
,
00100000
00000000
00000000
01000000
00000000
00000000
01000000
00000000
01100000
00000000
00000000
00000000
00100000
00000000
00001000
00000000
,
00010000
00000000
00000000
00000010
00000000
00000010
00000000
00000000
00000110
00000000
00000000
00001000
00000000
00000000
00000001
00000000
,
00000010
00000000
00000000
00000100
00000000
00000000
00000100
00000000
00000010
00000000
00000001
00000000
00001000
00000000
00000010
00000000
,
00000100
00000000
00000000
00001000
00000000
00001000
00000000
00000000
00011000
00000000
00000000
00010000
00000000
00000000
00001000
00000000
,
00100000
00000000
01000000
00000000
10000000
00000000
00010000
00000000
01000000
00100000
01000000
00000000
00100000
00000000
00000000
00000000
,
10000000
00010000
00010000
00100000
01000000
00010000
00000000
00001000
,
00000010
00000000
00000000
00000001
00000000
00000000
00000001
00000000
00001001
00000000
00000000
00001001
00000000
00000000
00001001
00000000
,
00001000
00000010
00000100
00002000
00000000
00000100
00000000
00010000
,
00000000
01000000
00000000
00010000
00000000
00000100
00000000
00013000
,
00001000
00100000
01000000
00020000
00000000
01000000
00000000
00001000
,
00000000
00000100
00000000
00031000
01000000
00010000
10000000
00000000
,
00010000
01000000
00100000
00020000
00000000
00100000
00000000
00001000
,
00000000
00000010
00000000
00001000
00000000
00100000
00000000
00031000
,
00100000
01000000
00010000
00002000
00000000
00003010
00000001
00001000
,
00000010
00000000
00000000
00000010
00000000
00000000
00000100
00000000
00000000
00000100
00000000
00000000
00001000
00000000
00010000
00001000
,
00010000
00000000
00200000
10000000
00000000
02300000
00010000
00000000
,
03100000
00000000
10000000
00010000
00100000
00100000
01000000
00010000
,
00001000
00000000
00000010
00000000
00000001
00001000
00000001
00000000
00000000
00000000
00000100
00000000
00000010
00000100
00000010
00000100
,
00000000
00001000
00010000
00001000
00000100
00000000
00001000
00010000
,
00100000
00000000
00000000
00000000
10000000
00000000
00010000
00000000
00000000
00010000
00000000
00000000
00100000
00000000
01000000
00000000
,
00010000
00000000
01000000
00000000
10000000
00000000
00010000
00000000
01000000
00000000
00100000
00000000
00010000
00001000
00000000
00010000
,
00002000
00000000
00003100
00002000
00000000
01003000
00001000
00010000
,
01000000
00000000
00000000
01000000
00000000
00000000
00100000
00000000
00010000
00000000
10000000
00000000
00100000
00000000
00000000
00000000
,
01000000
00000000
00100000
00000000
00010000
00000000
00001000
00000000
00000000
00001000
00000000
00000000
00010000
00000000
00200000
00000000
,
00000000
00320000
00000000
00000000
00031000
00000000
00000020
00000000
00000000
00002030
00000000
00000000
00013000
00000000
00100000
00000000
,
01000000
00100000
01000000
00000000
00010000
00000000
20000000
00000000
00000000
00000000
31000000
00000000
00010000
00000000
00000000
00002000
,
00000000
00000000
00000000
00000000
00013000
00000000
00000000
00010000
00000000
00000000
00001000
00000000
00000100
00000000
00000001
00000000
,
00001000
00000000
00000000
00000000
00000000
00000000
00000001
00000000
00000000
00000000
00000000
00000000
00000010
00000000
00000000
00000000
00000000
00000000
00000000
00000000
00000000
00000100
00000000
00000000
00000000
00000000
00000000
00000000
00000000
00000000
00010000
00000000
00000000
00000000
00000000
00000000
00001000
00000000
00000000
00000000
00010000
00000000
00000000
00000000
00001000
00000000
00000000
00000000
,
00100000
00000000
00000000
00100000
00000000
00000000
00020000
00000000
00000000
00000000
10030000
00000000
00100000
00000000
01000000
00000000
,
00002000
00000000
00013000
00002000
00000000
00003100
00000001
00001000
,
00000100
00000010
00000000
00000100
00000010
00000000
00000001
00000000
00001000
00000000
00000001
00000000
00001000
00000000
00000001
00000000
,
00001001
00000000
00001000
00000000
00000010
00000100
00000000
00001000
,
00000000
00001000
00010000
00000000
00001000
00010000
00001000
00000000
,
00100000
00010000
00100000
00000000
01000000
10000000
00000000
10000000
,
00000000
00010000
01000000
00000000
00100000
00010000
00000000
00010000
,
00011000
00000000
00001000
00000000
01000000
00100000
00000000
10000000
,
00000000
10000000
00010000
00000000
00100000
00001000
00100000
00000000
,
00001000
00010000
00001000
00000000
00010000
00000100
00000000
00000100
,
00000010
00000000
00000001
00000000
00001000
00000000
00000010
00000000
00000100
00000000
00001000
00000000
00010000
00001000
00010000
00001000
,
00020000
00000000
00000000
00000000
00130000
00000000
00000000
00000000
00010000
00000000
00000000
00010000
00000000
00000000
00100000
00000000
,
00000000
00100000
00000000
00000000
10000000
00000000
00000000
00000000
02000000
00000000
00000000
00000000
03010000
00000000
00000000
00000000
,
00002000
00000000
00000000
00000000
00003010
00000000
00000000
00000000
00001000
00000000
00000000
00001000
00000000
00000000
00000010
00000000
,
00000000
00000010
00000000
00000000
00000001
00000000
00000000
00000000
00000200
00000000
00000000
00000000
00001300
00000000
00000000
00000000
,
00021000
00000000
00000000
00000000
01030000
00000000
00000000
00000000
00010000
00000000
00000000
00010000
00000000
00000000
01000000
00000000
,
00000000
01000000
00000000
00000000
10000000
00000000
00000000
00000000
00200000
00000000
00000000
00000000
00310000
00000000
00000000
00000000
,
00002000
00000000
00000000
00000000
00003100
00000000
00000000
00000000
00001000
00000000
00000000
00001000
00000000
00000000
00000100
00000000
,
00000001
00000000
00001000
00000000
00000001
00000000
00000010
00000100
00000000
00001000
00000100
00000000
00010000
00001000
00000000
00010000
,
00001000
00000000
01000000
00000000
00010000
00000000
00000000
00000000
01000000
00000000
00100000
10000000
00000000
00100000
01000000
00000000
,
00010000
01000000
00000000
00001000
00010000
00000000
00001000
00000000
00200000
00000000
00000000
00302000
00000000
00000000
00013000
00000000
,
00000010
00000000
00001000
00000000
00000001
00000000
00000000
00000000
00000010
00000000
00000100
00000010
00000000
00000001
00000010
00000000
,
00000100
00000010
00000000
00000100
00001000
00000000
00000001
00000000
00000200
00000000
00000000
00000320
00000000
00000000
00010030
00000000
,
00001000
00000000
01000000
00000000
00100000
00000000
00010000
00000000
00100000
01000000
00100000
00000000
10000000
00010000
10000000
00000000
,
01000000
00000000
00100000
00000000
00001000
00000000
00020000
00000000
00000000
00000000
00031000
00000000
00000100
00000010
00000100
00000000
,
00000020
00000000
00000000
00000000
00000000
00000000
00000000
00000000
00001030
00000000
00000001
00001000
00000000
00000100
00000010
00000000
,
00000001
00000000
00001000
00000000
00000010
00000000
00000100
00000010
00000000
00001000
00000010
00000000
00010000
00001000
00000000
00100000
,
00002000
00000000
00013000
00100000
10000000
01000000
00010000
00001000
,
00020000
00000000
00031000
00000010
00000001
00000100
00001000
00010000
,
00001000
00100000
00001000
00000000
00010000
00001000
00010000
00000000
00002000
00000000
00000000
00000000
00013000
00000010
00010000
00000000
,
00001000
00010000
00001000
00000000
00020000
00000000
00000000
00000000
00031000
00000000
01000000
00100000
01000000
00100000
01000000
00000000
,
00010000
00000000
00000000
00000000
10010000
00000000
00000000
00000000
01001000
00000000
00000000
00000000
00001000
00000000
00010000
00001000
,
00010000
00000000
00010100
00000000
00001001
00000001
00000200
00000000
,
00001300
00000000
00010000
00100000
00000000
00010000
00001000
00000000
,
00000010
00001000
00000000
00010000
00001000
00010000
01000000
10000000
,
0000M000
00000000
0000M000
00000000
00010000
00000000
01000000
00000000
00100000
00000000
10000000
00010000
10000000
00000000
01000000
00000000
,
00100000
00000000
00001000
00000000
00010000
00000000
00001000
00000000
00100000
00000000
00001000
00010000
00001000
00000000
00010000
00000000
,
00000100
00000000
00000010
00000000
00000001
00000000
00001000
00000000
00000010
00000000
00000100
00000010
00000100
00000000
00000010
00000000
,
00010000
00001000
00000020
00000000
00001030
00010000
00200000
00000000
,
00310000
00000000
00001000
00000000
01000000
00000000
00010000
00000000
10000000
00000000
01000000
00100000
00010000
00000000
10000000
00000000
,
00010000
00000000
01000000
00000000
00100000
00000000
00010000
00000000
00001000
00000000
00100000
00001000
00010000
00000000
00000100
00000000
,
00001000
00000000
00000100
00000000
00000010
00000000
00000100
00000000
00001000
00000000
00000001
00000100
00000010
00000000
00010000
00000000
,
00001000
00000000
00010000
00000000
02000000
00000000
00000000
00000000
03010000
00000000
00001000
00000000
00000100
00000010
00000000
00000100
,
00000010
00001000
00001002
00000100
,
00000013
00000001
00001000
00000000
00000010
00000100
00001000
00000000
,
00010000
00001000
01000000
00000000
20010000
00000000
01000000
00000000
,
30100000
01000000
00100000
00010000
00001000
00100000
00001000
00000000
,
00010000
01000000
20010000
00100000
,
31000000
10000000
00010000
00000000
00100000
01000000
00010000
00000000
,
00001000
00010000
00000100
00000000
00001002
00000000
00000010
00000000
,
00000103
00000010
00000100
00000010
00000100
00000000
00000000
00000000
00001000
00010000
00001000
00010000
00001000
00000000
00000000
00000000
,
00020000
00000000
00000000
00000000
,
00000000
00000000
00000000
00000000
,
00000000
00000000
00000000
00000000
,
00000000
00000000
00000000
00000000
,
00030000
00000000
00000000
00000000
;

//---------------dance-single - ----------------
#NOTES:
     dance-single:
     :
     Easy:
     11:
     0.493025,0.549799,0.271811,0.107077,0.053538,419.000000,386.000000,33.000000,13.000000,0.000000,0.000000,0.493025,0.549799,0.271811,0.107077,0.053538,419.000000,386.000000,33.000000,13.000000,0.000000,0.000000:
0000
0000
0000
0000
,
0000
0000
0000
0000
,
0000
0000
0000
0000
,
0000
0000
0000
0000
,
0000
0000
0000
0000
,
0001
1000
1001
0001
,
0010
0100
0110
0000
,
0001
1000
1001
0001
,
0100
0000
0010
0000
1000
0001
1000
0000
,
0001
0010
0110
0100
,
1000
0001
1000
0010
0100
0010
0100
0000
,
0001
0001
1001
1000
,
0100
0010
0110
0110
,
0001
1000
0001
0100
,
1000
0000
0100
0000
0001
1000
0001
0000
,
1000
0001
1000
0100
,
0001
0000
0100
0000
1000
0001
1000
0000
,
1001
0001
1000
0010
,
0001
0000
0010
0000
1000
0001
1000
0000
,
0001
0000
1000
0000
0100
0010
0100
0000
,
0110
0110
1001
1001
,
0001
0000
0100
0010
0000
0100
0010
0000
,
1000
0001
1000
1000
,
0001
0010
0001
1000
0000
0001
0100
0010
,
0000
1000
1000
0010
,
0100
0010
0001
0001
,
0010
0000
0100
0001
1000
0001
0010
0000
,
0200
0000
0000
0320
0000
0000
0130
0000
,
1000
0000
1000
0000
0001
1000
0001
0000
,
1000
0000
0010
0000
0100
0010
0100
0000
,
0001
1001
1000
1001
,
0001
0100
0010
0100
0000
0001
1000
0000
,
0001
0010
0010
0100
,
0002
0000
0103
0000
0010
0000
0001
1000
,
0010
0000
1000
0000
0001
0000
0010
0100
,
2000
0000
0000
3002
0000
0000
1003
0000
,
0010
0000
0100
0010
1000
0010
0100
0000
,
1001
0001
0010
0000
,
0100
0000
0010
0000
0100
0010
0100
0000
,
1000
0001
1000
0010
,
0100
0010
0100
0000
0001
1000
0001
0000
,
1001
1000
0010
0000
,
0100
0000
0010
0000
0100
0010
0100
0000
,
0001
1000
0001
0010
,
0100
1000
0100
0010
0001
1000
0001
0000
,
1001
0000
0000
0000
1000
0000
0000
0000
0010
0000
0000
0010
0000
0000
0010
0000
,
0000
0010
0000
0000
0010
0000
0000
0000
0110
0000
0000
0000
1001
0000
0000
0000
,
1000
0000
0000
0000
0001
0000
0000
0000
0010
0000
0000
0010
0000
0000
0010
0000
,
0000
0010
0000
0000
0010
0000
0000
0000
0110
0000
0000
0000
1001
0000
0000
0000
,
0110
0000
0000
0000
0001
0000
0000
0000
1000
0000
0000
1000
0000
0000
1000
0000
,
0000
1000
0000
0000
1000
0000
0000
0000
1001
0000
0000
0000
0110
0000
0000
0000
,
0001
0000
0000
0000
1000
0000
0000
0000
0001
0000
0000
0001
0000
0000
0001
0000
,
0010
0000
0001
1000
0010
0100
0001
0000
,
1001
0000
0000
0000
1000
0000
0000
0000
0100
0000
0000
0100
0000
0000
0010
0000
,
0000
0010
0000
0000
0100
0000
0000
0000
1000
0000
0000
1000
0000
0000
1000
0000
,
0001
0000
0000
0000
0100
0000
0000
0000
0010
0000
0000
0010
0000
0000
0100
0000
,
0000
0100
0000
0000
0010
0000
0000
0000
1000
0000
0000
1000
0000
0000
1000
0000
,
0001
0000
0010
0000
0100
1000
0001
0100
,
0010
0000
0100
0010
0000
1000
0001
0010
,
0200
0000
0000
0000
0310
0000
0010
0001
,
1000
0010
0100
0010
1000
0001
0010
0000
,
0110
0000
1000
0000
0001
1000
0001
0000
,
0110
0000
0001
0000
1000
0001
1000
0000
,
0100
0010
0001
1000
0002
0000
0103
0010
,
1000
0001
2000
0000
3100
0010
0001
0000
,
1000
0000
1000
0000
1001
0000
0001
0100
,
0010
0010
0110
1000
,
0002
0000
0000
2003
0000
0000
3200
0000
,
0000
0320
0000
0000
0031
0000
0001
0000
,
0000
0000
1000
1000
,
0010
0100
0001
1000
0100
0000
0100
0000
,
0010
0001
1000
0100
1000
0000
1000
0000
,
0001
0100
0010
0000
1000
0100
0010
0000
,
0001
0010
0100
1000
0001
0100
0001
0000
,
0100
0010
1000
0001
0010
0100
0010
0000
,
0001
1000
0010
0100
0001
1000
0001
0000
,
1000
0100
0010
0000
0001
0100
0010
0000
,
0100
0010
1001
1000
,
0001
1000
0100
0100
,
0010
0100
1001
0001
,
1000
0010
0100
0000
0001
0010
0100
0000
,
0010
0100
1001
0001
,
1000
0001
0100
0100
,
0010
0100
1001
0001
,
1000
0100
0001
0000
1000
0010
0001
0000
,
2000
0000
0000
0000
,
0000
0000
0000
0000
,
0000
0000
0000
0000
,
0000
0000
0000
0000
,
3000
0000
0000
0000
;

//---------------dance-double - ----------------
#NOTES:
     dance-double:
     :
     Easy:
     11:
     0.470668,0.549799,0.189444,0.115314,0.053538,400.000000,377.000000,23.000000,14.000000,0.000000,0.000000,0.470668,0.549799,0.189444,0.115314,0.053538,400.000000,377.000000,23.000000,14.000000,0.000000,0.000000:
00000000
00000000
00000000
00000000
,
00000000
00000000
00000000
00000000
,
00000000
00000000
00000000
00000000
,
00000000
00000000
00000000
00000000
,
00000000
00000000
00000000
00000000
,
00000001
00000100
00001000
00010000
,
00100000
10000000
10010000
00000000
,
10000000
01000000
00010000
00001000
,
00000010
00000000
00000001
00000000
00001000
00000001
00001000
00000000
,
00000001
00000100
00001000
00010000
,
00100000
01000000
00100000
01000000
00010000
10000000
00010000
00000000
,
10000000
01000000
00010000
00001000
,
00000010
00000001
00001001
00001001
,
00001000
00000010
00000100
00001000
,
00010000
00000000
01000000
00000000
00010000
00001000
00010000
00000000
,
00001000
00010000
00100000
00010000
,
00001000
00000000
00000010
00000000
00001000
00010000
00001000
00000000
,
00011000
00010000
01000000
00010000
,
00001000
00000000
00000100
00000000
00001000
00010000
00001000
00000000
,
00010000
00100000
10000000
00010000
,
10010000
10010000
01100000
01100000
,
00010000
00000000
10000000
00010000
00000000
10000000
00010000
00000000
,
00200000
00000000
00001000
00301000
,
00010000
00000100
00001000
00000100
00000000
00000010
00000001
00001000
,
00000000
00000001
00001001
00001000
,
00000010
00000100
00001000
00001000
,
00010000
00000000
00100000
00000000
10000000
00010000
10000000
00000000
,
02000000
00000000
00000000
03020000
00000000
00000000
00031000
00000000
,
00010000
00000000
00000010
00000000
00000100
00000001
00001000
00000000
,
00000001
00000010
00000001
00001000
00000000
00000000
00000010
00000000
,
00000110
00001000
00001001
00000001
,
00000100
00000010
00010000
00000010
00000000
00010000
00001000
00000000
,
00010000
00100000
01000000
01000000
,
00020000
00000000
10030000
00000000
00010000
00000000
00100000
01000000
,
10000000
00010000
01000000
00001000
,
00020000
00000000
00000000
00030200
00000000
00000000
00000310
00000000
,
00000001
00000000
00001000
00000001
00001000
00000010
00000100
00000000
,
00000110
00000001
00001000
00000000
,
00000010
00000000
00010000
00000000
00001000
00010000
00001000
00000000
,
00100000
00010000
10000000
00000000
,
00100000
01000000
00001000
00001000
,
00011000
00010000
00000100
00000000
,
00000010
00000000
00000001
00000000
00001000
00000001
00001000
00000000
,
00000001
00000100
00000010
00010000
,
00001000
00100000
00001000
00100000
00010000
10000000
00100000
00000000
,
01100000
00000000
00000000
00000000
01000000
00000000
00000000
00000000
00010000
00000000
00000000
00010000
00000000
00000000
00010000
00000000
,
00000000
00010000
00000000
00000000
00010000
00000000
00000000
00000000
10000000
00000000
00000000
00000000
01000000
00000000
00000000
00000000
,
00010000
00000000
00000000
00000000
00001000
00000000
00000000
00000000
00010000
00000000
00000000
00010000
00000000
00000000
00010000
00000000
,
00000000
00010000
00000000
00000000
00010000
00000000
00000000
00000000
00001000
00000000
00000000
00000000
00000100
00000000
00000000
00000000
,
00000110
00000000
00000000
00000000
00000010
00000000
00000000
00000000
00001000
00000000
00000000
00001000
00000000
00000000
00001000
00000000
,
00000000
00001000
00000000
00000000
00001000
00000000
00000000
00000000
00000001
00000000
00000000
00000000
00000010
00000000
00000000
00000000
,
00001000
00000000
00000000
00000000
00010000
00000000
00000000
00000000
00001000
00000000
00000000
00001000
00000000
00000000
00001000
00000000
,
01000000
00000000
00100000
10000000
00010000
00100000
01000000
00000000
,
10010000
00000000
00000000
00000000
00010000
00000000
00000000
00000000
10000000
00000000
00000000
10000000
00000000
00000000
00100000
00000000
,
00000000
00100000
00000000
00000000
10000000
00000000
00000000
00000000
00010000
00000000
00000000
00010000
00000000
00000000
00010000
00000000
,
00100000
00000000
00000000
00000000
00001000
00000000
00000000
00000000
00010000
00000000
00000000
00010000
00000000
00000000
00000100
00000000
,
00000000
00000100
00000000
00000000
00010000
00000000
00000000
00000000
00000100
00000000
00000000
00000100
00000000
00000000
00000100
00000000
,
00000010
00000000
00000001
00000000
00001000
00000010
00010000
00000010
,
00001000
00000000
00000010
00010000
00000000
00001000
00100000
00010000
,
00200000
00000000
00000000
00000000
01300000
00000000
01000000
10000000
,
00010000
01000000
00100000
00010000
00001000
00010000
00001000
00000000
,
00011000
00010000
00000100
00000010
,
00011000
00001000
01000000
00100000
,
10000000
00010000
00100000
01000000
00200000
00000000
00301000
00010000
,
00000010
00001000
00000020
00000000
00000130
00000001
00001000
00000000
,
00000001
00000100
00001000
00001000
,
00010000
00100000
10000000
10000000
,
10020000
00000000
00000000
00230000
00000000
00000000
00302000
00000000
,
00000000
00023000
00000000
00000000
00030010
00000000
00000100
00000000
,
00000000
00000000
00000001
00000001
,
00000100
00000010
00010000
00001000
00010000
00000000
00010000
00000000
,
00001000
00100000
00010000
00100000
01000000
00000000
01000000
00000000
,
10000000
00100000
01000000
00000000
00010000
00100000
01000000
00000000
,
00100000
00001000
00010000
00000010
00001000
00000010
00000100
00000000
,
00000001
00000100
00000010
00000100
00001000
00010000
00001000
00000000
,
00010000
01000000
00100000
00010000
10000000
00100000
01000000
00000000
,
00010000
01000000
00100000
00000000
10000000
01000000
00100000
00001000
,
00010000
00001000
00011000
00010000
,
00000100
00000010
00000100
00000100
,
00001000
00000001
00001001
00001000
,
00000010
00000100
00001000
00000000
00010000
00100000
01000000
00000000
,
00010000
10000000
10010000
00010000
,
00100000
01000000
00100000
00100000
,
00001000
00010000
00011000
00001000
,
00010000
00100000
10000000
00000000
00010000
00100000
10000000
00000000
,
00020000
00000000
00000000
00000000
,
00000000
00000000
00000000
00000000
,
00000000
00000000
00000000
00000000
,
00000000
00000000
00000000
00000000
,
00030000
00000000
00000000
00000000
;

//---------------dance-single - ----------------
#NOTES:
     dance-single:
     :
     Beginner:
     8:
     0.320054,0.403186,0.131787,0.082367,0.000000,272.000000,256.000000,16.000000,10.000000,0.000000,0.000000,0.320054,0.403186,0.131787,0.082367,0.000000,272.000000,256.000000,16.000000,10.000000,0.000000,0.000000:
0000
0000
0000
0000
,
0000
0000
0000
0000
,
0000
0000
0000
0000
,
0000
0000
0000
0000
,
0000
0000
0000
0000
,
0001
0000
1001
0000
,
1000
0100
0010
0100
,
1000
0000
1001
0000
,
0001
0100
0020
0000
,
0130
0000
1001
0000
,
1000
0100
0010
0001
,
1000
0000
1001
0000
,
0001
0100
0010
0010
,
2000
0000
3001
0001
,
1000
1000
0001
0001
,
0200
0000
0310
0010
,
0100
0100
0010
0010
,
2000
0000
3001
0001
,
0010
0010
0100
0100
,
2000
0000
3001
0001
,
0100
0100
0100
0000
,
0001
1000
0100
0000
,
0010
0001
1000
1000
,
0010
0100
0000
0001
,
0000
1000
1001
0000
,
0001
1000
0100
0100
,
0010
0001
1000
0010
,
0100
0000
0010
0010
,
1000
0000
0001
0001
,
1000
0000
0100
0010
,
1000
0010
0001
0100
,
0010
0000
0100
0001
,
1000
0000
0001
0001
,
0020
0000
0130
0000
,
1000
0001
0100
0000
,
0010
0000
0100
0100
,
0001
1000
1000
1000
,
1001
0000
0001
0000
,
0010
0000
0100
0100
,
0010
0000
0001
0000
,
1000
0000
0010
0000
,
0110
0000
0100
0000
,
0001
0000
1000
1000
,
0100
0000
0010
0000
,
0001
0001
1000
1000
,
1001
0000
0001
0001
,
0001
0000
0100
0100
,
0010
0000
1000
1000
,
1000
0000
0100
0100
,
0110
0000
0001
0001
,
0001
0000
0100
0100
,
0010
0000
1000
1000
,
0001
0010
0100
1000
,
0001
0100
0010
0010
,
0010
0010
0100
0100
,
0001
1000
0100
0100
,
0100
0100
0010
0010
,
0001
1000
0010
0100
,
0000
0001
1000
0100
,
0002
0000
0103
0100
,
0010
0000
0001
0000
1000
0001
1000
0000
,
1001
0001
0100
0000
,
1001
1000
0100
0000
,
0010
0010
0010
0100
,
0100
0100
0000
1000
,
0001
0000
0100
0000
0010
0000
1000
0001
,
1000
0100
0010
0000
,
0001
0000
0000
0001
0000
0000
0001
0000
,
0000
0001
0000
0000
0001
0000
1000
0000
,
0000
0000
0000
0001
,
0100
0010
1000
1000
,
1001
0000
0001
1000
,
0100
0010
0001
0001
,
1001
0000
1000
0001
,
0010
0000
0100
0000
1000
0001
1000
0000
,
1001
0000
0001
1000
,
0010
0000
0100
0000
0001
1000
0001
0000
,
1001
0000
1000
0100
,
0001
0100
1000
0000
,
0001
0000
0001
0100
,
1000
0100
0001
0000
,
1001
0000
1000
0010
,
0001
0010
1000
0000
,
0001
0000
0001
0010
,
0200
0000
0320
0000
,
0230
0000
0000
0000
,
0000
0000
0000
0000
,
0000
0000
0000
0000
,
0000
0000
0000
0000
,
0300
0000
0000
0000
;
