#VERSION:0.83;
#TITLE:Voracity in the Warehouse;
#SUBTITLE:;
#ARTIST:Vale-Smith;
#TITLETRANSLIT:;
#SUBTITLETRANSLIT:;
#ARTISTTRANSLIT:;
#GENRE:UK Garage;
#ORIGIN:;
#TAGS:;
#CREDIT:;
#BANNER:Voracity in the Warehouse.png;
#BACKGROUND:Voracity in the Warehouse-bg.png;
#PREVIEWVID:;
#JACKET:Voracity in the Warehouse-jacket.png;
#CDIMAGE:;
#DISCIMAGE:;
#LYRICSPATH:;
#CDTITLE:;
#MUSIC:Voracity in the Warehouse.ogg;
#OFFSET:0.000000;
#SAMPLESTART:99.039993;
#SAMPLELENGTH:15.000000;
#SELECTABLE:YES;
#BPMS:0.000000=136.000000,
78.000000=135.000000,
79.000000=138.000000,
79.875000=143.000000,
83.000000=145.000000,
84.000000=146.000000,
85.000000=147.000000,
86.000000=134.000000,
86.500000=139.000000,
86.666664=140.000000,
86.833336=141.000000,
87.000000=142.000000,
87.166664=143.000000,
87.333336=144.000000,
87.500000=145.000000,
87.666664=146.000000,
87.833336=147.000000,
88.000000=148.000000,
88.166664=149.000000,
88.333336=150.000000,
88.500000=151.000000,
88.666664=152.000000,
88.833336=153.000000,
89.000000=154.000000,
89.166664=155.000000,
89.333336=156.000000,
89.500000=157.000000,
89.666664=158.000000,
89.833336=159.000000,
90.000000=160.000000,
214.000000=146.000000;
#STOPS:;
#DELAYS:;
#WARPS:;
#TIMESIGNATURES:0.000000=4=4,
132.000000=2=4,
134.000000=4=4;
#TICKCOUNTS:0.000000=4;
#COMBOS:0.000000=1;
#SPEEDS:0.000000=1.000000=0.000000=0;
#SCROLLS:0.000000=1.000000;
#FAKES:;
#LABELS:0.000000=Song Start;
#LASTSECONDHINT:134.883469;
#BGCHANGES:;
#KEYSOUNDS:;
#ATTACKS:
;

//---------------dance-single - ----------------
#NOTEDATA:;
#CHARTNAME:;
#STEPSTYPE:dance-single;
#BANNER:;
#DESCRIPTION:;
#CHARTSTYLE:;
#DIFFICULTY:Beginner;
#METER:4;
#METERF:0.000000;
#RADARVALUES:0.164803,0.238807,0.102871,0.088175,0.000000,157.000000,143.000000,14.000000,12.000000,0.000000,0.000000,0.000000,0.000000,0.000000,0.164803,0.238807,0.102871,0.088175,0.000000,157.000000,143.000000,14.000000,12.000000,0.000000,0.000000,0.000000,0.000000,0.000000;
#CREDIT:DJEmbrace;
#NOTES:
0000
0000
0000
0000
,
0000
0000
0000
0000
,
0000
0000
0000
0000
,
0000
0000
0000
0000
,
0000
0000
0000
0000
,
0001
0000
0001
0000
,
0001
0000
1000
0000
,
1000
0000
1000
0000
,
0010
0000
0000
0000
,
0100
0000
0001
0000
,
1000
0000
0001
0000
,
1000
0000
0001
0000
,
1000
0000
0100
0000
,
0010
0000
0001
0000
,
1000
0000
0010
0000
,
0010
0000
0100
0100
,
0100
0000
0001
0000
,
1000
0000
0200
0000
,
0300
0000
0010
0000
,
0001
0000
0000
0000
,
0000
0000
0000
0000
,
0000
0000
1000
0000
,
0000
0000
0001
0000
,
0001
0000
2000
0000
,
3000
0000
0020
0000
,
0030
0000
0000
0000
0000
1000
0000
0000
,
0000
0000
0000
0000
0000
0001
0000
0000
,
0000
0001
0000
0000
0000
0020
0000
0000
,
0000
0030
0000
0000
0000
0200
0000
0300
,
0000
0000
0000
0000
0000
2000
0000
0000
,
0000
3000
0000
0000
0000
0010
0000
0000
,
0000
0100
0000
0000
0000
0002
0000
0000
,
0000
0003
0000
0000
0000
1000
0000
0000
,
0000
0000
0001
0000
,
0010
0000
0100
0000
,
0000
0000
0010
0000
,
0100
0000
2000
0000
,
3000
0000
0001
0001
,
0001
0000
0100
0000
,
0010
0000
0100
0000
,
0001
0001
0002
0000
,
0003
0000
1000
1000
,
1000
0000
0100
0000
,
0010
0000
0100
0000
,
1000
1000
2000
0000
,
3000
0000
0010
0010
,
0010
0010
0010
0010
,
0010
0000
0100
0100
,
0100
0100
0100
0100
,
0000
0000
1001
0000
,
0001
0000
1000
0000
,
0001
0000
0110
0000
,
0110
0000
0110
0000
,
1000
0000
0002
0000
,
0000
0000
0000
0000
,
0000
0000
0000
0000
,
0000
0000
0000
0000
,
0003
0000
1001
0000
,
0010
0000
0100
0000
,
0010
0010
0010
0000
,
1000
0000
0001
0000
,
1000
1000
1000
0000
,
0100
0000
0010
0000
,
0100
0100
0100
0000
,
0010
0000
0001
0000
,
1000
0000
1001
0000
,
1001
0000
0010
0000
,
0100
0000
0110
0000
,
0110
0000
0002
0000
,
0003
0000
1001
0000
,
1001
0000
1000
0000
,
0010
0000
0100
0000
,
0010
0000
1000
0000
,
0000
0000
1001
0000
,
0001
0001
0000
1000
,
1000
0000
0100
0000
,
0010
0010
0000
0001
,
0001
0000
1000
0000
,
0010
0010
0000
1000
,
1000
0000
0001
0000
,
0100
0100
0100
0000
,
1001
1001
0000
0000
;

//---------------dance-single - ----------------
#NOTEDATA:;
#CHARTNAME:;
#STEPSTYPE:dance-single;
#BANNER:;
#DESCRIPTION:;
#CHARTSTYLE:;
#DIFFICULTY:Easy;
#METER:6;
#METERF:0.000000;
#RADARVALUES:0.319109,0.447764,0.418831,0.220437,0.000000,304.000000,247.000000,57.000000,30.000000,0.000000,0.000000,0.000000,0.000000,0.000000,0.319109,0.447764,0.418831,0.220437,0.000000,304.000000,247.000000,57.000000,30.000000,0.000000,0.000000,0.000000,0.000000,0.000000;
#CREDIT:DJEmbrace;
#NOTES:
0000
0000
0000
0000
,
0000
0000
0000
0000
,
0000
0000
0000
0000
,
0000
0000
0000
0000
,
0000
0000
0000
0000
,
0110
1000
0001
1000
,
0010
0100
0001
1000
,
0100
0010
0001
0100
,
1010
0000
0101
0000
,
1001
1010
0020
0130
,
0001
0001
1001
1000
,
0101
0100
1001
0001
,
1010
1000
0011
0000
,
0110
2000
3001
0002
,
1003
0010
1001
0100
,
1001
0001
0010
0010
,
0010
0200
1300
0000
,
0001
0000
0100
0010
,
0000
0010
0000
0000
1000
0000
0000
0000
,
0100
0000
0000
0000
,
0000
0000
0000
0000
,
0000
0000
0002
0000
,
0000
0000
1003
0000
,
0010
0000
2000
0000
,
3001
0000
0010
0010
,
0010
0000
0000
0000
0000
1001
0000
0000
,
0000
0001
0000
0000
0000
0010
0000
0001
,
0000
0010
0000
0000
0000
0100
0000
0000
,
0000
1000
0000
0000
0000
0010
0000
1000
,
0000
0001
0000
0000
0000
1001
0000
0001
,
0000
0001
0000
0001
0000
1000
0000
0100
,
0000
0010
0000
0010
0000
0100
0000
1000
,
0000
0100
0000
1000
0000
0002
0000
0000
,
0000
1003
0000
0000
0010
0000
0010
0000
,
1000
0001
0010
0000
,
0100
0000
0010
0001
,
0100
0010
0020
0000
,
1030
0000
1001
0011
,
0010
0100
0020
0032
,
2003
3010
0120
1030
,
1010
1001
1002
0000
,
0013
0000
0100
0100
,
1000
0001
1000
0000
0010
0000
1000
0000
,
0100
1000
1020
1030
,
0001
1000
0001
0000
0020
0000
0000
0000
,
0130
0000
1001
1000
,
1001
0001
0101
0100
,
0110
0010
2010
3002
,
2003
3002
0023
0230
,
1300
0001
0101
0101
,
0001
1000
1100
1100
,
0100
0000
0010
0000
0001
0000
0000
1000
,
0001
0000
0000
1000
0010
0000
0000
0100
,
0001
0000
2000
0000
,
0000
0000
0000
0000
,
0000
0000
0000
0000
,
3000
0002
0000
0000
,
0003
0000
1100
0010
,
0001
0010
1100
1000
,
0010
0010
0101
1000
,
0010
1000
0101
0001
,
0010
0010
0110
1000
,
0001
1000
0110
0001
,
0100
0010
1001
0100
,
0010
0100
1001
1000
,
0010
0100
0101
0000
,
1010
0000
0101
0000
,
1010
0000
1100
0000
,
0011
0000
0020
0032
,
0203
0302
0013
0010
,
0100
0100
1000
1000
,
0001
0001
0100
0100
,
0010
1000
0001
0000
,
0000
0000
0101
1010
,
1000
0001
1000
0000
0000
0000
0010
0000
,
1000
1100
0100
0011
,
0001
1000
0001
0000
0200
0000
0310
0000
,
2000
3001
0011
1100
,
0100
0010
0100
0000
0010
0000
0011
0000
,
0002
0103
1010
0101
,
0100
0010
0100
0000
0001
0000
1001
0000
,
0110
1001
0000
0000
;

//---------------dance-single - ----------------
#NOTEDATA:;
#CHARTNAME:;
#STEPSTYPE:dance-single;
#BANNER:;
#DESCRIPTION:;
#CHARTSTYLE:;
#DIFFICULTY:Medium;
#METER:11;
#METERF:0.000000;
#RADARVALUES:0.495459,0.537316,0.242481,0.308612,0.172676,472.000000,439.000000,33.000000,42.000000,0.000000,0.000000,0.000000,0.000000,0.000000,0.495459,0.537316,0.242481,0.308612,0.172676,472.000000,439.000000,33.000000,42.000000,0.000000,0.000000,0.000000,0.000000,0.000000;
#CREDIT:DJEmbrace;
#NOTES:
0000
0000
0000
0000
,
0000
0000
0000
0000
,
0000
0000
0000
0000
,
0000
0000
0000
0000
,
0000
0000
0000
0000
,
1001
0000
0000
0000
1000
0000
0010
0000
0200
0000
0000
0000
0301
0000
0000
0001
,
1000
0000
0001
0010
0001
0010
0100
1000
,
0100
1000
0010
1000
0010
0100
0001
0010
,
0110
0000
0000
0000
1000
0000
0000
1000
0002
0000
0000
0000
0103
0000
0000
0000
,
0110
0000
0000
0000
1010
0000
0000
1000
0010
0000
0000
0000
0101
0000
0000
0001
,
0100
0000
0001
1000
0001
1000
0100
0010
,
0100
0010
0001
1000
0001
1000
0010
0100
,
0010
0100
0001
1000
2000
0000
3001
0000
,
0110
0000
0000
0000
0011
0000
0000
0010
0001
0000
1000
0000
0100
0000
0000
0100
,
1000
0000
0010
1000
0010
1000
0100
0010
,
0100
0010
0001
0100
0010
0010
0010
0010
,
0010
0010
0010
0010
2000
0000
3001
0000
,
0002
0000
1003
0100
0020
0000
0031
0000
,
0100
0010
0100
0001
2000
0000
3100
0000
,
0020
0000
0031
1000
0000
0000
0000
0000
,
0000
0000
0000
0000
,
0000
0000
0002
0000
,
2003
0000
0000
0000
3100
0000
0010
0100
,
0010
0000
0100
1000
0002
0000
0000
0000
,
1003
0000
0000
0000
0010
0010
0010
0010
,
0010
0000
0000
0000
1000
1001
0000
0001
,
0000
0010
0000
0010
0000
0100
0000
1000
,
0100
0020
0000
0001
0000
0032
0000
0000
,
0000
1003
0000
0000
0000
0010
0010
0010
,
0000
0000
0000
0000
0000
0000
0000
1000
0001
1000
0002
0000
0000
0000
1000
0000
,
0000
0100
0000
0203
0000
0310
0010
1000
,
0001
0010
0100
0010
0100
2000
0000
0001
,
0000
0000
0010
0000
0000
0000
3010
0000
0000
0010
0100
0000
0100
0000
0100
0000
,
0100
0000
0100
0000
0000
0001
0000
0000
0011
0000
0000
0000
1100
0000
0000
0000
,
1001
1000
0001
0000
0010
0000
0100
0010
,
0001
0001
0001
0001
2000
0020
0000
0030
,
3001
0000
0100
0000
0010
0000
0000
0010
1000
0000
1000
0000
1000
0000
1000
0000
,
0000
0010
1001
0011
,
0010
0100
2000
0000
3010
0001
0020
0000
,
1030
0001
0010
0000
0021
0000
0130
0000
,
0010
0000
0100
0000
0010
0000
0000
0010
0001
0000
0001
0000
0001
0000
0001
0000
,
1000
0000
0011
1001
,
0101
0100
0020
0000
0130
1000
0200
0000
,
0302
0000
1003
0000
1010
0010
1000
0001
,
0010
0000
0100
0000
1000
0000
0000
1000
0010
0000
0010
0000
0010
0000
0010
0000
,
0200
0301
1001
1100
,
1001
1100
0110
0011
,
2001
0000
3010
0010
0020
0000
2030
0000
,
3200
0302
0103
0110
,
0001
0000
0100
0000
0001
0010
0001
0010
,
0100
1000
0100
1000
0010
0100
0001
0010
,
0001
0100
0010
1000
0200
0000
0310
0001
,
0200
0000
0310
1000
0200
0000
0310
0001
,
1000
0000
0002
0000
,
0000
0000
0000
0000
,
0000
0000
0000
0000
,
0003
2000
3000
0100
,
0010
0000
0000
0000
0011
0001
1000
0010
,
0000
0000
0010
0000
1000
0000
0100
0000
0010
0000
0001
1000
0000
0001
1000
0000
,
0010
0100
0010
0000
1000
1000
0100
0010
,
0000
0000
0010
0000
0001
0000
1000
0000
0010
0000
0100
0001
0000
0100
0001
0000
,
1000
0100
1000
0000
0101
0100
0010
1000
,
0000
0000
1000
0000
0100
0000
0010
0000
0001
0000
1000
0010
0000
1000
0010
0000
,
0100
0010
1000
0001
0010
0010
0100
0010
,
0000
0000
0001
0000
1000
0000
0010
0000
0100
0000
0001
0010
0000
0001
0010
0000
,
0100
0000
1000
0000
0010
0000
0000
0000
1010
0000
0000
1000
0010
0000
0000
0010
,
0100
0000
0000
0100
0001
0000
1000
0000
0100
0000
0000
0100
0010
0000
0000
0010
,
0100
0000
0000
0100
1000
0000
0001
0000
0100
0000
0000
0100
0010
0000
0000
0010
,
1000
0000
0000
1000
0001
0000
0010
0000
0002
0000
0000
0000
0203
0000
0000
0000
,
0320
0000
0000
0000
2030
0000
0000
0000
3100
0000
0000
0100
0010
0000
0000
0010
,
0001
0000
0000
0001
1000
0000
0010
0000
0100
0000
0000
0100
0010
0000
0000
0010
,
1000
0000
0000
1000
0100
0000
0010
0000
0001
0000
0000
0001
1000
0000
0000
1000
,
0020
0100
0130
0001
1000
1000
0000
1000
,
0000
0000
1000
0000
0000
0000
0000
0000
0100
0000
1000
0010
0000
0010
1000
0000
,
0100
0100
0010
0000
0001
0001
1000
1001
,
0000
0000
0011
0000
0001
0000
0000
0000
0010
0000
0001
0100
0000
0100
0001
0000
,
0010
0010
0100
0000
1000
1000
0010
0100
,
0000
0000
0100
0000
0010
0000
0000
0000
0100
0000
0001
0010
0000
0010
0001
0000
,
0100
0100
0010
0000
1000
1000
0001
1001
,
0000
0000
1010
0000
1000
0000
0000
0000
0010
0000
1000
0100
0000
0100
1000
0000
,
0001
0000
0010
0000
0100
0000
0000
0000
1000
0000
0000
1000
0020
0000
0000
0000
,
0230
0301
0000
0000
;

//---------------dance-single - ----------------
#NOTEDATA:;
#CHARTNAME:;
#STEPSTYPE:dance-single;
#BANNER:;
#DESCRIPTION:;
#CHARTSTYLE:;
#DIFFICULTY:Hard;
#METER:14;
#METERF:0.000000;
#RADARVALUES:0.589933,0.686571,0.257177,0.323308,0.473941,562.000000,527.000000,35.000000,44.000000,0.000000,0.000000,0.000000,0.000000,0.000000,0.589933,0.686571,0.257177,0.323308,0.473941,562.000000,527.000000,35.000000,44.000000,0.000000,0.000000,0.000000,0.000000,0.000000;
#CREDIT:DJEmbrace;
#NOTES:
// measure 0
0000
0000
0000
0000
,  // measure 1
0000
0000
0000
0000
,  // measure 2
0000
0000
0000
0000
,  // measure 3
0000
0000
0000
0000
,  // measure 4
0000
0000
0000
0000
,  // measure 5
1200
0000
0000
0000
0310
0000
0001
0000
1000
0000
0010
0000
0100
0000
0000
0010
,  // measure 6
1000
0000
0000
0000
0001
0010
0000
0010
0100
0000
0010
0001
1000
0000
0010
0100
,  // measure 7
0001
0000
1000
0000
0100
0010
0000
0010
0001
0000
1000
0001
0100
0000
0001
1000
,  // measure 8
0020
0000
0000
0000
0130
0000
0000
0001
1000
0000
0001
0000
0010
0100
0000
0000
,  // measure 9
0110
0000
0000
0000
1001
0000
0001
0100
0001
0000
1000
0010
0100
0000
0001
1000
,  // measure 10
0100
0000
0000
0000
0010
0100
0000
0100
1000
0000
0001
0100
0010
0000
1000
0001
,  // measure 11
0010
0000
0100
0000
1000
0100
0000
0100
0010
0000
0001
1000
0010
0000
0100
0001
,  // measure 12
1000
0000
0000
0000
0100
1000
0000
1000
0002
0000
0000
0000
0103
0010
0000
0000
,  // measure 13
1010
0000
0000
0000
0101
0000
1000
0001
1000
0000
0100
0000
0010
0000
0100
1000
,  // measure 14
0001
0000
0000
0000
0001
1000
0000
1000
0001
0000
0100
0000
0010
0000
0100
0001
,  // measure 15
1000
0000
0000
0000
1000
0100
0000
0100
0010
0000
0010
0000
0001
0000
0001
0000
,  // measure 16
0100
0000
0100
0000
0010
0100
0000
0100
0002
0000
0000
0000
0013
0000
0000
0000
,  // measure 17
0100
0000
1000
0100
0002
0000
0103
0000
,  // measure 18
0010
0000
0001
0000
1000
0000
0010
0100
0020
0000
0000
0000
0130
0000
0000
0000
,  // measure 19
0002
0000
0013
0100
0000
0000
0000
0000
,  // measure 20
0000
0000
0000
0000
,  // measure 21
0000
0000
2000
0000
,  // measure 22
3020
0000
0000
0000
0230
0000
0301
1000
,  // measure 23
0002
0000
0013
0100
2000
0000
0000
0000
,  // measure 24
3001
0000
0000
0000
0000
0000
0000
0000
0100
0001
0200
0000
0320
0000
0130
0001
,  // measure 25
0200
0000
0000
0000
0000
0310
0000
0000
1000
0000
1001
0000
0000
0000
0001
0000
,  // measure 26
0010
0100
0000
0000
0000
0000
0010
0000
0001
0000
1000
0000
0010
0100
0000
0000
,  // measure 27
0000
0000
0010
0000
1000
0000
0100
0000
0010
0001
0000
0000
0000
0000
0001
0000
,  // measure 28
0010
0000
0100
0000
1000
0010
0000
0000
0000
0000
0100
0010
0100
0010
0100
0010
,  // measure 29
0000
0000
1001
0000
0000
0000
0000
0001
0010
0100
2000
0000
0000
0000
0001
0000
,  // measure 30
0000
0010
0000
3001
0000
0100
0100
0001
,  // measure 31
0010
0100
0100
1000
1000
0002
0000
0010
,  // measure 32
0000
0000
1000
0000
0000
0000
0103
0000
0010
0100
0010
0100
0020
0000
2030
0000
,  // measure 33
3010
0100
0010
0000
0000
1000
0000
0000
0011
0000
0000
0000
1100
0000
0000
0000
,  // measure 34
0001
0010
0100
0000
2000
0000
3010
0001
,  // measure 35
0010
0010
1000
1000
0001
0010
2000
0000
,  // measure 36
3010
0000
0100
0000
0100
0000
0010
0100
1000
0001
2000
0000
3002
0000
1003
0001
,  // measure 37
0100
0000
0000
0010
0000
0100
0000
0000
0110
0000
0000
0000
0101
0000
0000
0000
,  // measure 38
0001
1000
0001
0000
1001
0000
0000
0000
1000
0000
1000
0000
0100
0000
0100
0000
,  // measure 39
0001
0001
0100
0100
0020
0000
0031
0000
,  // measure 40
1010
0000
0010
0000
0100
0000
0001
0100
0001
0100
0002
0000
2003
0000
3001
1000
,  // measure 41
0010
0100
1010
1001
,  // measure 42
1000
0100
1000
0000
1100
0000
0000
0000
0100
0000
0100
0000
0010
0000
0010
0000
,  // measure 43
1000
1000
0010
0010
0002
0000
0103
0000
,  // measure 44
0010
0000
0100
0000
1001
0000
0001
1000
0001
1000
0002
0000
0013
0001
0010
0001
,  // measure 45
0000
0000
0000
1000
0000
0010
0000
0000
0110
0000
0000
0000
1001
0000
0000
0000
,  // measure 46
0110
1001
1010
0110
,  // measure 47
0101
0000
1000
0100
0210
0000
0301
0000
,  // measure 48
0210
1300
1002
0103
,  // measure 49
0010
0000
0100
0000
0001
0010
1000
0010
,  // measure 50
0001
1000
0010
0100
0001
0100
1000
0100
,  // measure 51
0001
0010
0100
1000
0001
0001
1000
1000
,  // measure 52
0001
0001
1000
1000
0001
0001
1000
1000
,  // measure 53
0010
0000
0200
0000
,  // measure 54
0000
0000
0000
0000
,  // measure 55
0000
0000
0000
0000
,  // measure 56
0300
0002
0000
0000
,  // measure 57
1003
0000
0000
0000
0011
0001
1000
0001
,  // measure 58
0000
0000
1000
0000
0010
1000
0010
0000
0100
0000
0001
1000
0000
1000
0001
0000
,  // measure 59
0010
0100
0010
0100
0010
0000
0000
0000
0100
0000
0100
0000
1000
0000
0100
0000
,  // measure 60
0000
0000
0010
0000
0001
1000
0001
0000
0100
0000
0010
1000
0000
1000
0010
0000
,  // measure 61
0100
0010
0100
0010
0100
0000
0000
0000
0001
0000
0001
0000
0010
0000
1000
0000
,  // measure 62
0000
0000
0010
0000
0001
1000
0001
0000
1000
0000
0010
0100
0000
0100
0010
0000
,  // measure 63
1000
0001
1000
0001
0010
0000
0000
0000
0001
0000
0001
0000
0100
0000
1000
0000
,  // measure 64
0000
0000
0100
0000
0001
1000
0001
0000
1000
0000
0100
0010
0000
0010
0100
0000
,  // measure 65
1000
0001
1000
0001
0100
0000
0000
0000
0110
0000
0000
0100
0001
0000
0000
0001
,  // measure 66
0010
0000
0000
0010
0100
0000
0000
0100
1000
0000
0000
1000
0010
0000
0000
0010
,  // measure 67
1000
0000
0000
1000
0001
0000
0000
0001
0010
0000
0000
0010
0100
0000
0000
0100
,  // measure 68
0001
0000
0000
0001
0100
0000
0000
0100
2000
0000
0000
3001
2000
0000
0000
3010
,  // measure 69
2000
0000
0000
3001
2000
0000
0000
3001
0010
0000
0000
0100
0010
0000
0000
1000
,  // measure 70
0010
0000
0000
0100
0010
0000
0000
0001
0100
0000
0000
0010
0100
0000
0000
1000
,  // measure 71
0100
0000
0000
0010
0100
0000
0000
0001
1000
0000
0000
0100
0010
0000
0000
0001
,  // measure 72
1000
0010
0100
0001
1000
1000
0000
1000
,  // measure 73
0000
0000
1000
0000
0000
0000
0000
0000
0001
0000
0001
0010
0000
0010
0100
0000
,  // measure 74
1000
0001
1000
0001
0200
0000
0000
0000
0310
0000
0100
0000
1001
0000
0010
0000
,  // measure 75
0200
0000
0300
0000
1001
0000
0000
0000
1000
0000
1000
0010
0000
0010
0100
0000
,  // measure 76
0001
1000
0001
1000
0100
0000
0000
0000
0011
0000
0001
0000
0100
0000
2000
0000
,  // measure 77
0000
0000
3100
0000
0110
0000
0000
0000
1000
0000
1000
0100
0000
0100
0010
0000
,  // measure 78
0001
1000
0001
1000
0020
0000
0000
0000
0130
0000
0100
0000
0001
0000
0010
0000
,  // measure 79
0100
0000
1000
0000
1010
0000
0000
0000
0101
0000
0100
0001
0000
0001
0010
0000
,  // measure 80
0100
0010
0001
1000
0020
0000
0000
0000
0230
0000
0000
0000
1300
0000
0000
0000
,  // measure 81
0200
0301
0000
0000
;

//---------------dance-single - ----------------
#NOTEDATA:;
#CHARTNAME:;
#STEPSTYPE:dance-single;
#BANNER:;
#DESCRIPTION:;
#CHARTSTYLE:;
#DIFFICULTY:Challenge;
#METER:16;
#METERF:0.000000;
#RADARVALUES:0.713798,0.985080,0.367396,0.426179,0.709074,680.000000,630.000000,50.000000,58.000000,0.000000,0.000000,0.000000,0.000000,0.000000,0.713798,0.985080,0.367396,0.426179,0.709074,680.000000,630.000000,50.000000,58.000000,0.000000,0.000000,0.000000,0.000000,0.000000;
#CREDIT:DJEmbrace;
#NOTES:
// measure 0
0000
0000
0000
0000
,  // measure 1
0000
0000
0000
0000
,  // measure 2
0000
0000
0000
0000
,  // measure 3
0000
0000
0000
0000
,  // measure 4
0000
0000
0000
0000
,  // measure 5
1010
0000
0000
0000
0001
0000
1000
0100
0010
0100
0020
0000
0230
0000
1300
0001
,  // measure 6
0100
0000
0000
0000
0010
1000
0001
1000
0001
1000
0001
1000
0100
1000
0001
1000
,  // measure 7
0001
1000
0001
1000
0010
1000
0001
1000
0001
1000
0001
1000
0100
1000
0001
0000
,  // measure 8
2001
0000
0000
0000
3010
0000
0000
0010
0002
0000
0000
0000
0013
1000
0000
0000
,  // measure 9
1001
0000
0000
0000
0011
0000
0001
1000
0001
0100
0010
0100
0002
0000
0013
0100
,  // measure 10
1000
0000
0000
0000
1000
0100
0010
0100
0010
0100
0010
0100
0001
0100
0010
0100
,  // measure 11
0010
0100
0010
0100
1000
0100
0010
0100
0010
0100
0010
0100
0001
0100
0010
0100
,  // measure 12
0010
0100
0010
0100
1000
0001
1000
0001
0200
0000
0000
0000
1000
0000
0000
0000
,  // measure 13
0301
0000
0000
0000
1100
0000
1000
0001
1000
0010
2000
0000
3100
0000
0010
0001
,  // measure 14
1000
0000
0000
0000
0001
0100
0001
0100
0010
1000
0010
1000
0001
1000
0001
1000
,  // measure 15
0100
1000
0100
1000
0001
0100
0001
0100
0010
1000
0100
1000
0010
1000
0100
2000
,  // measure 16
0010
0000
0001
0000
3010
0100
0001
0100
0020
0000
0000
0000
1030
0000
0000
0000
,  // measure 17
0002
0000
0013
0100
0002
0000
0203
0000
,  // measure 18
1300
0000
0001
0000
0100
0000
0010
1000
0002
0000
0000
0000
0013
0000
0000
0000
,  // measure 19
2000
0000
0000
0000
0000
0000
0000
0000
0000
0000
0000
0000
0000
0000
0000
0000
0000
0000
0000
0000
0000
0000
0000
0000
0000
0000
0000
0000
0000
0000
0000
0000
0000
0000
0000
0000
0000
0000
0000
0000
0000
0000
0000
0000
0000
0000
0000
0000
3010
0000
0000
0000
0000
0000
0000
0000
0000
0000
0000
0000
0000
0000
0000
0000
0000
0000
0000
0000
0000
0000
0000
0000
0100
0000
0000
0000
0000
0000
0000
0000
0000
0000
0000
0000
0000
0000
0000
0000
0000
0000
0000
0000
0000
0000
0000
0000
0000
0000
0000
0000
0000
0000
0000
0000
0000
0000
0000
0000
1000
0000
0000
0000
0000
0000
0000
0000
0000
0000
0000
0000
0000
0000
0000
0000
0000
0000
1000
0000
0000
0000
0000
0000
0000
0000
0000
0000
0000
0000
0000
0000
0000
0000
0000
0000
1000
0000
0000
0000
0000
0000
0000
0000
0000
0000
0000
0000
0000
0000
0000
0000
0000
0000
1000
0000
0000
0000
0000
0000
0000
0000
0000
0000
0000
0000
0000
0000
0000
0000
0000
0000
0000
0000
0000
0000
1000
0000
0000
0000
0000
0000
0000
0000
,  // measure 20
0000
0000
0000
0000
0000
0000
0000
0000
0000
0000
0000
0000
0000
0000
0000
0000
1000
0000
0000
0000
0000
0000
0000
0000
0000
0000
0000
0000
0000
0000
0000
0000
0000
0000
0000
0000
0000
0000
0000
0000
1000
0000
0000
0000
0000
0000
0000
0000
0000
0000
0000
0000
0000
0000
0000
0000
0000
0000
0000
0000
0000
0000
0000
0000
1000
0000
0000
0000
0000
0000
0000
0000
0000
0000
0000
0000
0000
0000
0000
0000
0000
0000
0000
0000
0000
0000
0000
0000
0220
0000
0000
0000
0000
0000
0000
0000
0000
0000
0000
0000
0000
0000
0000
0000
0000
0000
0000
0000
0000
0000
0000
0000
0000
0000
0000
0000
0000
0000
0000
0000
0000
0000
0000
0000
0000
0000
0000
0000
0000
0000
0000
0000
0000
0000
0000
0000
0000
0000
0000
0000
0000
0000
0000
0000
0000
0000
0000
0000
0000
0000
0000
0000
0000
0000
0000
0000
0000
0000
0000
0000
0000
0000
0000
0000
0000
0000
0000
0000
0000
0000
0000
0000
0000
0000
0000
0000
0000
0000
0000
0000
0000
0000
0000
0000
0000
0000
0330
0000
0000
0000
0000
0000
,  // measure 21
0000
0000
2001
0000
,  // measure 22
3020
0000
0000
0000
0130
0100
0010
1000
,  // measure 23
0002
1000
1003
0100
0002
0000
0000
0103
,  // measure 24
0010
0002
0000
0000
0003
0000
0000
0000
1000
0010
1000
0010
1000
0010
1000
0010
,  // measure 25
0200
0000
0300
0000
0000
0020
0030
0000
0100
0000
1001
0000
0001
0000
0010
0000
,  // measure 26
0001
0010
0200
0000
0000
0000
1300
0000
0010
0000
1000
0000
0010
0100
0002
0000
,  // measure 27
0000
0000
0103
0000
0001
0000
0010
0000
0100
0010
2000
0000
0000
0000
3010
0000
,  // measure 28
0001
0000
1000
0000
0010
0100
2000
0000
0000
0000
3100
0010
0100
0010
0100
0010
,  // measure 29
0000
0000
1000
0000
0000
0000
0000
0001
0010
0100
0002
0000
0000
0000
0100
0000
,  // measure 30
0000
0203
0000
1000
0000
0310
0010
0001
,  // measure 31
1000
0010
0010
0010
0010
0002
0000
0010
,  // measure 32
0000
0000
0023
0000
0000
0000
0130
0000
0100
0001
1000
0100
1000
0100
1000
0100
,  // measure 33
1000
0100
0010
0000
0000
0100
0000
0000
1001
0000
0000
0000
1001
0000
0000
0000
,  // measure 34
0001
0100
1000
0000
0100
0100
0010
1000
,  // measure 35
0100
0100
0100
0100
0010
0002
0100
0000
,  // measure 36
1003
0000
0100
0000
0100
0000
0100
0010
0001
0100
0001
0100
0001
0100
0001
0100
,  // measure 37
0010
0000
0000
1000
0000
0001
0000
0000
1010
0000
0000
0000
0101
0000
0000
0000
,  // measure 38
0001
0010
0100
0000
0110
0000
0000
0000
0010
0001
0010
0000
0001
0100
0001
0000
,  // measure 39
0100
1000
0100
0000
0010
1000
0010
0000
0200
0000
0010
0000
0010
0000
0310
0000
,  // measure 40
1000
0000
0001
0000
1001
0000
1000
0100
0010
0001
0010
0001
1000
0001
1000
0001
,  // measure 41
0100
0001
0101
1010
,  // measure 42
1000
0001
0010
0000
0110
0000
0000
0000
0100
1000
0100
0000
1000
0010
1000
0000
,  // measure 43
0010
0001
0010
0000
0100
0001
0100
0000
0002
0000
0010
0000
0010
0000
0013
0000
,  // measure 44
0100
0000
1000
0000
1001
0000
0001
1000
0010
0100
0010
0100
0010
0100
0010
0100
,  // measure 45
0000
0000
0000
0001
0000
1000
0000
0000
0011
0000
0000
0000
1100
0000
0000
0000
,  // measure 46
0011
1100
1010
0110
,  // measure 47
0011
0000
0010
0100
0102
0000
1003
0000
,  // measure 48
1002
0000
0000
0000
0013
0000
0000
0010
0100
0000
2000
0000
0001
0000
0000
0000
,  // measure 49
0010
0000
3001
0000
0101
0100
1000
0100
,  // measure 50
0001
0010
1000
0010
0110
0100
0001
0100
,  // measure 51
1000
0000
0001
0000
1001
0000
1010
0000
1000
0010
1000
0010
0000
0000
0100
0001
,  // measure 52
1000
0010
1000
0010
0000
0000
0100
0001
1000
0010
1000
0010
0000
0000
0100
0000
,  // measure 53
0001
1000
0000
1000
0000
1000
0000
1000
0200
0000
0000
0000
0000
0000
0000
0000
,  // measure 54
0000
0000
0000
0000
,  // measure 55
0000
0000
0000
0000
,  // measure 56
0300
0000
0020
0000
0030
0000
0001
1000
,  // measure 57
0010
0000
0000
0100
0000
0000
0001
0000
1001
0000
0100
0000
0010
0000
1001
0000
,  // measure 58
0000
0000
1000
0000
0100
0010
0100
0000
0001
0000
0100
1000
0000
1000
0001
0000
,  // measure 59
0100
0010
0001
0010
1000
0000
0001
0000
0011
0000
0100
0000
1000
0000
0011
0000
,  // measure 60
0001
0000
0100
0000
0010
1000
0001
0000
0100
0000
0001
1000
0000
1000
0100
0000
,  // measure 61
0010
0100
0001
0100
1000
0000
0000
0000
0110
0000
0001
0000
1000
0000
0110
0000
,  // measure 62
0000
0000
0001
0000
0100
0010
0100
0000
1000
0000
0100
0001
0000
0001
1000
0000
,  // measure 63
0100
0010
1000
0010
0001
0000
1000
0000
1010
0000
0100
0000
0001
0000
1010
0000
,  // measure 64
1000
0000
0100
0000
0010
0001
1000
0000
0010
0000
1000
0001
0000
0001
0100
0000
,  // measure 65
0010
0001
0010
1000
0001
0000
0000
0000
1001
0000
0000
1000
0100
0000
0000
0100
,  // measure 66
0001
0000
0000
0001
1000
0000
0000
1000
0010
0000
0000
0010
0001
0000
0000
0001
,  // measure 67
0100
0000
0000
0100
0010
0000
0000
0010
2000
0000
0000
3001
0010
0000
0000
0010
,  // measure 68
1000
0000
0000
1000
0001
0000
0000
0001
0100
0010
0100
0000
1000
0001
1000
0000
,  // measure 69
0010
0100
0010
0000
0001
0010
1000
0000
1001
0000
0000
0000
1200
0000
0000
0000
,  // measure 70
0310
0000
0000
1000
0020
0000
0000
0031
0020
0000
0000
0130
2000
0000
0000
3001
,  // measure 71
0200
0000
0000
1300
0200
0000
0000
0301
2000
0000
0000
3100
0002
0000
0000
1003
,  // measure 72
0020
0031
1000
0001
0100
0100
0000
0100
,  // measure 73
0000
0000
0100
0000
0000
0000
0000
0000
1001
0000
0001
0010
1000
0010
0100
0000
,  // measure 74
1000
0001
0100
0010
0001
0000
0000
0000
0210
0000
0301
0000
1000
0000
0100
0000
,  // measure 75
0000
0000
0010
0000
0011
0000
0000
0000
1000
0000
0001
0100
1000
0100
0010
0000
,  // measure 76
1000
0001
0010
1000
0020
0000
0130
0000
1002
0000
0103
0000
0010
0000
0100
0000
,  // measure 77
0000
0000
0100
0000
1001
0000
0000
0000
1010
0000
1000
0010
0001
0010
0100
0000
,  // measure 78
0001
1000
0100
0010
1000
0000
0000
0000
0210
0000
1300
0000
0001
0000
1000
0000
,  // measure 79
0010
0000
0001
0000
0110
0000
0000
0000
0001
0000
1000
0100
0001
0100
0010
0000
,  // measure 80
0001
0100
0010
0001
0020
0000
0230
0000
0302
0000
2003
0000
3100
0000
0000
0000
,  // measure 81
0020
0130
0000
0000
;
