#VERSION:0.83;
#TITLE:Ultimate Wolfpuncher;
#SUBTITLE:;
#ARTIST:Quadrivia & Arturo Höst;
#TITLETRANSLIT:;
#SUBTITLETRANSLIT:;
#ARTISTTRANSLIT:;
#GENRE:;
#ORIGIN:;
#CREDIT:D0omsday;
#BANNER:Ultimate Wolfpuncher.png;
#BACKGROUND:Ultimate Wolfpuncher-bg.png;
#PREVIEWVID:;
#JACKET:Ultimate Wolfpuncher-jacket.png;
#CDIMAGE:;
#DISCIMAGE:;
#LYRICSPATH:;
#CDTITLE:;
#MUSIC:Ultimate Wolfpuncher.ogg;
#OFFSET:-0.000000;
#SAMPLESTART:81.228996;
#SAMPLELENGTH:14.885000;
#SELECTABLE:YES;
#BPMS:0.000=130.000,
112.000=65.000,
128.000=130.000,
270.000=125.000,
270.500=120.000,
271.000=115.000,
271.500=110.000,
272.000=102.000,
272.500=95.000,
273.000=87.000,
273.500=80.000,
274.000=72.200,
274.500=65.000;
#STOPS:;
#DELAYS:;
#WARPS:;
#TIMESIGNATURES:0.000=4=4;
#TICKCOUNTS:0.000=4;
#COMBOS:0.000=1;
#SPEEDS:0.000=1.000=0.000=0;
#SCROLLS:0.000=1.000;
#FAKES:;
#LABELS:0.000=Song Start;
#BGCHANGES:;
#KEYSOUNDS:;
#ATTACKS:
;

//---------------dance-single - D0omsday----------------
#NOTEDATA:;
#CHARTNAME:D0omsday;
#STEPSTYPE:dance-single;
#DESCRIPTION:D0omsday;
#CHARTSTYLE:;
#DIFFICULTY:Beginner;
#METER:7;
#RADARVALUES:0.209922,0.243444,0.042185,0.239049,0.000000,209.000000,203.000000,6.000000,34.000000,0.000000,0.000000,0.000000,0.000000,0.000000,0.209922,0.243444,0.042185,0.239049,0.000000,209.000000,203.000000,6.000000,34.000000,0.000000,0.000000,0.000000,0.000000,0.000000;
#CREDIT:D0omsday;
#NOTES:
0000
0000
0000
0000
,
0000
0000
0000
0000
,
0000
0000
0000
0000
,
0000
0000
0000
0000
,
0000
0000
0000
0000
,
0000
0000
0000
0000
,
1000
0001
1000
0000
,
0010
0100
0010
0000
,
1000
0000
0100
0100
,
0010
0000
0001
0001
,
0100
0000
0001
0001
,
1000
0100
0010
0000
,
0110
0000
0010
0000
,
0001
0100
0001
0000
,
1000
1000
0010
0010
,
0100
0000
0001
0000
,
1001
0000
0001
0000
,
0010
0100
0010
0000
,
0100
0100
1000
1000
,
0001
0000
0100
0000
,
0001
0010
0100
0100
,
1000
0001
0100
0100
,
0010
1000
0001
0001
,
0010
0100
1000
0010
,
0100
0001
0010
0010
,
0001
1000
0010
0010
,
0100
0001
1000
1000
,
0100
0000
0010
0000
,
0002
0000
0203
0000
,
0320
0000
2030
0000
,
3200
0000
0320
0000
,
0031
0000
0100
0000
0220
0000
0000
0330
,
1000
0000
0100
1000
,
0001
0000
0100
0001
,
0010
0000
0100
0010
,
0001
0000
1000
0010
,
0100
0100
0001
0001
,
1000
1000
0100
0100
,
0010
0001
1000
0000
,
0000
0000
0000
1001
,
0001
0020
0130
1000
,
0010
0001
0100
1000
,
0010
0200
0302
0000
,
1003
1000
0001
0001
,
0100
0002
0013
1000
,
0100
0001
0010
1000
,
0100
0020
2030
0000
,
3002
0003
0002
0003
0020
0030
0200
0300
,
1000
0002
0103
1000
,
0010
0001
0100
1000
,
0010
0200
2300
0000
,
3001
0001
0100
0010
,
0100
0002
0013
1000
,
0100
0001
0010
1000
,
0100
0020
2030
0000
,
3002
0013
0100
1000
,
1001
0000
0010
0000
,
1000
0100
0001
0010
,
1000
0001
0020
0000
,
0130
0000
1000
1001
,
0001
0200
0310
0001
,
0100
0010
0001
1000
,
0010
0200
0302
0000
,
1003
1000
0100
0010
,
0100
2000
3010
0100
,
1000
0010
0100
1000
,
0010
0200
0302
0000
,
0023
0000
0000
0000
,
0000
0000
0000
0230
,
0000
0300
0000
0000
;

//---------------dance-single - D0omsday----------------
#NOTEDATA:;
#CHARTNAME:D0omsday;
#STEPSTYPE:dance-single;
#DESCRIPTION:D0omsday;
#CHARTSTYLE:;
#DIFFICULTY:Easy;
#METER:10;
#RADARVALUES:0.339490,0.413854,0.056247,0.323420,0.066793,338.000000,330.000000,8.000000,46.000000,0.000000,0.000000,0.000000,0.000000,0.000000,0.339490,0.413854,0.056247,0.323420,0.066793,338.000000,330.000000,8.000000,46.000000,0.000000,0.000000,0.000000,0.000000,0.000000;
#CREDIT:D0omsday;
#NOTES:
0000
0000
0000
0000
,
0000
0000
0000
0000
,
0000
0000
0000
0000
,
0000
0000
0000
0000
,
0000
0000
0000
0000
,
0000
0000
0000
0000
,
0001
0000
0100
0000
0010
0000
1000
0100
,
1000
0000
0010
0000
1000
0000
0001
0010
,
0100
1000
0010
0010
,
0000
0100
0000
0001
0010
0000
0010
0000
,
0100
1000
0010
0010
,
0000
1000
0000
0001
0000
1000
0000
0000
,
1001
0000
0001
0100
0010
0000
1010
0000
,
0010
0100
0010
0000
1000
0000
1100
0000
,
1000
0010
0000
0001
0000
0010
1000
0010
,
0000
0100
0000
0001
0010
0000
0100
0000
,
1100
0000
1000
0010
0100
0000
0101
0000
,
0001
1000
0100
0000
0010
0000
0110
0000
,
0100
1000
0000
0001
0000
0100
1000
0100
,
0000
0010
0000
1000
0100
0000
0000
0000
,
0010
0000
0100
0000
1000
0010
1000
0010
,
0000
0100
0000
0001
0010
0100
0010
0100
,
1000
0000
0010
0000
0100
0001
0100
0001
,
0000
0010
0000
0001
1000
0100
0000
1000
,
0010
0000
0100
0000
0001
0100
0001
0100
,
0000
0010
0000
1000
0001
0010
0001
0010
,
0100
0000
1000
0000
0010
0100
0010
0100
,
0000
0001
0000
0010
0000
0100
0000
1000
,
0020
0000
0000
0000
0000
0000
1030
0010
2000
0000
0000
0000
0000
0000
3001
0010
,
0002
0000
0000
0000
0000
0000
0013
0100
0020
0000
0000
0000
0000
0000
0031
1000
,
0002
0000
0000
0000
0000
0000
0000
0000
0000
0000
0000
0000
1000
0003
0010
0000
2000
0000
0000
0000
0000
0000
0000
0000
0000
0000
0000
0000
3100
0000
0010
0000
,
0100
0000
0000
0000
1000
0000
0000
0000
0001
0000
0000
0000
0100
0000
0000
0000
0010
0000
0000
1000
0000
0000
0010
0000
0000
1000
0000
0000
0020
0000
0000
0000
,
0130
0000
0001
1000
0100
0000
0010
0000
,
0001
0000
1000
0010
0100
0000
0001
0000
,
1000
0000
0001
0010
0100
0000
1000
0000
,
0010
0000
1000
0001
0010
0000
0100
0000
,
1000
0100
1000
0000
0001
0100
0001
0000
,
1000
0010
1000
0000
0001
0010
0001
0000
,
1000
0010
0001
0010
1000
0000
0000
0000
,
0000
0000
0000
1001
,
0001
0100
0020
0000
1030
0000
0010
1000
,
0001
0000
0010
0001
1000
0000
0010
1000
,
0001
0000
2000
0000
3200
0302
0000
0000
,
0103
0010
0001
0000
1000
0010
0100
0000
,
0100
0001
2000
0000
3100
0000
0010
0001
,
0100
0000
0010
1000
0100
0000
0010
0001
,
0100
0000
0002
0000
0023
2030
0000
0000
,
3020
0032
2003
3020
,
0130
0001
0020
0000
0031
0100
1000
0000
,
0001
0010
1000
0000
0001
0100
1000
0000
,
0100
0000
0002
0000
0023
2030
0000
0000
,
3010
0100
1000
0000
0001
0100
0010
0000
,
0010
1000
0002
0000
1003
0100
0001
0000
,
1000
0010
0001
0000
1000
0100
0001
0000
,
0100
0000
2000
0000
3020
0032
0000
0000
,
0013
0000
0000
1000
0001
1000
0002
0000
0000
0013
0000
0000
,
0001
0000
0100
0000
0010
0000
2000
0000
0000
0020
0000
0000
3030
0000
0000
0000
0000
0000
0100
0000
0000
0000
0000
0000
,
0001
0100
0001
1000
0100
1000
0100
0010
0001
0100
0000
0000
,
0001
0010
0200
0000
1300
0020
0000
0000
,
0130
0001
1000
1001
,
1000
0100
0020
0000
0031
1000
0010
1000
,
0100
0010
0002
0000
0203
0000
0301
1000
,
0100
0000
0002
0000
0203
2300
0000
0000
,
3010
1000
0100
0000
1000
0001
0100
0000
,
0001
0010
0200
0000
1300
0001
0100
0010
,
1000
0001
0020
0000
0230
0000
1300
0001
,
0010
0000
2000
0000
3020
0032
0000
0000
,
0203
0000
0000
0000
,
0000
0000
0000
0000
0000
0000
1300
0010
,
0001
0200
0300
0000
0000
0000
0000
0000
;

//---------------dance-single - D0omsday----------------
#NOTEDATA:;
#CHARTNAME:D0omsday;
#STEPSTYPE:dance-single;
#DESCRIPTION:D0omsday;
#CHARTSTYLE:;
#DIFFICULTY:Medium;
#METER:13;
#RADARVALUES:0.475086,0.608609,0.077340,0.274204,0.390213,473.000000,462.000000,11.000000,39.000000,0.000000,0.000000,0.000000,0.000000,0.000000,0.475086,0.608609,0.077340,0.274204,0.390213,473.000000,462.000000,11.000000,39.000000,0.000000,0.000000,0.000000,0.000000,0.000000;
#CREDIT:D0omsday;
#NOTES:
0000
0000
0000
0000
,
0000
0000
0000
0000
,
0000
0000
0000
0000
,
0000
0000
0000
0000
,
0000
0000
0000
0000
,
0000
0000
0000
0000
,
0001
0000
0000
1000
0001
0000
0000
0000
0010
0000
0000
0000
0100
0000
0010
0001
,
1000
0000
0000
0001
1000
0000
0000
0000
0010
0000
0000
0000
0100
0000
0010
0100
,
0001
1000
0100
0000
0010
0010
0100
0100
,
0010
0000
0001
1000
0000
0000
0001
1000
0010
0000
0010
0000
1000
0000
1000
0000
,
0001
0100
0010
0000
1000
1000
0001
0001
,
0010
0000
0100
1000
0000
0000
0100
1000
0000
0000
0100
1000
0000
0000
0000
0000
,
1010
0000
0000
0010
0000
0000
0100
0000
0001
0000
0000
0000
0011
0000
0000
0000
,
0001
0000
0010
0100
0000
0010
0000
0100
1000
0000
0000
0000
1010
0000
0000
0000
,
0001
0000
0100
0000
0000
0000
1000
0000
0000
0100
0010
0100
0000
0000
0010
0000
,
0000
0000
1000
0010
0000
0000
1000
0000
0100
0000
0000
0000
0010
0000
0001
0000
,
1001
0000
0000
1000
0000
0000
0100
0000
0010
0000
0000
0000
0110
0000
0000
0000
,
0100
0000
1000
0001
0000
1000
0000
0001
0100
0000
0000
0000
0110
0000
0000
0000
,
0010
0000
0001
0000
0000
0000
0010
0000
0000
1000
0010
1000
0000
0000
0100
0000
,
0000
0000
0010
0100
0000
0000
0010
0000
0001
0000
0000
0000
0000
0000
0000
0000
,
1000
0000
0001
0010
0000
0001
0000
1000
0010
0000
0010
0000
0100
0000
0100
0000
,
0001
0000
0010
0100
0000
0000
0010
0100
1000
0000
1000
0000
0001
0000
0001
0000
,
0100
0000
0001
0010
0000
0001
0000
1000
0100
0000
0100
0000
1000
0000
1000
0000
,
0100
0000
0010
0001
0000
0000
0010
0001
0100
0000
0100
0000
0010
0000
1000
0000
,
0100
0000
0010
0001
0000
1000
0000
0001
0010
0000
1000
0000
0010
0000
0001
0000
,
0010
0000
0100
1000
0000
0000
0100
1000
0001
0000
0100
0000
1000
0000
0100
0000
,
0010
0000
1000
0001
0000
1000
0000
0100
0010
0000
1000
0000
0010
0000
0001
0000
,
1000
0000
0010
0100
0000
0000
0010
0100
0000
0000
0001
0010
0000
0000
0001
0010
,
0100
0000
0000
1000
0000
0000
0001
0000
0000
1000
0000
0000
0010
0000
0100
0000
0010
0000
0000
0100
0000
0000
0001
0000
0000
1000
0000
0000
0001
0000
0001
0000
,
0010
0000
0000
0100
0000
0000
1000
0000
0000
0010
0000
0000
0100
0000
0100
0000
0001
0000
0000
1000
0000
0000
0001
0000
0000
0010
0000
0000
0001
0000
0001
0000
,
0100
0000
0000
0010
0000
0000
1000
0000
0000
0100
0000
0000
0010
0000
0001
0000
0010
0000
0000
0100
0000
0000
0010
0000
0000
0001
0000
0000
1000
0000
1000
0000
,
0010
0000
0000
0000
0100
0000
0000
0000
0001
0000
0000
0000
0010
0000
0000
0000
0001
0000
0000
0100
0000
0000
1000
0000
0000
0100
0000
0000
0002
0000
0000
0000
,
0013
0000
0000
0100
0000
0000
1000
0000
0000
0010
0000
0000
1000
0000
0001
0000
,
0010
0000
0000
1000
0000
0000
0010
0000
0000
0001
0000
0000
1000
0000
0010
0000
,
0100
0000
0000
0001
0000
0000
0010
0000
0000
0100
0000
0000
0001
0000
0100
0000
,
1000
0000
0000
0001
0000
0000
0100
0000
0000
0010
0000
0000
1000
0000
0010
0000
,
1000
0001
0010
0100
0010
0001
0100
1000
,
0100
0010
1000
0100
0001
0100
0010
0001
,
1000
0001
1000
0001
1000
0001
1000
0001
1000
0000
0000
0000
0000
0000
0000
0000
,
0000
0000
0000
1001
,
0001
0100
0001
0000
0020
0000
0000
0000
0130
0000
1000
0000
0010
0000
0100
0000
,
1000
0100
0010
1000
0100
0010
1000
0010
,
0001
0000
1000
0001
2000
0000
0000
0000
3010
0000
0002
0000
0000
0000
0013
0000
,
1000
1001
0001
0010
0100
0001
0100
0000
,
1000
0100
1000
0000
0002
0000
0000
0000
0103
0000
0010
0000
0001
0000
0010
0000
,
0100
0001
0010
0100
0001
0100
0010
0001
,
0100
0000
0010
1000
0020
0000
0000
0000
0230
0000
2300
0000
0000
0000
3100
0000
,
0002
0003
0002
0003
0020
0030
0200
0300
,
1000
0100
1000
0000
0020
0000
0000
0000
1030
0000
0100
0000
0001
0000
0100
0000
,
1000
0001
0100
1000
0100
0001
1000
0100
,
0010
0000
0001
0100
0002
0000
0000
0000
0023
0000
2030
0000
0000
0000
3010
0000
,
0001
1001
1000
0010
0001
0010
0100
0000
,
0010
0100
0010
0000
2000
0000
0000
0000
3001
0000
0010
0000
1000
0000
0010
0000
,
0001
1000
0010
0001
0010
1000
0001
0010
,
0100
0000
1000
0010
2000
0000
0000
0000
3200
0000
0302
0000
0000
0000
0103
0000
,
0020
0000
0000
0031
0100
0010
2000
0000
0000
3100
0000
0000
,
1000
0000
0100
0000
0010
0000
0200
0000
0000
0020
0000
0000
0330
0000
0000
0000
0000
0000
0001
0000
0000
0100
0000
0000
,
0010
0001
0010
1000
0100
0001
0100
1000
0001
0100
0000
0000
,
0010
0000
0000
1000
0000
0000
0200
0000
0000
0000
0000
0000
0310
0000
0000
0001
0000
0000
0000
0000
1000
0000
0001
0000
,
1000
0100
0010
0001
1000
0000
1010
0000
,
1000
0100
0010
0000
0002
0000
0000
0000
1003
0000
0010
0000
0001
0000
1000
0000
,
0100
0001
0020
0000
0230
0000
1300
0001
,
0100
0000
0010
1000
0020
0000
0000
0000
0230
0000
2300
0000
0000
0000
3100
0000
,
0010
0110
0100
0001
0010
1000
0010
0000
,
0100
1000
0010
0000
0200
0000
0000
0000
0301
0000
0010
0000
1000
0000
0001
0000
,
0100
1000
0020
0000
0230
0000
0301
0010
,
0001
0000
1000
0010
2000
0000
0000
0000
3200
0000
0302
0000
0000
0000
0103
0000
,
2000
0000
0000
0000
,
0000
0000
0000
0000
0000
0000
0000
0000
0000
0000
0000
0000
3001
0100
0010
1000
,
0001
0010
0200
0000
0300
0000
0000
0000
0000
0000
0000
0000
0000
0000
0000
0000
;

//---------------dance-single - D0omsday----------------
#NOTEDATA:;
#CHARTNAME:D0omsday;
#STEPSTYPE:dance-single;
#DESCRIPTION:D0omsday;
#CHARTSTYLE:;
#DIFFICULTY:Hard;
#METER:15;
#RADARVALUES:0.611685,0.657298,0.175772,0.344512,0.759333,609.000000,584.000000,25.000000,49.000000,0.000000,0.000000,0.000000,0.000000,0.000000,0.611685,0.657298,0.175772,0.344512,0.759333,609.000000,584.000000,25.000000,49.000000,0.000000,0.000000,0.000000,0.000000,0.000000;
#CREDIT:D0omsday;
#NOTES:
0000
0000
0000
0000
,
0000
0000
0000
0000
,
0000
0000
0000
0000
,
0000
0000
0000
0000
,
0000
0000
0000
0000
,
0000
0000
0000
0000
,
1000
0010
0000
0010
1000
0000
0001
0000
0010
0000
0001
0000
1000
0000
0100
0010
,
0001
0010
0000
0010
0001
0000
1000
0000
0100
0000
1000
0000
0001
0000
0100
0010
,
1000
0001
1000
0100
0000
0010
0001
1000
0010
0000
0010
0000
0100
0000
0100
0000
,
0001
0100
0010
0100
0000
0001
1000
0100
0010
0000
0010
0000
0001
0000
0001
0000
,
0100
0010
1000
0001
0000
1000
0100
0010
0001
0000
0001
0000
0100
0000
0100
0000
,
0010
1000
0100
0010
0000
0001
0100
0010
0000
1000
0100
0010
0000
0000
0000
0000
,
0011
0000
0000
0010
0100
0000
0001
0000
0100
0000
0000
0000
1100
0000
0000
0000
,
1000
0010
0100
0001
0000
0010
0000
0001
0100
0000
0000
0000
0110
0000
0000
0000
,
0010
0000
1000
0000
0100
0000
0001
0000
0100
0010
0100
0010
0000
0000
0001
0000
,
1000
0000
0001
0100
0000
0000
0010
0000
1010
0000
0000
0000
1000
0100
0010
0001
,
0100
0000
0000
0010
0100
0000
1000
0000
0100
0000
0000
0000
0110
0000
0000
0000
,
0010
1000
0001
0010
0000
0100
0000
0010
0001
0000
0000
0000
1001
0000
0000
0000
,
1000
0000
0010
0000
0001
0000
0010
0000
1000
0001
0010
0001
0000
0000
0100
0000
,
0010
0000
1000
0100
0000
0000
1000
0000
0001
0000
0000
0000
0000
0000
0000
0000
,
1000
0000
0010
0100
0000
1000
0000
0100
0010
0000
0010
0000
1000
0000
1000
0000
,
0001
0010
0100
0010
0000
0001
0100
0010
1000
0000
1000
0000
0001
0000
0001
0000
,
0100
0000
0010
0001
0000
0010
0000
1000
0001
0000
0001
0000
0010
0000
0010
0000
,
0100
1000
0001
0100
0000
0010
1000
0001
0010
0000
0010
0000
0100
0000
0100
0000
,
1000
0000
0001
0010
0000
1000
0000
0010
0001
0000
0001
0000
1000
0000
1000
0000
,
0100
1000
0010
1000
0000
0001
0010
0001
0100
0000
0100
0000
0001
0000
0001
0000
,
0010
0000
0100
0001
0000
0100
0000
1000
0010
0000
0010
0000
1000
0000
1000
0000
,
0100
1000
0010
1000
0000
0001
0010
0001
0100
0000
0100
0000
0010
0000
0010
0000
,
1000
0000
0000
0001
0000
0000
0010
0000
0000
0001
0000
0000
0100
0010
0100
0010
0100
0000
0000
0010
0000
0000
1000
0000
0000
0001
0000
0000
0010
0000
0010
0000
,
0001
0000
0000
1000
0000
0000
0100
0000
0000
1000
0000
0000
0010
0000
0010
0000
0100
0000
0000
0001
0000
0000
1000
0000
0000
0100
0000
0000
0010
0000
0010
0000
,
0001
0000
0000
0100
0000
0000
0001
0000
0000
1000
0000
0000
0001
0010
0001
0010
0001
0000
0000
1000
0000
0000
0010
0000
0000
0100
0000
0000
0001
0000
0001
0000
,
0010
0000
0000
0100
0000
0000
0010
0000
0000
0001
0000
0000
0100
0000
0100
0000
0010
0000
0000
1000
0000
0000
0001
0000
0000
0010
0000
0000
0200
0000
0000
0000
,
1300
0000
0000
0010
1000
0000
0010
0000
0000
0100
0000
0000
0001
0010
0100
0010
,
0001
0000
0000
1000
0001
0000
0100
0000
0000
0010
0000
0000
1000
0001
0010
0100
,
0010
0000
0000
0001
0010
0000
0001
0000
0000
1000
0000
0000
0010
1000
0100
1000
,
0010
0000
0000
0100
0010
0000
1000
0000
0000
0001
0000
0000
0010
0100
1000
0010
,
0100
0000
0001
0100
0001
0000
0010
0000
0010
0000
1000
0100
1000
0000
0010
0000
,
0010
0000
0001
0010
0001
0000
0100
0000
0100
0000
1000
0010
1000
0000
0010
0000
,
0100
0001
0010
0100
1000
0010
0100
0001
0010
0000
0000
0000
0000
0000
0000
0000
,
0000
0000
0000
1001
,
0010
1000
0010
0000
2020
0000
3030
0000
1000
0100
0010
0000
0001
0000
0100
0000
,
0001
1000
0010
0000
1000
0000
0100
0000
0010
0001
0100
0000
0001
0000
1000
0000
,
0100
0000
0010
0100
0002
0000
0000
0000
0203
0000
0320
0000
0000
0031
0010
0001
,
1000
0000
1010
0000
0010
0100
0001
0100
0020
0000
1030
0100
0010
0000
0000
0000
,
0010
0001
0010
0000
0022
0000
0033
0000
0001
1000
0010
0000
0100
0000
0001
0000
,
1000
0001
0010
0000
0100
0000
1000
0000
0010
1000
0100
0000
0010
0000
0001
0000
,
0100
0000
0010
0100
2000
0000
0000
0000
3200
0000
0320
0000
0000
1030
0010
1000
,
0002
0023
2030
3020
,
0130
0010
0100
0000
0220
0000
0330
0000
0010
0001
1000
0000
1001
0000
1000
0000
,
0001
0100
0010
0000
1010
0000
0010
0000
1000
0001
0010
0000
0110
0000
0010
0000
,
0001
0000
0010
0100
0002
0000
0000
0000
0203
0000
0320
0000
0000
0031
0010
0001
,
1000
0000
1010
0000
0010
1000
0100
0010
0002
0000
0103
0001
1000
0000
0000
0000
,
1000
0010
1000
0000
2020
0000
3030
0000
0010
1000
0001
0000
0011
0000
0001
0000
,
0010
0100
1000
0000
1010
0000
1000
0000
0001
1000
0100
0000
0110
0000
0100
0000
,
0010
0000
0100
0010
2000
0000
0000
0000
3020
0000
0230
0000
0000
1300
0100
1000
,
0020
0000
0000
0130
0010
1000
0002
0000
0000
0013
0000
0000
,
0001
0000
0000
0000
1000
0000
0000
0000
0010
0000
0000
0000
0200
0000
0000
0000
0000
0000
0002
0000
0000
0000
0000
0000
0303
0000
0000
0000
0000
0000
0000
0000
0000
0000
0000
0000
0010
0000
0000
0001
0000
0000
0010
0000
0000
0001
0000
0000
,
0010
0000
0001
0000
0100
0001
0100
0000
0010
0000
0100
0010
0100
0000
0010
0000
1000
0010
1000
0000
0000
0000
0000
0000
,
0100
0000
0000
0010
0000
0000
0001
1000
0001
1000
0001
1000
0001
0000
0000
0200
0000
0000
0000
0000
0310
0000
1000
0000
,
0100
1000
0100
0010
0100
1000
0010
0100
0001
0000
0000
0000
0101
0000
0000
0000
,
0001
0010
0100
0000
2200
0000
3300
0000
1000
0001
0100
0000
0110
0000
0100
0000
,
0010
1000
0100
0000
0002
0000
0000
0000
0203
0000
0000
0000
0310
0100
1000
0010
,
0100
0000
0010
0100
2000
0000
0000
0000
3200
0000
0320
0000
0000
1030
0010
1000
,
0001
0000
0011
0000
0010
0100
1000
0001
0200
0000
0310
0100
0001
0000
0000
0000
,
0001
1000
0100
0000
0022
0000
0033
0000
0010
0100
1000
0000
1100
0000
1000
0000
,
0001
0100
0010
0000
0002
0000
0000
0000
0023
0000
0000
0000
1030
0001
0010
0001
,
1000
0000
0100
0010
2000
0000
0000
0000
3020
0000
0032
0000
0000
0013
0001
0100
,
0020
0000
0000
0000
,
0000
0000
0000
0000
0000
0000
0000
0000
0000
0000
0000
0000
0000
0000
0000
0000
0000
0000
0000
0000
0000
0000
0000
0000
1030
0001
1000
0001
1000
0001
1000
0001
,
1000
0001
1000
0001
2000
0000
0000
0000
3000
0000
0000
0000
0000
0000
0000
0000
0000
0000
0000
0000
0000
0000
0000
0000
0000
0000
0000
0000
0000
0000
0000
0000
;

//---------------dance-single - D0omsday (SA)----------------
#NOTEDATA:;
#CHARTNAME:D0omsday (SA);
#STEPSTYPE:dance-single;
#DESCRIPTION:D0omsday (SA);
#CHARTSTYLE:;
#DIFFICULTY:Challenge;
#METER:16;
#RADARVALUES:0.637800,0.759103,0.182803,0.323420,0.956198,635.000000,609.000000,26.000000,46.000000,148.000000,0.000000,0.000000,0.000000,0.000000,0.637800,0.759103,0.182803,0.323420,0.956198,635.000000,609.000000,26.000000,46.000000,148.000000,0.000000,0.000000,0.000000,0.000000;
#CREDIT:D0omsday (SA);
#NOTES:
// measure 0
0000
0000
0000
0000
,  // measure 1
0000
0000
0000
0000
,  // measure 2
0000
0000
0000
0000
,  // measure 3
0000
0000
0000
0000
,  // measure 4
0000
0000
0000
0000
,  // measure 5
0000
0000
0000
0000
,  // measure 6
MMMM
MMMM
MMMM
MMMM
,  // measure 7
MMMM
MMMM
MMMM
MMMM
,  // measure 8
0001
0010
0001
1000
0000
0010
1000
0100
0010
0000
0010
0100
0010
0000
0010
0001
,  // measure 9
0010
0100
1000
0010
0000
1000
0010
1000
0100
0000
0100
0010
0100
0000
0100
1000
,  // measure 10
0100
0010
0001
1000
0000
0001
0100
0010
1000
0000
1000
0001
1000
0000
1000
0100
,  // measure 11
1000
0001
0010
0100
0000
0001
0100
0010
0000
0001
0100
0010
0000
0000
0000
0000
,  // measure 12
1000
0010
0000
1000
0010
0000
0001
0000
0010
0000
0000
0000
MMMM
0000
0000
0000
,  // measure 13
0001
1000
0100
0010
0000
1000
0000
0010
0100
0000
0000
0000
MMMM
0000
0000
0000
,  // measure 14
0001
0000
0011
0000
1000
0000
1010
0000
0000
1000
0010
0100
0000
0000
0010
0000
,  // measure 15
0000
0000
1000
0100
0000
0000
0010
0000
MMMM
0000
0000
0000
0010
0100
1000
0010
,  // measure 16
0100
0001
0000
0100
0001
0000
0010
0000
0100
0000
0000
0000
MMMM
0000
0000
0000
,  // measure 17
1000
0001
0100
0010
0000
0001
0000
0010
1000
0000
0000
0000
MMMM
0000
0000
0000
,  // measure 18
1000
0000
1100
0000
0001
0000
0101
0000
0000
0001
0010
0100
0000
0000
0010
0000
,  // measure 19
0000
0000
0000
0000
0000
0000
0100
0000
0000
1000
0000
0000
0000
0000
0000
0000
0000
0000
0001
0000
0000
0000
0000
0000
0100
0000
0000
0000
0000
0000
0000
0000
0000
0000
0000
0000
0010
0000
1000
0000
0001
0000
0010
0000
0100
0000
1000
0000
,  // measure 20
0001
0100
0001
0010
0000
1000
0000
0010
0001
0000
0011
0000
0101
0000
0100
0010
,  // measure 21
1000
0100
0010
0100
0000
0100
0001
0100
0010
0000
0110
0000
1100
0000
1000
0001
,  // measure 22
0100
0010
0001
0010
0000
1000
0000
0100
0010
0000
0011
0000
0110
0000
0100
0010
,  // measure 23
0001
0100
0010
0100
0000
0100
1000
0100
0010
0000
0110
0000
0001
0000
0001
1000
,  // measure 24
0100
0010
0001
0010
0000
1000
0000
0010
0001
0000
0011
0000
1001
0000
1000
0001
,  // measure 25
0100
0010
1000
0010
0000
0010
0001
0010
0100
0000
0110
0000
1010
0000
1000
0100
,  // measure 26
0010
1000
0010
0100
0000
1000
0000
0001
0100
0000
0110
0000
1010
0000
0010
0100
,  // measure 27
1000
0100
0010
1000
0000
0100
0010
1000
0010
0000
0010
0001
0010
0000
0010
0100
,  // measure 28
1000
0000
0000
0001
0000
0000
0010
0000
0000
0001
0000
0000
0100
0001
1000
0100
0010
0000
0000
0100
0000
0000
1000
0000
0000
0001
0000
0000
0100
0000
0100
0000
,  // measure 29
0010
0000
0000
1000
0000
0000
0001
0000
0000
0010
0000
0000
0100
0000
0100
0000
1000
0000
0000
0010
0000
0000
1000
0000
0000
0001
0000
0000
0010
0000
0010
0000
,  // measure 30
0001
0000
0000
0100
0000
0000
1000
0000
0000
0100
0000
0000
0010
1000
0100
0010
0001
0000
0000
0100
0000
0000
0001
0000
0000
0010
0000
0000
0100
0000
0100
0000
,  // measure 31
0001
0000
0000
0100
0000
0000
1000
0000
0000
0010
0000
0000
0001
0000
0001
0000
0010
0000
0000
1000
0000
0000
0001
0000
0000
0010
0000
0000
0200
0000
0300
0000
,  // measure 32
0110
0000
0000
0010
0100
0000
1000
0000
0100
0010
0000
0000
0100
1000
0001
0100
,  // measure 33
0010
0000
0000
0001
0010
0000
1000
0000
0010
0100
0000
0000
0010
1000
0100
1000
,  // measure 34
0001
0000
0000
0010
0001
0000
1000
0000
0001
0100
0000
0000
0001
0100
0010
1000
,  // measure 35
0100
0000
0000
0010
0100
0000
0001
0000
0100
0010
0000
0000
0100
1000
0001
0100
,  // measure 36
0010
0000
1000
0100
0010
0000
1000
0000
0010
0000
0001
0100
0010
0000
0001
0000
,  // measure 37
0010
0000
1000
0001
0100
0000
1000
0000
0100
0000
0001
1000
0100
0000
0001
0000
,  // measure 38
0100
0010
0001
1000
0010
0100
1000
0100
0001
0000
0000
0000
MMMM
0000
0000
0000
,  // measure 39
MMMM
MMMM
MMMM
1001
,  // measure 40
0001
0100
0010
0000
0220
0000
0330
0000
1000
0100
0010
0100
1000
0000
MMMM
0000
,  // measure 41
1000
0010
0100
0010
1000
0000
MMMM
0000
1000
0100
0010
0100
1000
0000
MMMM
0000
,  // measure 42
1000
0000
0010
0000
1000
0000
0010
0000
0000
0100
0000
0000
2000
0000
0000
0000
0000
0000
0000
0000
0000
0000
0000
0000
3200
0000
0000
0000
0000
0000
0302
0000
0000
0000
0000
0000
0000
0000
0000
0013
0000
0000
0001
0000
0000
0010
0000
0000
,  // measure 43
0100
0000
0000
0000
0000
0000
MMMM
0000
0000
0000
0000
0000
0100
0000
0000
0010
0000
0000
0001
0000
0000
1000
0000
0000
0020
0000
0000
0000
0000
0000
0130
0000
0000
0010
0000
0000
0100
0000
0000
0000
0000
0000
0001
0000
0010
0000
0001
0000
,  // measure 44
0010
0100
1000
0000
2200
0000
3300
0000
0001
1000
0010
1000
0100
0000
MMMM
0000
,  // measure 45
0001
1000
0100
1000
0010
0000
MMMM
0000
0001
1000
0010
1000
0100
0000
MMMM
0000
,  // measure 46
0001
0000
0010
0000
0001
0000
0010
0000
0000
0100
0000
0000
0002
0000
0000
0000
0000
0000
0000
0000
0000
0000
0000
0000
0203
0000
0000
0000
0000
0000
2300
0000
0000
0000
0000
0000
3000
0000
0000
0001
0000
0000
0100
0000
0000
0001
0000
0000
,  // measure 47
0020
0030
0020
0030
0002
0003
0200
0300
,  // measure 48
0010
0100
0010
0000
2002
0000
3003
0000
1000
0100
0010
0000
MMMM
0000
0010
0001
,  // measure 49
0100
0010
1000
0000
MMMM
0000
1000
0010
1000
0100
0010
0000
MMMM
0000
0010
0001
,  // measure 50
1000
0000
0001
0000
1000
0000
0001
0000
0000
0100
0000
0000
2000
0000
0000
0000
0000
0000
0000
0000
0000
0000
0000
0000
3200
0000
0000
0000
0000
0000
0302
0000
0000
0000
0000
0000
0003
0000
0000
1000
0000
0000
0001
0000
0000
0010
0000
0000
,  // measure 51
0100
0000
0000
0000
0000
0000
MMMM
0000
0000
0000
0000
0000
0100
0000
0000
1000
0000
0000
0001
0000
0000
0100
0000
0000
0020
0000
0000
0000
0000
0000
1030
0000
0000
0001
0000
0000
1000
0000
0000
0000
0000
0000
0001
0000
0010
0000
0001
0000
,  // measure 52
0010
0100
1000
0000
2020
0000
3030
0000
0010
0100
0001
0000
MMMM
0000
0001
0010
,  // measure 53
0100
1000
0010
0000
MMMM
0000
0010
1000
0001
0010
0001
0000
MMMM
0000
0001
0100
,  // measure 54
0010
0000
1000
0000
0010
0000
1000
0000
0000
0100
0000
0000
0002
0000
0000
0000
0000
0000
0000
0000
0000
0000
0000
0000
0203
0000
0000
0000
0000
0000
2300
0000
0000
0000
0000
0000
3000
0000
0000
0010
0000
0000
1000
0000
0000
0001
0000
0000
,  // measure 55
0020
0000
0000
0000
0000
0000
0031
0000
0100
0000
0010
0000
1000
0001
0010
0100
1000
0001
0100
0000
0000
0000
0000
0000
,  // measure 56
0001
0000
0000
0000
0010
0000
0000
0000
1000
0000
0000
0000
0020
0000
0000
0000
0000
0000
0031
0000
0000
0000
0000
0000
MMMM
0000
0000
0000
0000
0000
0000
0000
0000
0000
0000
0000
0001
0000
0000
0100
0000
0000
0001
0000
0000
0100
0000
0000
,  // measure 57
0001
0000
1000
0000
0010
0100
0010
0000
1000
0000
0001
0010
0001
0000
0100
0000
0010
1000
0010
0000
0000
0000
0000
0000
,  // measure 58
0100
0000
0000
0010
0000
0000
1000
0100
0010
0001
0010
0100
1000
0000
0000
0010
0000
0000
MMMM
0000
0010
0000
1000
0000
,  // measure 59
0001
0010
0001
0010
0100
0010
1000
0010
0001
0000
0000
0000
0011
0000
0000
0000
,  // measure 60
0010
0001
1000
0000
2020
0000
3030
0000
1000
0001
0100
0000
MMMM
0000
0100
0001
,  // measure 61
0010
0100
0001
0000
0200
0000
0000
0000
2300
0000
0000
0000
3001
0100
0010
1000
,  // measure 62
0100
0000
1000
0000
0100
0000
1000
0000
0000
0010
0000
0000
0002
0000
0000
0000
0000
0000
0000
0000
0000
0000
0000
0000
0023
0000
0000
0000
0000
0000
2030
0000
0000
0000
0000
0000
0000
0000
0000
3100
0000
0000
1000
0000
0000
0001
0000
0000
,  // measure 63
0010
0000
0000
0000
0000
0000
MMMM
0000
0000
0000
0000
0000
0010
0000
0000
0001
0000
0000
1000
0000
0000
0010
0000
0000
0200
0000
0000
0000
0000
0000
1300
0000
0000
0100
0000
0000
0010
0000
0000
0000
0000
0000
1000
0000
0010
0000
1000
0000
,  // measure 64
0010
0100
0001
0000
0022
0000
0033
0000
0001
0100
0010
0000
MMMM
0000
0010
0100
,  // measure 65
0001
0010
1000
0000
0020
0000
0000
0000
0032
0000
0000
0000
1003
0010
0100
0010
,  // measure 66
1000
0000
0100
0000
1000
0000
0100
0000
0000
0010
0000
0000
2000
0000
0000
0000
0000
0000
0000
0000
0000
0000
0000
0000
3020
0000
0000
0000
0000
0000
0032
0000
0000
0000
0000
0000
0000
0000
0000
1003
0000
0000
0010
0000
0000
1000
0000
0000
,  // measure 67
0002
0000
0000
0000
,  // measure 68
0000
0000
0000
0000
0000
0000
0000
0000
0000
0000
0000
0000
0000
0000
0000
0000
0000
0000
0000
0000
0000
0000
0000
0000
1003
0100
0010
0001
1000
0100
0010
0001
,  // measure 69
1000
0100
0010
0001
2000
0000
0000
0000
3000
0000
0000
0000
0000
0000
0000
0000
0000
0000
0000
0000
0000
MMMM
0000
0000
0000
0000
0000
0000
0000
0000
0000
0000
;
