#VERSION:0.83;
#TITLE:Trrricksters!!;
#SUBTITLE:;
#ARTIST:s-don vs. 翡乃イスカ;
#TITLETRANSLIT:;
#SUBTITLETRANSLIT:;
#ARTISTTRANSLIT:s-don vs. Hino Isuka;
#GENRE:;
#CREDIT:;
#MUSIC:Trrricksters!!.ogg;
#BANNER:Trrricksters!!-bn.png;
#BACKGROUND:Trrricksters!!-bg.png;
#CDTITLE:;
#SAMPLESTART:36.811;
#SAMPLELENGTH:15.000;
#SELECTABLE:YES;
#OFFSET:1.512;
#BPMS:0.000=155.000;
#STOPS:;
#BGCHANGES:0.000=Trrricksters!!.avi=1.000=0=0=0=StretchNoLoop====,
99999.000=-nosongbg-=1.000=0=0=0=StretchNoLoop====
;
#FGCHANGES:;

//--------------- dance-single - ----------------
#NOTEDATA:;
#STEPSTYPE:dance-single;
#DESCRIPTION:;
#DIFFICULTY:Beginner;
#METER:5;
#RADARVALUES:0,0,0,0,0;
#NOTES:
0000
0000
0000
0000
,
0000
0000
0000
0000
,
0000
0000
0000
0000
,
0000
0000
0000
0000
,
0010
0000
0000
0000
,
1000
0000
1000
0000
,
0001
0001
0001
0000
,
0010
0000
0010
0000
,
0200
0000
0000
0300
,
1000
0000
1000
0000
,
1000
1000
1000
0000
,
0001
0000
0001
0000
,
0001
0001
0001
0000
,
0100
0000
0010
0000
,
0100
0010
0100
0010
,
0000
0000
0000
0000
,
1000
1000
1000
0001
,
0010
0010
0000
0000
,
0100
0000
1000
0000
,
0001
0000
0001
0000
,
1000
0000
0000
0000
,
0010
0100
0000
0000
,
0001
0000
1000
1000
,
0010
0000
0100
0000
,
0000
0000
0000
0000
,
0001
0001
0001
0000
,
1000
1000
1000
0000
,
0010
0000
0100
0000
,
0010
0010
0010
0000
,
1000
1000
1000
0000
,
0001
0001
0001
0000
,
0010
0000
0100
0000
,
0010
0010
0010
0000
,
0001
1000
0000
1000
,
0001
1000
1000
0000
,
1000
0001
0000
0001
,
1000
0001
0001
0000
,
0100
0010
0100
0010
,
0100
0010
0100
0010
,
1000
0001
1000
0001
,
0010
0010
0010
0000
,
1001
0000
0100
0000
,
0010
0000
0100
0000
,
1001
0000
0000
0000
,
1000
1000
1000
0000
,
0000
0110
0000
0001
,
0000
1000
0000
0000
,
0000
0010
0000
0010
,
0000
0010
0000
0000
,
0000
1001
0000
1000
,
0000
1000
0000
0001
,
0000
0110
0000
0100
,
0010
0010
0010
0000
,
1000
0001
1000
0001
,
0100
0100
0100
0000
,
0000
0110
0000
0001
,
0000
1000
0000
0000
,
2002
0000
0000
0000
,
0000
0000
0000
0000
,
0000
0000
0000
0000
,
0000
0000
0000
0000
,
0000
0000
0000
0000
,
0000
0000
0000
0000
,
0000
0000
0000
0000
,
0000
0000
3003
0000
,
0110
0000
0000
0000
0000
0010
0000
0100
,
0000
0000
1001
0000
,
0110
0000
0000
0000
0000
0001
0000
1000
,
0000
0000
0000
0110
0000
0000
0000
0000
,
1000
1000
0001
0001
,
1000
1000
0001
0001
,
0010
0100
0010
0100
,
0000
0000
0000
0000
,
1000
0000
1000
0000
,
0001
0000
0001
0000
,
0010
0010
0000
0010
,
0100
0000
0100
0000
0000
1001
0000
0000
,
0110
0000
0001
0000
,
1000
0000
0010
0000
,
0100
0000
0001
0000
,
0010
0010
0010
0000
,
0000
1001
0000
1000
,
0000
0010
0000
0100
,
0001
0001
0001
0000
,
0010
0010
0100
0000
,
1001
0000
1000
0000
,
0010
0100
0010
0000
,
0000
1000
1000
1000
,
0001
0001
0001
0000
,
0110
0000
1001
0000
,
0100
0100
0100
0000
,
0110
0000
1001
0000
,
0010
0010
0020
0000
,
0000
0000
0000
0000
,
0030
0000
0000
0000
;

//--------------- dance-single - ----------------
#NOTEDATA:;
#STEPSTYPE:dance-single;
#DESCRIPTION:;
#DIFFICULTY:Easy;
#METER:10;
#RADARVALUES:0,0,0,0,0;
#NOTES:
0000
0000
0000
0000
,
0000
0000
0000
0000
,
0000
0000
0000
0000
,
0000
0000
0000
0000
,
1000
0000
0001
0100
0000
0001
0010
0000
,
0110
0100
1000
0001
,
0100
0010
1000
1000
,
0110
0001
0010
0100
,
2000
0000
0000
0000
3000
1000
0001
0000
,
0110
0001
1000
0010
,
0100
0000
0001
0000
0010
0100
0010
0000
,
0110
0100
1000
0010
,
0100
0001
0100
0000
0010
0000
1000
0000
,
0110
0001
0110
1000
,
0101
1010
1100
0011
,
2002
0000
3003
0000
,
0100
0100
0010
0110
,
1001
0000
0001
0000
0100
0000
0010
0010
,
1000
0000
0000
0000
0100
0000
0000
0100
0000
0000
0100
0000
0000
0000
0000
0000
,
0010
0001
0010
1000
,
0010
0000
0000
0100
0000
0000
0010
0000
0000
0001
0000
0000
2000
0000
0000
0000
,
3000
0000
0000
0000
0010
0000
0000
0020
0000
0000
0000
0000
0030
0000
0000
0000
,
0200
0000
0000
0000
0301
0001
1000
0000
,
0001
0000
0010
0000
0100
1000
0001
0000
,
0200
0000
0000
0300
,
0010
1010
1000
1100
,
0100
0110
0010
0011
,
0001
0000
0100
0001
0000
0100
0001
0000
,
0010
0000
0000
0000
0100
0000
0000
0100
0000
0000
2000
0000
0000
0000
0000
0000
,
3001
0101
0100
0110
,
0010
1010
1000
1001
,
0010
0000
0000
0000
0001
0000
0000
1000
0000
0001
0000
1000
0000
0000
0000
0000
,
0010
0010
0100
0002
,
0013
0001
0100
0001
,
1000
0010
1000
0100
,
0010
0100
0010
0001
,
0100
0000
0100
0000
0001
1000
0001
0000
,
0010
0110
0010
0110
,
0010
1001
0010
1001
,
1000
1000
0001
0000
0001
0001
1000
0000
,
0100
0100
0200
0310
,
1001
0001
0101
1000
,
0010
0100
0002
0013
,
0200
0000
0000
0000
1300
0000
0000
1000
0000
0000
0000
0000
1000
0000
0000
0000
,
0001
0000
0000
0000
0100
0000
0000
0020
0000
0000
0000
0000
0030
0000
0000
0000
,
1000
0001
1000
0000
0010
0000
1000
0000
,
0100
1000
0020
0030
,
0000
0101
0000
0011
,
0000
1010
0000
0000
,
1000
0001
0100
0010
,
1000
0000
0001
0000
0100
0010
0100
0010
,
0200
0000
0000
0000
0301
0000
0000
0001
0000
0000
0000
0000
0001
0000
0000
0000
,
1000
0000
0000
0000
1000
0000
0000
0200
0000
0000
0000
0000
0300
0000
0000
0000
,
0010
0001
0100
0001
,
1000
0001
1000
0000
0020
0000
0030
0000
,
0000
0110
0000
1001
,
0000
0110
0000
0000
,
2002
0000
0000
0000
,
0000
0000
0000
0000
,
0000
0000
0000
0000
,
0000
0000
3003
0000
,
0200
0000
0000
0000
,
0000
0000
0000
0000
,
0020
0000
0000
0000
,
0000
0000
0000
0330
,
2002
0000
0000
0000
0000
0000
0000
3003
0000
0000
0110
0000
0000
0000
2002
0000
,
0000
3003
0220
0330
,
1001
0000
1000
0001
0000
0110
0000
2002
,
0000
0000
3003
0220
0000
0000
0330
0000
,
0001
0000
0000
0001
0000
0000
0001
0000
1000
0000
0000
1000
0000
0000
1000
0000
,
0010
0000
0000
0010
0000
0000
0010
0000
0100
0000
0000
0100
0000
0000
0100
0000
,
0001
0010
0100
1000
,
0020
0000
0000
0030
,
0100
0001
0000
0001
,
0100
0001
0000
0001
,
0010
0000
0100
1000
0000
0100
2000
0000
,
3010
0000
0000
0000
0100
0000
0000
0100
0000
0000
2002
0000
0000
0000
3003
0000
,
1000
1100
0001
0101
,
1000
1010
0001
0011
,
0000
0000
0000
0000
0100
0000
0000
0010
0000
0010
0000
0010
0000
0000
0000
0000
,
1000
0000
0000
0001
0000
0000
1000
0000
0002
0000
0000
0000
0000
0000
0000
0000
,
0003
0011
0100
1100
,
0010
1010
0100
0101
,
0001
0000
1000
0100
0000
0001
0100
0000
,
0010
0000
0000
0000
0001
0000
0000
1000
0000
0000
0220
0000
0000
0000
0330
0000
,
1000
1010
0001
0011
,
0100
0000
0010
0000
0000
0000
0010
0000
1000
0000
0000
0001
0000
0000
1000
0000
,
0000
0000
0000
0000
0010
0000
0000
0010
0000
0100
0000
0010
0000
0000
0000
0000
,
1000
0000
0001
0000
0010
0100
0010
0000
,
0001
0100
0001
0000
1000
0100
1000
0000
,
0010
0000
0010
0100
0001
1000
0010
0000
,
1000
0100
1000
0000
0001
0100
0001
0000
,
0010
0000
0100
0000
0010
0000
0000
0100
0000
0000
0000
0000
0000
0000
0000
0000
,
2000
0000
0000
0000
,
3000
0000
0000
0000
;

//--------------- dance-single - ----------------
#NOTEDATA:;
#STEPSTYPE:dance-single;
#DESCRIPTION:;
#DIFFICULTY:Medium;
#METER:13;
#RADARVALUES:0,0,0,0,0;
#NOTES:
0000
0000
0000
0000
,
0000
0000
0000
0000
,
0000
0000
0000
0000
,
0000
0000
0000
0000
,
0001
0100
0001
1000
0100
1000
0010
0000
,
1001
0000
0001
0100
0010
1000
0001
0000
,
0010
0000
0100
0000
0010
0000
0100
0000
1000
0000
0001
0000
0000
0100
0000
0000
,
0010
0000
1000
0001
1000
0100
0010
0000
,
0002
0000
0000
0000
0103
0001
0010
0000
,
0110
0000
1100
0000
0001
0100
1000
0100
,
0010
0000
0000
0000
1010
0000
0000
0000
0001
0000
0010
0000
0000
0110
0000
0000
,
1100
0000
0001
0000
1000
0010
0001
0010
,
0100
0000
0000
0100
0001
0000
0000
0001
0020
0000
0000
0000
0230
0000
0000
0000
,
1300
0010
1000
0100
1000
0010
1000
0000
,
0001
0010
0100
1000
0001
0100
0010
0000
,
2000
0100
0010
3010
,
1001
1001
0100
0110
,
0001
0100
0001
1000
0002
0000
0013
0010
,
0200
0000
0000
0000
1300
0000
0000
1010
0000
0000
0101
0000
0001
0000
0010
0000
,
0100
1000
0020
0000
0130
0001
0020
0000
,
0130
0000
0000
0110
0000
0000
1001
0000
0000
0100
0000
0000
0020
0000
0000
0000
,
0030
0000
0000
0000
1000
0001
1000
0001
0000
0000
0000
0000
0000
0000
0000
0000
,
0010
0100
0100
0100
1000
0001
0100
0100
,
0110
0000
0001
0010
1000
0010
0001
0100
,
0020
0000
0000
0030
,
1000
0000
0000
1000
0100
0000
0000
0100
0010
0000
0000
0010
0001
0000
0000
0001
,
0100
0000
0000
0100
0010
0000
0000
0010
1000
0000
1000
0000
0001
0000
0010
0000
,
0100
1000
0001
0100
1000
0001
0020
0000
,
0130
0000
0100
0000
0001
0010
0000
0010
0000
0000
0220
0000
0000
0000
0330
0000
,
0001
0000
0000
0001
0100
0000
0000
0100
0010
0000
0000
0010
1000
0000
0000
1000
,
0100
0000
0000
0100
0010
0000
0000
0010
0001
0000
0001
0000
0100
0000
0020
0000
,
0000
0000
0030
0000
1000
0001
0000
0001
0000
0010
0000
0100
1000
0000
0010
0000
,
0100
0000
0100
0000
0001
1000
0000
0100
0000
0000
2002
0000
0000
0000
3003
0000
,
0001
0010
0100
0010
1000
0010
0100
0000
,
1000
0010
0100
0010
0001
0010
0100
0000
,
0001
0100
1000
0100
0010
1000
0001
0000
,
1000
0100
0001
0100
0010
0010
0001
0000
,
0100
0000
0000
0001
0000
0000
0010
0000
0100
0000
0000
1000
0000
0000
0010
0000
,
0100
0000
0000
0001
0000
0000
1000
0000
0100
0000
0000
1000
0000
0000
0001
0000
,
0100
0100
0010
0010
1000
0001
0010
0100
,
1000
0000
1000
0000
0001
0200
1000
0300
,
0110
0000
0001
0100
0001
0010
0100
1000
,
0010
0010
0100
0001
2000
0000
3200
0000
,
0310
0000
0000
0000
0011
0000
0000
0100
0000
0100
0000
0100
0010
0000
0010
0000
,
0100
0000
0000
0000
0110
0000
0000
2002
0000
0000
0000
0000
3003
0000
0000
0000
,
0001
0100
0101
0000
0110
0000
1010
0000
,
1001
0000
1100
0000
0010
0001
0200
0000
,
0300
0000
1000
0100
0001
0000
1000
0100
,
0001
0000
0001
0100
0020
0000
0030
0000
,
0001
0000
0100
1000
0100
0001
0100
1000
,
0100
0001
0100
1000
0100
0010
0010
1000
,
0000
0000
0000
0000
0100
0000
0010
0001
0000
0001
0000
0001
0100
0000
0010
0000
,
1000
0000
0000
0000
0110
0000
0000
2002
0000
0000
0000
0000
3003
0000
0000
0000
,
1000
0100
1100
0000
0110
0000
0011
0000
,
0001
0100
1000
0100
0010
1000
0002
0000
,
0003
0011
0100
1010
,
0100
1001
0020
0130
,
2002
0000
0000
0000
,
0000
0000
0000
0000
,
0000
0000
0000
0000
,
0000
0000
0000
3003
,
0002
0000
0000
0000
,
0203
0000
0000
0000
,
0320
0000
0000
0000
,
2000
0000
0000
3030
,
1000
0000
0001
0100
0001
0100
0010
0000
0000
0000
0110
0000
0000
0000
2002
0000
,
0000
3003
0100
0000
0220
0000
0330
0000
,
1000
0001
0100
1000
0100
0010
0000
1020
,
0000
1030
0100
0001
0100
0010
0002
0000
,
0013
0000
0000
1001
0000
0000
1000
0000
0010
0000
0000
1001
0000
0000
0001
0000
,
0100
0000
0000
1001
0000
0000
1000
0000
0100
0000
0000
1001
0000
0000
0001
0000
,
0010
0100
0010
1000
0010
0001
1000
0001
,
0200
0000
0300
0020
,
1030
0000
0000
0000
0100
0000
0010
0000
0001
0000
0000
0100
0000
0000
0010
0000
,
2000
0000
0000
0000
3001
0000
0010
0000
0100
0000
0000
1000
0000
0000
0010
0000
,
0100
0000
0001
0100
0000
1000
0100
0000
,
0010
0000
0010
0000
1000
0001
0000
1000
0000
0000
0220
0000
0000
0000
0330
0000
,
0001
0000
0000
0001
0100
0000
0000
0100
1000
0000
0000
1000
0100
0000
0000
0100
,
0010
0000
0000
0010
1000
0000
0000
1000
0001
0000
0001
0000
0010
0000
0200
0000
,
0000
0000
0300
0000
1000
0001
0000
0100
0000
0010
0000
1000
0001
0000
0010
0000
,
0100
0000
1000
0000
0010
0100
0000
0100
0000
0000
2002
0000
0000
0000
3003
0000
,
0000
0000
0000
0000
1000
0000
0000
1000
0100
0000
0000
0100
0001
0000
0000
0001
,
0100
0000
0000
0100
0010
0000
0000
0010
0001
0000
0001
0000
0100
0000
0010
0000
,
0001
0010
1000
0001
0010
1000
0020
0000
,
0130
0000
1000
0000
0001
0100
0000
0100
0000
0000
2002
0000
0000
0000
3003
0000
,
1000
0000
0000
1000
0010
0000
0000
0010
0001
0000
0000
0001
0010
0000
0000
0010
,
0100
0000
1000
0000
0100
0000
0001
0000
0100
0000
0000
0110
0000
0000
2002
0000
,
0000
0000
3003
0000
1000
0100
0000
0010
0000
0001
0000
0100
0010
0000
1000
0000
,
0001
0010
0001
0100
1000
0100
0020
0000
,
1030
0001
1000
0000
0100
0000
0010
0000
0001
1000
0001
0000
0100
0000
0010
0000
,
1000
0000
0100
0000
0010
0001
0000
0001
0000
0100
0000
0010
0000
1000
0001
0000
,
1000
0100
1000
0100
0020
0000
0030
0000
0001
0100
0001
0100
0020
0000
0030
0000
,
1000
0000
0001
0000
0010
0100
0000
0100
0000
0000
0000
0000
1000
0000
0000
0000
,
0002
0000
0000
0000
,
0003
0000
0000
0000
;

//--------------- dance-single - ----------------
#NOTEDATA:;
#STEPSTYPE:dance-single;
#DESCRIPTION:;
#DIFFICULTY:Hard;
#METER:15;
#RADARVALUES:0,0,0,0,0;
#CREDIT:Talkion;
#NOTES:
0000
0000
0000
0000
,
0000
0000
0000
0000
,
0000
0000
0000
0000
,
0000
0000
0000
0000
,
1000
0100
1000
0100
1000
0000
0001
0100
0001
0100
0001
0000
1000
0000
0100
0000
,
1001
0000
0000
0000
1000
0000
1000
0000
0001
0100
0000
0020
0000
0000
1030
0000
,
0001
0000
0001
0000
0010
0000
0001
0000
1000
0000
1010
0000
0000
0101
0000
0000
,
1001
0000
0000
0000
0001
0000
0001
0000
1000
0100
0000
0020
0000
0000
0130
0000
,
0002
0000
0000
0000
0000
0000
0000
0000
0103
0000
1000
0001
1000
0000
0010
0000
,
1001
0000
0000
1000
0100
0000
1000
0000
0001
0100
0010
0000
1000
0010
0000
0010
,
0100
0000
0000
0001
1000
0000
0001
0000
0010
0100
1000
0000
0000
1001
0000
0000
,
0101
0000
0000
0100
0010
0000
1000
0000
0010
0100
0001
0000
1000
0100
0000
0100
,
0010
0000
0001
0000
0000
0001
0000
0000
2000
0000
0010
0000
0000
3001
0000
0000
,
1001
0000
1000
0000
0100
0000
0010
0000
0001
1000
0001
0000
0100
0010
0000
0010
,
1000
0000
0100
0000
1000
0000
0010
0000
1000
0000
0100
0000
1000
0001
1000
0001
,
0100
0000
0010
0000
0100
0000
0001
0000
1000
0100
0010
0001
1000
0100
0010
0001
,
1000
1010
0110
0102
,
1003
0100
0010
0100
0002
0000
0103
0100
,
2000
0000
0000
0000
3010
0000
0000
0110
0000
0000
0110
0000
0100
0010
2000
0000
,
0100
3001
0010
0002
0100
1003
0010
1000
,
1100
0000
0000
1100
0000
0000
0011
0000
0000
0001
1000
0001
0200
0000
0320
0000
,
0031
0000
0001
0000
0010
0100
0010
0100
0002
0000
0023
0000
2030
0000
3020
0000
,
0031
0000
1000
0010
1000
0010
1000
0010
0100
0000
0100
0000
1000
0000
1000
0000
,
0100
0010
0100
0001
1000
0100
1000
0001
,
0020
0000
0000
0000
0130
0000
0100
0000
1000
0001
0000
1000
0001
0000
0000
0000
,
0100
0010
0000
0100
0010
0000
1000
0000
0001
0000
0010
0100
0000
0100
1000
0000
,
0001
0100
0000
0001
0100
0000
0010
0000
1000
0000
0001
0010
0000
0010
0100
0000
,
1000
0000
0001
0100
0010
0000
0001
0000
0010
0100
0001
0000
1000
0000
0100
0010
,
1000
0000
0001
0000
0100
1000
0000
1001
0000
0000
0002
0000
0000
0000
0103
0010
,
2000
0000
0000
0000
3001
0000
0010
0100
1000
0001
1000
0000
0010
0100
0001
0000
,
1000
0100
1000
0000
0001
0100
0001
0000
1000
0100
0010
0100
1000
0010
0100
0000
,
0002
0000
0000
0000
1003
0100
0000
0100
0000
0100
0000
0100
0010
0000
0001
0000
,
0100
0000
0100
0000
0010
0000
0010
0000
1000
0001
1000
0001
0010
0100
0010
0100
,
1000
0000
0000
1000
0001
0000
0100
0000
0010
0100
0000
0010
0100
0000
0001
0000
,
1000
0000
0000
1000
0100
0000
0010
0000
0001
1000
0000
0001
1000
0000
0010
0000
,
0100
0000
0000
0100
0001
0000
1000
0000
0100
0010
0000
0100
0010
0000
0100
0000
,
1000
0000
0000
1000
0001
0000
0100
0000
0010
1000
0010
1000
0001
0000
0010
0100
,
1000
0000
0000
1001
0000
0000
0101
0000
0110
0000
0000
1010
0000
0000
1001
0000
,
0011
0000
0000
0110
0000
0000
1100
0000
1001
0000
0000
0101
0000
0000
0100
0010
,
1000
0001
1000
0001
0010
0000
0100
0010
0002
0000
0203
0000
0320
0000
0230
0000
,
0301
0010
1000
0010
0002
0010
1003
0000
,
1001
0000
0000
0000
0001
0000
0100
0010
0000
1000
0010
1000
0000
0001
0010
0001
,
1000
0000
1000
0000
0100
0000
0010
0100
0002
0000
0003
0000
0200
0000
0300
0000
,
2000
0000
0000
0000
3001
0000
0000
0101
0000
0101
0000
0100
0010
0000
1000
0000
,
1001
0000
0000
0000
0011
0000
0000
2100
0000
0000
3000
0000
0001
0000
0001
0000
,
0100
0000
0100
0000
0100
0000
0010
0100
0001
0000
0010
0100
1000
0000
0010
0100
,
0001
0000
1000
0000
0010
0000
1000
0000
0001
0010
0001
0020
0000
0000
0100
0000
,
0031
0000
0000
0000
0100
0000
0100
0000
0200
0000
0000
0320
0000
0000
2030
0000
,
0000
0000
3001
0010
0100
1000
0100
1000
,
0001
0000
0000
0000
0100
0010
0100
0000
0010
1000
0010
0000
1000
0001
1000
0000
,
0001
0010
0001
0000
0010
0100
0010
0000
0100
1000
0100
1000
0001
0100
0001
0200
,
0000
0000
0300
0000
0010
0000
1000
0010
0000
0010
0000
0010
0100
0000
0001
0000
,
1001
0000
0000
0000
1100
0000
0000
0012
0000
0000
1003
0000
1000
0000
0000
0000
,
0010
0000
0010
0000
0010
0000
0100
0010
1000
0000
0100
0010
0001
0000
0100
0010
,
1000
0001
0010
0100
1000
0001
0100
0010
1000
0001
0010
0100
2000
0000
0000
0000
,
3010
0000
0000
0000
0100
0000
0100
0000
0200
0000
0000
0302
0000
0000
2003
0000
,
0000
0000
3100
0010
0001
1000
0001
1000
,
0020
0000
0000
0000
,
0000
0000
0000
0230
0000
0302
0000
2003
,
0000
0000
0000
0000
3000
0200
0300
0020
,
0000
0000
0030
0002
0000
0000
0000
0000
,
2003
0000
0000
0000
,
3020
0000
0000
0230
0000
0302
0000
0000
,
0023
0000
0000
0000
,
0230
0000
2300
3002
,
0103
0000
0010
1000
0010
1000
0001
0000
0000
0000
0011
0000
0000
0000
2100
0000
,
0001
0000
3001
0000
0100
0010
0000
0010
2000
0000
0000
0000
3001
0000
0000
0000
,
0011
0000
0010
0000
0100
1000
0100
1000
0001
0000
0101
0000
0000
0000
2010
0000
,
0001
0000
3001
0000
0010
0100
2000
0000
0001
0000
3001
0000
0100
0000
0010
0000
,
1010
0000
0000
1001
0000
0000
1000
0100
0010
0000
0000
0011
0000
0000
0001
0100
,
0010
0000
0000
1010
0000
0000
1000
0100
0010
0000
0000
0011
0000
0000
0001
0100
,
0010
1000
0010
1000
0001
0000
0010
0100
2000
0000
3020
0000
0230
0000
0320
0000
,
2030
0000
0000
0000
0000
3000
0001
0010
,
0200
0000
0000
0000
1300
0000
0001
0000
0100
0000
0000
0100
0000
0000
0100
0000
,
0020
0000
0000
0000
1030
0000
0001
0000
0010
0000
0000
0010
0000
0000
0010
0000
,
0100
0000
0100
0000
0001
0000
0100
0000
0100
0000
1000
0000
0001
0000
0100
0010
,
0001
0000
1000
0000
0100
0001
0000
1001
0000
0000
2000
0000
0000
0000
3100
0010
,
0002
0000
0000
0000
1003
0000
0010
0100
0001
1000
0001
0000
0010
0100
1000
0000
,
0001
0100
0001
0000
1000
0100
1000
0000
0002
0000
0000
0203
0000
0000
0310
0000
,
2000
0000
0000
0000
3001
0010
0000
0010
0000
0010
0000
0010
0100
0000
1000
0000
,
0010
0000
0010
0000
0100
0001
0000
1001
0000
1000
0100
0000
0020
0000
0000
0000
,
0032
0000
0000
0000
1003
0000
1000
0000
0010
0000
0100
0010
0000
0010
1000
0000
,
0001
0010
0000
0001
0010
0000
0100
0000
1000
0000
0001
0100
0000
0100
0010
0000
,
1000
0000
0001
0010
0100
0000
0001
0000
0100
0010
0001
0000
1000
0000
0010
0100
,
1000
0000
0001
0000
0010
1000
0000
1001
0000
0000
0002
0000
0000
0000
0013
0100
,
2000
0000
0000
0000
3001
0000
0100
0010
1000
0001
1000
0000
0100
0010
0001
0000
,
1000
0010
1000
0000
0001
0010
0001
0000
2000
0000
0000
3020
0000
0000
0130
0000
,
0002
0000
0000
0000
1003
0100
0000
0100
0000
0100
0000
0100
0010
0000
0001
0000
,
0100
0000
0100
0000
0010
0100
0001
1000
0100
0010
0100
0010
0002
0000
0000
0000
,
1003
0010
1000
0010
0100
0000
0002
0000
0013
0100
0010
0100
1000
0000
0002
0000
,
0103
0000
0010
0100
0010
1000
0000
0100
0010
0001
0000
0100
0010
1000
0001
0000
,
0010
0001
0010
0001
0200
0000
0300
0000
0010
1000
0010
1000
0200
0000
0300
0000
,
0010
0000
0010
0000
0001
1000
0000
0010
0000
0100
0001
0100
0010
0000
1000
0001
,
2000
0000
0000
0000
,
3100
0000
0000
0000
;

//--------------- dance-single - ----------------
#NOTEDATA:;
#STEPSTYPE:dance-single;
#DESCRIPTION:;
#DIFFICULTY:Challenge;
#METER:18;
#RADARVALUES:0,0,0,0,0;
#CREDIT:Talkion;
#NOTES:
0000
0000
0000
0000
,
0000
0000
0000
0000
,
0000
0000
0000
0000
,
0000
0000
0000
0000
,
1000
0100
1000
0100
1000
0000
0001
0100
0001
0100
0001
0000
1000
0000
1100
0000
,
0011
0000
0000
0000
0001
1000
0001
1000
0010
0100
0000
0001
0000
1000
0100
0010
,
0001
0000
0001
0000
1000
0000
0100
0000
1000
0000
1010
0000
0000
0011
0000
0000
,
1001
0000
0000
0000
1000
0010
1000
0010
0100
0001
0000
1000
0000
0100
0010
0100
,
0002
0000
0000
0000
0000
0000
0000
0000
0103
0000
1000
0010
0100
0000
0110
0000
,
1001
0000
0000
0001
0010
0000
0001
0000
1000
0010
0100
0000
0001
0100
0010
1000
,
0001
0000
0000
1000
0100
0000
1000
0000
0001
0100
0010
0000
0000
1010
0000
0000
,
1001
0000
0000
1000
0100
0000
1000
0000
0001
0010
0100
0010
0001
1000
0010
0100
,
0001
0000
1000
0000
0001
0010
0000
0000
0200
0000
1000
0000
0000
0310
0000
0000
,
0011
0000
0001
0000
1000
0000
0010
0000
0100
0001
0010
0000
0100
1000
0000
1000
,
0010
0000
1000
0000
0100
0000
1000
0000
0010
0100
0001
0010
0100
1000
0010
0100
,
0001
0000
1000
0000
0100
0000
1000
0000
0001
0010
0100
1000
0001
0100
0010
0100
,
1000
0000
0000
0000
1010
0000
0000
0000
0011
0000
0010
0000
0100
0000
1000
0001
,
1000
0010
0100
0010
1000
0001
0010
0001
0200
0000
0000
0000
0310
1000
0010
1000
,
0002
0000
0000
0000
0013
0000
0000
0110
0000
0000
0110
0000
0100
1000
0010
0100
,
0001
0000
0000
0000
0000
0000
1001
0000
0000
0000
0000
0000
1000
0000
0000
0000
0000
0000
0100
0000
0000
0000
0000
0000
0110
0000
0000
0000
0000
0000
1001
0000
0000
0000
0000
0000
1000
0000
0001
0000
1000
0000
0001
0000
0000
1000
0000
0000
,
0010
0000
0000
0110
0000
0000
1001
0000
0000
1000
0100
1000
0002
0000
0023
0000
,
1030
0000
1000
0000
0010
0001
0010
0001
0100
1000
0100
0001
0010
1000
0010
0001
,
0100
0000
0010
1000
0010
1000
0010
1000
0100
0000
0100
0000
0001
0000
0001
0000
,
0100
0000
0000
0010
0000
0000
0100
0000
0000
0010
0000
0000
0100
0000
0000
0000
0000
0000
1000
0000
0000
0000
0000
0000
0001
0000
0000
0010
0000
0000
0001
0000
0000
0010
0000
0000
0001
0000
0000
0000
0000
0000
1000
0000
0010
0000
1000
0000
,
0020
0000
0000
0000
0130
0000
0100
0000
0001
1000
0000
0100
1000
0001
0010
0100
,
1000
0001
0010
0001
1000
0000
0010
0000
0100
0000
0001
0010
0000
0001
1000
0010
,
0100
0001
0100
0010
1000
0000
0001
0000
0010
0000
0100
1000
0000
0001
1000
0010
,
0100
1000
0100
0010
1000
0000
0100
0001
0100
0010
0001
0000
1000
0010
0100
1000
,
0001
0000
0011
0000
0010
1000
0000
1100
0000
0000
2001
0000
0000
0000
3100
0010
,
1000
0000
0000
0000
0000
0000
0010
0000
0000
0100
0000
0000
1000
0000
0000
0000
0000
0000
0001
0000
0000
1000
0000
0000
0001
0000
0000
0100
0000
0000
0010
0000
0000
0000
0000
0000
1000
0000
0010
0000
1000
0000
0001
0000
0000
0010
0000
0000
,
0100
0010
0001
0100
0010
0100
0001
0010
0100
1000
0001
0100
0010
0001
0010
0100
,
0002
0000
0000
0000
1003
1000
0000
1000
0000
1000
0000
1000
0100
0000
0010
0100
,
1000
0000
1000
0000
0001
0100
0010
0100
1000
0100
0010
0100
0001
1000
0001
1000
,
0100
0000
0000
0000
0000
0000
0000
0000
0000
0100
0000
0000
0010
0000
0000
0000
0000
0000
0001
0000
1000
0000
0001
0000
1000
0000
0000
0010
0000
0000
0000
0000
0000
0010
0000
0000
0100
0000
0000
0000
0000
0000
0001
0000
0000
0000
0000
0000
,
0010
0000
0000
0000
0000
0000
0000
0000
0000
0010
0000
0000
0100
0000
0000
0000
0000
0000
0010
0000
0000
0000
0000
0000
0001
0000
0000
1000
0000
0000
0100
0000
0000
1000
0000
0000
0001
0000
0000
0000
0000
0000
0100
0000
0010
0000
0100
0000
,
0010
0000
0000
0010
1000
0000
0001
0000
0010
0100
0000
0100
1000
0001
1000
0000
,
0010
0000
0000
0000
0000
0000
0000
0000
0000
0010
0000
0000
0100
0000
0000
0000
0000
0000
0001
0000
0000
0000
0000
0000
1000
0000
0000
0100
0000
0000
0010
0000
0000
0100
0000
0000
1000
0000
0001
0000
1000
0000
0001
0000
0000
0100
0000
0000
,
0010
0000
1000
0100
0000
0100
0010
0000
1001
0000
0001
0100
0000
0100
0010
0000
,
1001
0000
0000
0000
0000
0000
1000
0000
0000
0100
0000
0000
0000
0000
0000
0100
0000
0000
0010
0000
0000
0000
0000
0000
1001
0000
0000
0000
0000
0000
0001
0000
0000
0100
0000
0000
0000
0000
0000
0100
0000
0000
0010
0000
1000
0000
0010
0000
,
1000
0001
0010
0001
1000
0010
0100
0001
1000
0100
0001
0100
1000
0100
0001
0100
,
1000
0010
0001
0010
2000
0010
3001
0000
,
1001
0000
0000
0000
1000
0100
0010
0100
1000
0001
0010
0001
1000
0010
0100
0001
,
0010
0000
0010
0000
1000
0000
0010
0001
0200
0000
0300
0000
0020
0000
0030
0000
,
1001
0000
1000
0001
0010
0000
0000
0110
0000
0110
0000
0100
1000
0000
0001
0000
,
0101
0000
0000
0000
1010
0000
0000
2001
0000
0000
3000
0000
0001
0000
0010
0000
,
0110
0000
0110
0000
0210
0000
1000
0010
0000
0000
0001
0010
0000
0000
1000
0010
,
0000
0000
0001
0010
0000
0000
1300
0001
1000
0010
0100
0002
0000
0000
1000
0000
,
0013
0000
0000
0000
0100
0000
0100
0000
0200
0000
0000
1000
0000
0000
0320
0000
,
0000
0000
0000
0000
0031
0000
1000
0000
0010
0000
0010
0000
0100
0010
1000
0001
,
0010
0000
0100
0010
0001
1000
0100
1000
0001
0100
0010
0100
0001
0010
0100
0010
,
0001
0100
0010
0100
0001
0010
0100
1000
0001
1000
0010
1000
0001
1000
0100
0010
,
2000
0000
3010
0001
1000
0000
0001
0100
0000
0110
0000
0010
1000
0000
0001
0000
,
0011
0000
0000
0000
1100
0000
0000
2001
0000
0000
3010
0000
0010
0000
0000
0000
,
0110
0000
0110
0000
0210
0000
0001
0010
0000
0000
1000
0010
0000
0000
0301
0010
,
0100
0010
0001
0100
0010
1000
0100
0010
0100
1000
0010
0100
0002
0000
0000
0000
,
0013
0000
0100
0010
0001
0000
0001
0000
0001
0000
1000
0010
0100
0000
0002
0000
,
1000
0000
0000
0000
0000
0000
0013
0000
0000
0100
0000
0000
1000
0001
0010
0001
0000
0000
1000
0010
1000
0001
0000
0000
,
0020
0000
0000
0000
,
0000
0000
0000
0230
0000
2300
0000
3002
,
0000
0000
0000
0000
0003
0200
0300
0020
,
0000
0000
0030
2000
0000
0000
0000
0000
,
3002
0000
0000
0000
,
0023
0000
0000
0230
0000
2300
0000
0000
,
3020
0000
0000
0000
,
0230
0000
0000
0000
0000
0000
0000
0000
0302
0000
0000
0000
1003
0100
1000
0100
,
0010
0000
0000
0000
0000
0000
0001
0000
1000
0000
0001
0000
1000
0000
0000
0001
0000
0000
1000
0000
0000
0010
0000
0000
0100
0000
0000
0000
0000
0000
0101
0000
0000
0000
0000
0000
0000
0000
0000
0000
0000
0000
1001
0000
0000
0000
0000
0000
,
0001
0010
0100
0010
0001
1000
0000
1000
0010
0100
0001
0100
0010
1000
0100
0010
,
0001
0000
1000
0000
0010
0100
0010
0100
0001
0000
0010
0100
1000
0100
0020
0000
,
0001
0000
0000
0000
0000
0000
0031
0000
0000
0000
0000
0000
0100
0000
0000
0010
0000
0000
2000
0000
0000
0000
0000
0000
0001
0000
0000
0000
0000
0000
3001
0000
0000
0000
0000
0000
0010
0000
0100
0000
0010
0000
0100
0000
0000
1000
0000
0000
,
0001
0000
0000
0101
0000
0100
0010
0100
0001
0000
0000
1001
0000
1000
0100
0010
,
0001
0000
0000
0000
0000
0000
0000
0000
0000
0101
0000
0000
0000
0000
0000
0100
0000
0000
0010
0000
0000
0100
0000
0000
0001
0000
0000
0000
0000
0000
0000
0000
0000
1001
0000
0000
0000
0000
0000
1000
0000
0000
0100
0000
0010
0000
0100
0000
,
0010
0001
1000
0001
0100
0010
1000
0100
0010
0100
1000
0010
0100
0001
1000
0100
,
0020
0000
0000
0000
0000
0000
0000
0000
0000
0000
0030
0000
0001
1000
0010
1000
,
0001
0000
0001
0000
0001
0000
0010
0000
0100
0000
1000
0001
0000
1000
0001
0000
,
0100
0000
0100
0000
0100
0000
0010
0000
1000
0000
0001
0010
0000
0001
0010
0000
,
0100
0000
0100
0000
0001
0000
0100
0000
0100
0000
1000
0000
0001
0100
0010
0001
,
1000
0000
1100
0000
0100
0001
0000
0011
0000
0000
1002
0000
0000
0000
0013
0100
,
0001
0000
0000
0000
0000
0000
0100
0000
0000
0010
0000
0000
0001
0000
0000
0000
0000
0000
1000
0000
0000
0001
0000
0000
1000
0000
0000
0010
0000
0000
0100
0000
0000
0000
0000
0000
0001
0000
0100
0000
0001
0000
1000
0000
0000
0100
0000
0000
,
0010
0100
1000
0010
0100
0010
1000
0100
0010
0001
1000
0001
0100
0000
0010
0000
,
2000
0000
0000
0000
3001
0001
0000
0001
0000
0001
0000
0001
0010
0000
0100
0010
,
0001
0000
0001
0000
1000
0010
0100
0010
0001
0010
0100
0010
1000
0100
0010
0001
,
0200
1000
0000
0000
0310
0000
0010
0000
0100
0000
0001
0010
0000
0001
1000
0100
,
0010
0001
0010
0100
1000
0000
0001
0000
0100
0000
0010
1000
0000
0001
1000
0100
,
0010
1000
0010
0100
1000
0000
0010
0001
0010
0100
0001
0000
1000
0100
0010
1000
,
0001
0000
0101
0000
0100
1000
0000
1010
0000
0000
2001
0000
0000
0000
3010
0100
,
1000
0000
0000
0000
0000
0000
0100
0000
0000
0010
0000
0000
1000
0000
0000
0000
0000
0000
0001
0000
0000
1000
0000
0000
0001
0000
0000
0010
0000
0000
0100
0000
0000
0000
0000
0000
1000
0000
0100
0000
1000
0000
0001
0000
0000
0100
0000
0000
,
0010
0100
0001
0010
0100
0010
0001
0100
0020
0000
0000
2030
0000
0000
3001
0000
,
0020
0000
0000
0000
0130
0100
0000
0100
0000
0100
0000
0100
1000
0000
0001
0100
,
0010
0000
0000
0000
0000
0000
0010
0000
0000
0000
0000
0000
1000
0000
0000
0001
0000
0000
0010
0000
0000
0100
0000
0000
0001
0000
0000
1000
0000
0000
0010
0000
0000
0100
0000
0000
1000
0000
0001
0000
1000
0000
0001
0000
1000
0000
0001
0000
,
0100
0000
0000
0010
0000
0000
1000
0000
0000
0100
0000
0000
0010
0000
0000
0000
0000
0000
0200
0000
0000
0000
0000
0000
0310
0000
0000
0001
0000
0000
0100
0000
0000
0010
0000
0000
1000
0000
0000
0000
0000
0000
0001
0000
1000
0000
0001
0000
,
1000
0100
0010
0001
0100
0010
1000
0100
1000
0010
0100
0001
0010
0100
1000
0000
,
0001
0100
0001
0100
2000
0000
3000
0000
0001
0010
0001
0010
2000
0000
3000
0000
,
0100
0000
0100
0010
0001
0100
0000
1000
0000
0100
0001
0010
0100
1000
0001
1000
,
0020
0000
0000
0000
,
0130
0000
0000
0000
;
