#TITLE:The Hymn of Nivoria;
#SUBTITLE:;
#ARTIST:NIVIRO;
#TITLETRANSLIT:;
#SUBTITLETRANSLIT:;
#ARTISTTRANSLIT:;
#GENRE:;
#CREDIT:darkanine;
#BANNER:The Hymn of Nivoria.png;
#BACKGROUND:The Hymn of Nivoria-bg.png;
#LYRICSPATH:;
#CDTITLE:;
#MUSIC:The Hymn of Nivoria.ogg;
#OFFSET:0.000000;
#SAMPLESTART:18.342365;
#SAMPLELENGTH:20.000000;
#LASTBEATHINT:297.753723;
#SELECTABLE:YES;
#BPMS:0.000000=144.000000
,104.000000=160.000000
;
#STOPS:0.000000=5.000000
;
#BGCHANGES:;
#KEYSOUNDS:;
#ATTACKS:;

//---------------dance-single - ----------------
#NOTES:
     dance-single:
     :
     Beginner:
     6:
     0.198518,0.248669,0.008126,0.113770,0.000000,171.000000,170.000000,1.000000,14.000000,0.000000,0.000000,0.198518,0.248669,0.008126,0.113770,0.000000,171.000000,170.000000,1.000000,14.000000,0.000000,0.000000:
// measure 0
0000
0000
0000
0000
,  // measure 1
0000
0000
0000
0000
,  // measure 2
0000
0000
0000
0000
,  // measure 3
0000
0000
0000
0000
,  // measure 4
1000
0000
1000
0000
,  // measure 5
0100
0000
0010
0000
,  // measure 6
0001
0000
0001
0000
,  // measure 7
2000
0000
0000
3000
,  // measure 8
1000
1000
1000
1000
,  // measure 9
0001
0001
0001
0001
,  // measure 10
0010
0000
0100
0000
,  // measure 11
0010
0010
0010
0000
,  // measure 12
0001
0001
0001
0001
,  // measure 13
1000
1000
1000
1000
,  // measure 14
0010
0000
0100
0000
,  // measure 15
0010
0010
0010
0000
,  // measure 16
1000
1000
1000
0000
,  // measure 17
0010
0010
0010
0000
,  // measure 18
0100
0100
0001
0000
,  // measure 19
0010
0010
0010
0000
,  // measure 20
0001
0001
0001
0000
,  // measure 21
0100
0100
0100
0000
,  // measure 22
0010
0010
1000
0000
,  // measure 23
0100
0100
0100
1000
,  // measure 24
0000
0000
0000
0000
,  // measure 25
0000
0000
0000
0000
,  // measure 26
2000
0000
0000
0000
,  // measure 27
3020
0000
0000
0130
,  // measure 28
0002
0000
0000
2003
,  // measure 29
0000
0000
3200
0000
,  // measure 30
0320
0000
0000
0000
,  // measure 31
0032
0000
2003
0000
,  // measure 32
3020
0000
0000
0000
,  // measure 33
0030
0000
0000
0000
,  // measure 34
1000
1000
1000
0000
,  // measure 35
0001
0001
0001
0000
,  // measure 36
0100
0100
0100
0000
,  // measure 37
0010
0010
0010
0000
,  // measure 38
1000
0000
0001
0000
,  // measure 39
1000
0000
0001
0000
,  // measure 40
0100
0100
0100
0000
,  // measure 41
0020
0000
0000
0030
,  // measure 42
1000
1000
1000
1000
,  // measure 43
0010
0010
0010
0100
,  // measure 44
0001
0001
0001
1000
,  // measure 45
1000
1000
0100
0100
,  // measure 46
0010
0010
0010
0010
,  // measure 47
0001
0001
1000
1000
,  // measure 48
0010
0010
0010
0010
,  // measure 49
0010
0010
0010
0000
,  // measure 50
1000
0100
0000
0100
,  // measure 51
0001
0010
0000
0010
,  // measure 52
1000
0010
0000
0010
,  // measure 53
0001
0100
0000
0100
,  // measure 54
1000
0001
0000
0001
,  // measure 55
0100
0010
0000
0010
,  // measure 56
1000
1000
0001
0001
,  // measure 57
2002
0000
0000
3003
,  // measure 58
0010
0010
0010
0000
,  // measure 59
0001
0001
0001
0000
,  // measure 60
0100
0100
0100
0100
,  // measure 61
0001
0001
1000
0000
,  // measure 62
0010
0010
0010
0000
,  // measure 63
1000
1000
1000
0000
,  // measure 64
0100
0100
0100
1000
,  // measure 65
0010
0010
0010
0100
,  // measure 66
0002
0000
0000
0000
,  // measure 67
0000
0000
0000
0000
,  // measure 68
0003
0000
0000
0000
;

//---------------dance-single - ----------------
#NOTES:
     dance-single:
     :
     Easy:
     8:
     0.256564,0.331559,0.113770,0.170655,0.000000,221.000000,207.000000,14.000000,21.000000,0.000000,0.000000,0.256564,0.331559,0.113770,0.170655,0.000000,221.000000,207.000000,14.000000,21.000000,0.000000,0.000000:
0000
0000
0000
0000
,
0000
0000
0000
0000
,
0000
0000
0000
0000
,
0000
0000
0000
0000
,
1000
1000
0100
0100
,
1000
0010
0100
0001
,
1000
1000
1000
1000
,
0002
0000
0000
0103
,
1000
0010
1000
0100
,
0010
0010
0001
0001
,
1000
0010
0001
0010
,
0100
0100
0001
0001
,
1000
1100
0000
0101
,
0000
0110
0000
1001
,
0001
0011
1000
1010
,
0200
0010
0000
0310
,
1000
0010
0001
0010
,
1000
0001
1000
0000
0001
0000
0010
0000
,
0100
0100
1000
1000
,
0001
0001
1000
1000
,
0001
0010
1000
0010
,
0001
1000
0001
0000
0100
0000
0010
0000
,
1000
1000
0100
0100
,
0020
0001
0100
0031
,
0000
0000
0000
0000
,
0000
0000
0000
0000
,
2000
0000
0000
0000
0000
0000
0000
3001
,
0200
0000
0000
0301
,
0020
0000
0000
0230
,
0000
0000
2300
0000
,
3020
0000
0000
0000
,
0230
0000
0000
0000
0302
0000
0000
1003
,
0020
0000
0000
0000
,
0030
0000
0000
0000
,
1000
1000
0001
0001
,
0010
0010
0100
0010
,
0001
0001
1000
1000
,
0010
0010
0100
0010
,
1000
0100
0001
0100
,
1000
0010
0001
0010
,
1000
1000
0001
0001
,
0020
0000
0000
0030
,
0001
0100
0010
0100
,
0001
0001
0010
0100
,
1000
0010
0100
0001
,
0010
0100
1000
0001
,
0010
0010
0001
0100
,
0010
0010
1000
0100
,
0001
0100
1000
0001
,
1000
0010
0001
0010
,
1000
1100
0000
0101
,
0001
0011
0000
1010
,
1000
1001
0000
0101
,
0100
0110
0000
1100
,
2000
3010
0002
0013
,
2000
3100
0002
0103
,
0020
0100
0100
0130
,
0002
0000
0000
0003
,
1000
0100
0010
0010
,
0001
0100
0001
0000
0010
0000
0010
0000
,
0001
0001
1000
1000
,
0001
0100
1000
0100
,
0001
0010
0100
0100
,
1000
0010
1000
0000
0100
0000
0100
0000
,
0000
1000
0000
1000
0001
0000
1000
0000
,
0020
0000
0000
1030
,
0200
0000
0000
0000
,
0000
0000
0000
0000
,
0300
0000
0000
0000
;

//---------------dance-single - ----------------
#NOTES:
     dance-single:
     :
     Medium:
     10:
     0.344794,0.497339,0.276299,0.211288,0.125960,297.000000,263.000000,34.000000,26.000000,0.000000,0.000000,0.344794,0.497339,0.276299,0.211288,0.125960,297.000000,263.000000,34.000000,26.000000,0.000000,0.000000:
0000
0000
0000
0000
,
0000
0000
0000
0000
,
0000
0000
0000
0000
,
0000
0000
0000
0000
,
1000
0000
0000
0000
0010
0000
1000
0000
0010
0000
0000
0010
0000
0000
0100
0000
,
0001
0000
0000
0001
0000
0000
1000
0000
0100
0000
0000
0100
0000
0000
0010
0000
,
0001
0000
1000
0000
0000
0000
1000
0000
0010
0000
0000
0100
0000
0000
0001
0000
,
0020
0000
0000
0130
,
0001
0000
0000
0000
0100
0000
0001
0000
0010
0000
0000
0010
0000
0000
0100
0000
,
1000
0000
0000
1000
0000
0000
0010
0000
0001
0000
0000
0001
0000
0000
0010
0000
,
0100
0000
0001
0000
0000
0000
0001
0000
1000
0000
0000
0100
0000
0000
0010
0000
,
0002
0100
1000
0103
,
0001
0000
0000
0000
0010
0000
0001
0000
1000
0000
0000
1000
0000
0000
0100
0000
,
0010
0000
0000
0001
0000
0000
0100
0000
0010
0000
0000
0010
0000
0000
0100
0000
,
0001
0000
0010
0000
0000
0000
0010
0000
0100
0000
0000
1000
0000
0000
0001
0000
,
0020
1000
0100
0031
,
1000
0000
0000
0000
0100
0000
1000
0000
0001
0000
0000
0001
0000
0000
0000
0000
,
0010
0000
0001
0000
1000
0000
0001
0000
0100
0000
0000
0100
0000
0000
0000
0000
,
0010
0000
1000
0000
0000
0000
1000
0000
0100
0000
0000
0010
0000
0000
0001
0000
,
2000
0010
0001
3100
,
1000
0000
0000
0000
0010
0000
1000
0000
0001
0000
0000
0001
0000
0000
0000
0000
,
0100
0000
0010
0000
1000
0000
0100
0000
0010
0000
0000
0010
0000
0000
0000
0000
,
0001
0000
0010
0000
0000
0000
0010
0000
1000
0000
0000
0010
0000
0000
0001
0000
,
0200
1000
0010
0301
,
0100
0000
0000
0000
,
0000
0000
0000
0000
,
0002
0000
0000
0000
0000
0000
0000
0203
,
2300
0000
0000
3200
,
0320
0000
0000
2030
,
0000
0000
3002
0000
,
0023
0000
0000
0000
,
0230
0000
0000
0000
2300
0000
0000
3002
,
0023
0000
0000
0000
,
0030
0000
0000
0000
,
0100
0100
1000
1000
,
0010
0010
0001
0001
,
0100
0100
0001
0001
,
0010
0010
1000
1000
,
1001
0000
0110
0000
,
1010
0000
0011
0000
,
0002
0000
0100
1000
,
0023
0000
0000
0030
,
0011
0000
0011
0000
1001
0000
0001
0100
,
0110
0110
1010
1001
,
0011
0011
0011
1010
,
1010
1010
0110
0110
,
1001
1001
1001
1001
,
1100
0000
1100
0000
0101
0000
0001
0100
,
0110
0110
0110
0110
,
2010
3001
0102
1003
,
1001
0000
0000
0000
1000
0000
0100
0000
0010
0000
0000
0010
0000
0000
0001
0000
,
1000
0000
0000
1000
0000
0000
0010
0000
0001
0000
0000
0001
0000
0000
0010
0000
,
0100
0000
0001
0000
0000
0000
0001
0000
0010
0000
0000
0100
0000
0000
1000
0000
,
0001
0001
1000
1000
,
0001
0000
0000
0000
0001
0000
1000
0000
0100
0000
0000
0100
0000
0000
0010
0000
,
0001
0000
0000
0001
0000
0000
0100
0000
1000
0000
0000
1000
0000
0000
0100
0000
,
0001
1000
0001
1000
0100
0000
0100
0000
,
0220
0000
0000
0330
,
0001
0000
0000
0000
0100
0000
0010
0000
0100
0000
0000
0100
0001
0000
0000
0000
,
1000
0000
0100
0000
0001
0000
0100
0000
1000
0000
0000
1000
0001
0000
0000
0000
,
0000
0000
0010
0000
0000
0000
0010
0000
0100
0000
0000
1000
0000
0000
0001
0000
,
0020
1000
0100
0031
,
1000
0000
0000
0000
0010
0000
0100
0000
0010
0000
0000
0010
1000
0000
0000
0000
,
0001
0000
0100
0000
1000
0000
0100
0000
0001
0000
0000
0001
1000
0000
0000
0000
,
0000
0000
0100
0000
0000
0000
0100
0000
0010
0000
0000
0001
0000
0000
1000
0000
,
0020
0001
0100
1030
,
0002
0000
0000
0000
,
0000
0000
0000
0000
,
0003
0000
0000
0000
;

//---------------dance-single - ----------------
#NOTES:
     dance-single:
     :
     Hard:
     13:
     0.475978,0.580228,0.162529,0.186908,0.215351,410.000000,390.000000,20.000000,23.000000,0.000000,0.000000,0.475978,0.580228,0.162529,0.186908,0.215351,410.000000,390.000000,20.000000,23.000000,0.000000,0.000000:
0000
0000
0000
0000
,
0000
0000
0000
0000
,
0000
0000
0000
0000
,
0000
0000
0000
0000
,
1000
0000
0000
0001
0000
0000
1000
0000
0100
0000
0000
0010
0000
0000
0001
1000
,
0010
0000
0000
0100
0000
0000
0010
0000
1000
0000
0000
0100
0000
0000
0010
0000
,
0001
0100
0001
0100
0001
1000
0001
1000
0100
0000
0100
0000
0010
0000
0010
0000
,
0002
0000
0003
0000
0002
0000
0000
0003
0002
0000
0000
0000
1003
0000
0000
0000
,
0110
0000
0000
0000
1000
0000
0100
0000
0010
0000
0000
0010
0001
0000
0100
0000
,
0010
0000
0000
0010
1000
0000
0100
0000
0001
0000
0000
0001
0100
0000
1000
0000
,
0001
0000
0110
0000
0000
0000
0110
0000
1000
0000
0000
1000
0010
0000
0100
0000
,
2000
0000
0000
0000
3200
0000
0000
0000
0302
0000
0000
0003
1001
0000
0000
0000
,
0001
0000
0000
0000
1010
0000
0010
0000
0100
0000
0000
0100
0001
0000
0010
0000
,
0100
0000
0000
0100
1000
0000
0010
0000
0001
0000
0000
0001
0010
0000
1000
0000
,
0001
0000
0100
0000
1000
0000
0100
0000
0001
0000
0000
0001
0010
0000
0100
0000
,
0001
0001
0100
0100
1000
0001
1001
0000
,
1000
0000
0010
0000
0001
0000
0010
0000
1000
0000
0100
1000
0001
0000
0000
0000
,
0001
0000
0010
0000
1000
0000
0010
0000
0001
0000
0100
0001
1000
0000
0001
1000
,
0001
0110
0000
0110
1000
0001
1001
0000
,
1000
0100
0010
0001
0100
0010
1000
0000
,
0001
0000
0100
0000
1000
0000
0100
0000
0010
0000
1000
0100
0010
0000
0000
0000
,
0001
0000
0010
0000
1000
0000
0010
0000
0100
0000
1000
0010
0100
0000
0001
1000
,
0001
0000
0110
0000
0000
0000
0110
0000
0001
0000
1000
0010
0100
0000
0001
0000
,
0010
1000
0010
0100
0010
0001
2000
3000
,
0001
0000
0000
0000
,
0000
0000
0000
0000
,
0022
0000
0000
0000
0000
0000
0030
2003
,
0200
0000
3000
2300
,
0020
0000
3000
0200
,
0000
0030
0002
0300
,
0020
0000
0000
0003
,
0200
0000
0030
0000
2000
0000
0300
3002
,
0020
0000
0000
0000
,
0003
0000
0000
0000
,
0130
1000
0001
1000
,
0010
0010
0100
0100
,
0001
0001
1000
1000
,
0001
0010
0100
0100
,
1000
0001
0000
1000
0000
0000
0010
0000
1000
0000
0000
0100
0000
0000
1000
0000
,
0100
0000
0000
0010
0000
0000
0001
1000
0010
0000
0000
0100
0000
0000
0010
0000
,
1000
0000
0000
0100
0000
0000
0010
0100
1000
0000
0000
0010
0000
0000
0100
0001
,
1000
0000
0000
1000
0000
0000
0001
0000
0000
0001
0000
0000
0110
0000
0000
0000
,
0001
1000
0010
1000
0100
0010
0001
0100
,
0010
1000
0010
0100
0010
0001
0010
0100
,
0001
0010
0100
0010
0001
1000
0010
0100
,
1000
0100
0001
0100
0010
1000
0100
0010
,
0001
0010
1000
0010
0001
1000
0100
0010
,
0001
0100
0010
0100
0001
1000
0010
0100
,
1000
0100
0001
0100
0010
0100
0001
1000
,
0100
1000
0010
0100
0001
0010
0110
0000
,
1001
0000
0000
0000
1000
0000
0010
0000
0100
0000
0000
0100
0001
0000
0010
0000
,
0100
0000
0000
0100
1000
0000
0010
0000
0001
0000
0000
0001
0010
0000
1000
0001
,
1000
0000
0100
0000
0001
0000
0100
0000
1000
0000
0000
1000
0010
0000
0100
0000
,
0001
0010
0100
1000
0010
0100
0001
0000
,
1001
0000
0000
0000
1000
0000
0100
0000
0010
0000
0000
0010
0001
0000
0100
0000
,
0010
0000
0000
0010
1000
0000
0100
0000
0001
0000
0000
0001
0100
0000
1000
0001
,
1000
0010
0100
0001
1000
0100
0010
0100
,
2000
0100
0001
3100
,
1000
0000
0000
0000
1000
0000
0100
0000
0001
0000
0100
1000
0001
0000
0000
0000
,
1000
0000
0010
0000
0100
0000
0010
0000
0001
0000
0010
1000
0001
0000
0100
0010
,
0100
0000
1001
0000
0000
0000
1001
0000
0100
0000
0000
0100
1000
0000
0001
0000
,
0100
1000
0100
0010
0100
0001
1000
0000
,
0001
0000
0000
0000
0001
0000
0100
0000
1000
0000
0100
0001
1000
0000
0000
0000
,
0001
0000
0010
0000
0100
0000
0010
0000
1000
0000
0010
0001
1000
0000
0100
0010
,
0100
0000
1001
0000
0000
0000
1001
0000
0100
0000
0000
0100
0001
0000
0010
0000
,
1000
0010
0001
0100
0010
0100
0002
0003
,
2000
0000
0000
0000
,
0000
0000
0000
0000
,
3000
0000
0000
0000
;
