#VERSION:0.83;
#TITLE:Take It Easy;
#SUBTITLE:;
#ARTIST:Aya;
#TITLETRANSLIT:;
#SUBTITLETRANSLIT:;
#ARTISTTRANSLIT:;
#GENRE:INSTRUMENTAL;
#CREDIT:;
#MUSIC:Take It Easy.ogg;
#BANNER:Take It Easy.png;
#BACKGROUND:Take It Easy-bg.png;
#CDTITLE:cdtitle.png;
#SAMPLESTART:57.692;
#SAMPLELENGTH:15.003;
#SELECTABLE:YES;
#OFFSET:-1.521;
#BPMS:0.000=205.043
,125.000=102.522
,157.000=205.043
;
#STOPS:28.000=0.878;
#DISPLAYBPM:102.000:205.000;
#BGCHANGES:;
#FGCHANGES:;

//--------------- dance-single - forcednature ----------------
#NOTEDATA:;
#STEPSTYPE:dance-single;
#DESCRIPTION:forcednature;
#DIFFICULTY:Beginner;
#METER:4;
#RADARVALUES:0,0,0,0,0;
#NOTES:
0000
0000
0000
0000
,
0000
0000
0000
0000
,
0000
0000
0000
0000
,
0000
0000
0000
0000
,
0000
0000
1000
0000
,
0000
0000
0001
0000
,
0000
0000
0100
0000
,
0010
1001
0000
0000
,
0000
0010
0000
0000
,
0000
0001
0000
0000
,
0000
1000
0000
0000
,
0000
0010
0000
0000
,
0000
0100
0000
0000
,
0000
0001
0000
0000
,
0000
0000
0000
0000
,
0000
0110
0000
0000
,
0000
1000
0000
0001
,
0000
1000
0000
0000
,
0000
0010
0000
0000
,
0000
0100
0000
0000
,
0000
0001
0000
1000
,
0000
0001
0000
0000
,
0000
0010
0000
0000
,
0000
0110
0000
0000
,
0000
1000
0000
0001
,
0000
1000
0000
0000
,
0000
0010
0000
0010
,
0000
0010
0000
0000
,
0000
0100
0000
0001
,
0000
0100
0000
0000
,
0000
0020
0000
0030
,
0000
2000
0000
0000
,
3000
0200
0000
0000
,
0300
0020
0000
0000
,
0030
0002
0000
0103
,
0000
0010
1001
0000
,
0100
0000
1000
0000
,
0001
0010
1001
0000
,
0001
0000
1000
0000
,
0100
0020
0000
0000
,
0000
0000
0000
0000
,
0000
0032
0000
0000
,
0000
0000
0000
0000
,
0000
2003
0000
0000
,
0000
0000
0000
0000
,
0000
3010
0000
0010
,
0000
0100
0100
0000
,
0000
1001
0000
0010
,
0000
0000
0000
1000
,
0000
0000
0000
0100
,
0000
0000
0000
0010
,
0000
0000
0000
0001
,
0000
0000
0000
0100
,
0000
0000
0000
0010
,
0000
0000
0000
1000
,
0000
1001
0000
0001
,
0000
0000
0000
0010
,
0000
0000
0000
0100
,
0000
0000
0000
1000
,
0000
0000
0000
0010
,
0000
0000
0000
0100
,
0000
0000
0000
0001
,
0000
0000
0000
0000
,
0000
1000
0000
1000
,
0000
1000
0000
0000
,
0000
0001
0000
0100
,
0000
0001
0000
0000
,
0000
0010
0000
0010
,
0000
0010
0000
0000
,
0000
0100
0000
1000
,
0000
0100
0000
0000
,
0000
0010
0000
0001
,
0000
0010
0000
0000
,
0000
0001
0000
0001
,
0000
0001
0000
0000
,
0000
0100
0000
0010
,
0000
0100
0000
0000
,
0000
0001
0000
1000
,
0000
0001
0000
0000
,
0000
1001
0000
0000
,
0000
1000
0000
0010
,
0000
1000
0000
0000
,
0000
0001
0000
0010
,
0000
0001
0000
0000
,
0000
0100
0000
0010
,
0000
0100
0000
0000
,
0000
0001
0000
1000
,
0000
1001
0000
0000
,
0000
0100
0000
0010
,
0000
0100
0000
0000
,
0000
1000
0000
0001
,
0000
1000
0000
0000
,
0000
0010
0000
0100
,
0000
0010
0000
0000
,
0000
1000
0000
0002
,
0000
0000
0000
0000
,
0000
0003
0000
0000
;

//--------------- dance-single - forcednature ----------------
#NOTEDATA:;
#STEPSTYPE:dance-single;
#DESCRIPTION:forcednature;
#DIFFICULTY:Easy;
#METER:8;
#RADARVALUES:0,0,0,0,0;
#NOTES:
0000
0000
0000
0000
,
0000
0000
0000
0000
,
0000
0000
0000
0000
,
0000
0000
0000
0000
,
0001
0000
0110
0000
,
1000
0000
0110
0000
,
0010
0000
0110
0000
,
1001
1100
0001
0100
,
0000
0010
1000
0001
,
0010
0100
1000
0010
,
0000
0100
0001
0010
,
0100
1000
0010
0100
,
0000
0001
0010
0100
,
1000
0010
0100
0001
,
0000
2000
0000
0000
,
3000
1100
0001
0100
,
0000
0010
1000
0001
,
0010
0100
0010
0001
,
0100
0000
0000
0010
0000
0000
0000
0000
,
0000
1000
0001
0100
,
0000
0010
1000
0001
,
0010
0100
1000
0010
,
0200
0000
0000
0301
,
1000
0101
1000
0001
,
0000
0010
0100
1000
,
0010
0100
0001
0010
,
0100
0000
0000
0000
0000
0000
0000
0000
0000
1000
0000
0000
0000
0000
0000
0000
0000
0001
0000
0000
0000
0000
0000
0000
,
0000
1000
0000
0010
0000
0000
0100
0000
0000
0001
0000
0000
,
0000
0010
0100
1000
,
0010
0100
0001
0010
,
0200
0000
0000
0000
,
0300
0000
0000
0000
1100
0000
0000
1000
0000
0000
1000
0000
0000
0000
0002
0000
,
0000
0000
0003
0000
0101
0000
0000
0001
0000
0000
0001
0000
0000
0000
2000
0000
,
0000
0000
3000
0000
1010
0000
0000
1000
0000
0000
1000
0000
0000
0000
0002
0000
,
0000
0000
0003
0000
0011
0000
0000
0001
0000
0000
0001
0000
0000
0000
0110
0000
,
0000
1001
0000
0000
1000
0000
0000
0000
1001
0000
0000
0000
0001
0000
0100
0000
,
0001
0000
0010
0100
1000
0001
0100
0010
,
1000
0000
0100
0000
1001
0000
0001
0100
,
0010
0000
1000
0100
0010
0001
0100
0010
,
1000
2002
0000
0000
,
0000
0000
0000
0000
,
3003
2200
0000
0000
,
0000
0000
0000
0000
,
3300
0202
0000
0000
,
0000
0000
0000
0000
,
0303
0000
0010
0000
0000
0010
0000
0000
,
0010
0000
1000
0000
0001
0000
0000
0010
,
0000
0000
1001
0000
0000
0100
0000
0000
,
1000
0000
0000
0001
0000
0000
0100
0000
,
0000
0000
0010
0000
0000
1000
0000
0000
,
0001
0000
0000
1000
0000
0000
0100
0000
,
0000
0000
0010
0000
0000
0001
0000
0000
,
0100
0000
0000
0010
0000
0000
0100
0000
,
0000
0000
0001
0000
0000
0010
0000
0000
,
0100
0000
0000
1000
0000
0000
0010
0000
,
0000
0000
0110
0000
0000
0100
0000
0000
,
0001
0000
0000
1000
0000
0000
0100
0000
,
0000
0000
0010
0000
0000
0001
0000
0000
,
1000
0000
0000
0010
0000
0000
0100
0000
,
0000
0000
0001
0000
0000
0010
0000
0000
,
0001
0000
0000
0100
0000
0000
0010
0000
,
0000
0000
1000
0000
0000
0100
0000
0000
,
0010
0000
0000
0000
,
0000
0001
0100
0001
,
1000
0001
0010
0100
,
1000
0010
0100
0001
,
2000
0000
3000
0000
,
0000
0100
0010
0001
,
0100
0010
1000
0001
,
0010
0100
1000
0001
,
0100
0000
0000
0020
0000
0000
0000
0000
,
0030
1000
0001
0010
,
0001
0100
0010
1000
,
0100
0010
0001
0100
,
0010
0000
0000
1000
0000
0000
0001
0000
,
0000
1000
0000
0010
0000
0000
0100
0000
0000
0001
0000
0000
,
0010
0100
1000
0010
,
0100
0001
1000
0100
,
0010
0000
0000
0100
0000
0000
1000
0000
,
0000
0110
0001
1000
,
0010
0100
0001
0010
,
0100
1000
0100
0000
0010
0000
0001
0000
,
1000
0010
0100
0001
,
1000
0100
1000
0000
0010
0000
0100
0000
,
0001
0010
0100
1000
,
0010
0100
0010
0000
1000
0000
0001
0000
,
0010
0100
1000
0010
,
0000
0110
0001
1000
,
0100
0010
0001
0100
,
0001
1000
0001
0000
0010
0000
0100
0000
,
1000
0010
0100
0001
,
1000
0100
1000
0000
0010
0000
0100
0000
,
0001
0010
0100
1000
,
0001
0100
0001
0000
0010
0000
0100
0000
,
1000
0000
0000
0010
0000
0000
0200
0000
,
0000
0000
0000
0000
,
0000
0300
0000
0000
;

//--------------- dance-single - forcednature ----------------
#NOTEDATA:;
#STEPSTYPE:dance-single;
#DESCRIPTION:forcednature;
#DIFFICULTY:Medium;
#METER:11;
#RADARVALUES:0,0,0,0,0;
#NOTES:
0000
0000
0000
0000
,
0000
0000
0000
0000
,
0000
0000
0000
0000
,
0000
0000
0000
0000
,
1000
0000
0001
0000
0100
0000
0000
0010
,
0000
0010
0000
0000
1000
0000
0001
0000
,
0010
0100
1000
0000
,
1001
0110
0000
0001
,
0100
1000
0100
0010
,
1000
0001
0000
1000
,
0100
0001
0100
0010
,
0001
1000
0000
0010
,
0100
1000
0100
0001
,
0100
0010
0000
1000
,
0001
0020
0000
0000
,
0030
0110
0100
1000
,
0001
0000
0100
0000
0010
1000
0000
0001
,
0010
0100
1000
0001
,
0100
0010
0000
1001
0000
0000
0000
0000
,
0000
0001
0100
0010
,
1000
0000
0001
0000
0010
0100
0000
1000
,
0100
0000
0010
0000
0001
0000
1000
0010
,
1000
0020
0000
0000
0000
0000
0130
0001
,
0100
0001
1000
0000
0100
0000
0010
0000
,
0100
0000
1000
0000
0001
0100
0000
0010
,
1000
0001
0010
0100
,
1000
0000
0000
0010
0000
0000
0000
0000
0000
0100
0000
0000
0000
0001
0000
0000
0000
1000
0000
0000
0000
0001
0000
0000
,
0000
0010
0000
0100
0000
0000
1000
0000
0000
0001
0000
0000
,
0100
0000
0010
0000
1000
0001
0000
0010
,
0100
0000
1000
0000
0010
0000
0100
0001
,
0100
0002
0000
0000
0000
0000
0000
0000
,
0003
0000
0000
0000
0201
0000
0000
1000
0000
0000
0310
0000
0000
0000
2002
0000
,
0000
0000
3003
0000
1200
0000
0000
0001
0000
0000
0310
0000
0000
0000
2002
0000
,
0000
0000
3003
0000
0021
0000
0000
1000
0000
0000
0130
0000
0000
0000
2002
0000
,
0000
0000
3003
0000
1020
0000
0000
0001
0000
0000
0130
0000
0000
0000
0110
0000
,
0000
1001
0000
0000
1000
0000
0100
0000
0110
0000
0000
0000
0010
0000
0001
1000
,
0000
0001
0100
0000
0010
0000
1000
0000
0001
0000
0010
0100
0000
2200
0000
0000
,
0000
0000
3300
0000
1000
0000
0001
0000
0110
0000
0000
0000
0001
0000
1000
0010
,
0000
0100
0001
0000
0010
0000
0100
0000
1000
0001
0100
0002
0000
0000
0000
0000
,
0000
0003
0021
0000
0000
0100
0000
0000
,
1000
0000
0002
0000
,
0033
0000
1020
0000
0000
0100
0000
0000
,
0001
0000
2000
0000
,
3030
0000
0201
0000
0000
0010
0000
0000
,
1000
0000
0000
0010
0000
0000
0002
0000
,
0303
0000
1200
0000
0000
0001
0000
0000
,
0010
0000
1300
0100
0010
0000
0000
0110
,
0000
0000
1001
0000
0000
0002
0100
0000
,
1000
0000
0000
1000
0000
0000
0013
0001
,
1000
0002
0000
0000
0103
0000
0010
1000
,
0001
1000
0000
0100
0000
0000
0110
0000
,
0000
0000
0000
0001
0100
0000
0010
0000
,
1000
0000
0001
0000
1000
0000
0001
0100
,
0001
0100
0010
1000
0010
1000
0001
0010
,
0100
2000
0000
0000
0000
0000
0000
0000
,
3000
0110
0001
1000
,
0010
0100
0001
1000
,
0100
0000
0000
0000
0000
0000
0010
0000
0000
0000
0000
0000
0001
0000
0100
0000
0001
0000
0100
0000
0000
0001
0000
0000
,
0000
1000
0000
0010
0200
0000
0000
0000
,
0000
0000
0000
0300
0000
0000
0000
0010
0000
1000
0000
0010
,
0000
0100
0000
0001
0000
0100
0000
0001
0000
0010
0000
0001
,
0000
1000
0000
0100
0000
1000
0000
0010
0000
0100
0000
0010
,
0000
1000
0000
0002
0000
0000
0000
0000
0000
0000
0000
0000
,
0003
0000
0011
0000
1100
0000
0001
0100
,
1000
0000
0100
0000
0010
1000
0000
0001
,
0010
0110
1001
0010
,
0001
1000
0000
0010
0100
0000
0001
1000
,
0000
0110
0011
0100
,
1000
0001
0100
0000
1000
0100
0000
0010
,
1000
0011
0110
1000
,
0010
0100
0000
2002
0000
0000
0000
0000
,
3003
0000
1000
0100
1000
0000
0010
0000
,
0100
0001
0100
0000
0010
1000
0000
0001
,
0010
0000
0100
1000
0100
0000
0010
0000
,
0001
0000
0000
1000
0000
0000
0000
0000
0000
0010
0000
0000
0000
0000
0010
0000
0000
0000
0010
0000
0000
0000
0010
0000
,
0000
0000
0010
0000
0000
0000
0100
0000
0000
0001
0000
0000
0100
0000
0000
0000
0000
0000
0010
0000
0000
0000
0000
0000
,
1000
0001
1000
0000
0100
0001
0000
0100
,
1000
0010
0100
0001
,
0010
0100
0000
2000
0000
0000
0010
0000
,
3001
1000
0010
0000
0100
0001
0100
0000
,
0010
1000
0000
0100
0000
0010
0001
0000
,
1000
0010
2000
0000
3001
0010
0001
0000
,
0100
0010
0000
1000
0000
0100
0010
0000
,
0100
1000
0200
0000
0310
0001
0010
0000
,
0001
0100
0000
0010
0000
1000
0001
0000
,
0100
0010
0200
0000
0301
0010
0001
0000
,
1000
0010
1000
0000
0100
0000
0010
0100
,
0000
0000
1001
0000
1000
0100
1000
0000
,
0001
0100
0000
0010
0000
1000
0001
0000
,
0010
0100
0020
0000
0031
0100
0002
0000
,
1003
0010
1000
0001
1000
0001
1000
0100
,
0010
0002
0000
0000
0103
0001
0000
0001
,
0010
0000
0010
0100
0000
0100
1000
0000
,
0001
0100
0002
0000
0013
0100
0010
0000
,
0001
0100
0000
0010
1000
0100
0020
0000
,
0000
0000
0000
0000
,
0000
0030
0000
0000
;

//--------------- dance-single - TonyAkita ----------------
#NOTEDATA:;
#STEPSTYPE:dance-single;
#DESCRIPTION:TonyAkita;
#DIFFICULTY:Hard;
#METER:13;
#RADARVALUES:0.576921,0.923645,0.279893,0.151942,0.179931,505,470,35,19,0,0,0.576921,0.923645,0.279893,0.151942,0.179931,505,470,35,19,0,0;
#NOTES:
0000
0000
0000
0000
,
0000
0000
0000
0000
,
0000
0000
0000
0000
,
0000
0000
0000
0000
,
1000
0000
0020
0000
0001
0000
0130
0010
,
0000
0200
0000
0000
1000
0000
0301
0000
,
0001
0000
0020
0000
1000
0030
0010
0100
,
0110
0000
1000
0100
0010
0000
0001
0000
,
1000
0010
0000
0001
0000
0010
1000
0000
,
0101
0000
0001
0100
0010
0000
1000
0000
,
0001
0010
0000
1000
0000
0010
0001
0000
,
1100
0000
1000
0001
0100
0000
0010
0000
,
0001
0010
0000
1000
0000
0010
0100
0000
,
0101
0000
0001
1000
0100
0000
0010
0000
,
1000
0010
0002
0000
0000
0000
0000
0000
,
0003
0000
0101
0000
0001
0100
0001
0000
,
0001
0100
1000
0100
0001
0010
0000
0100
,
1000
0010
1000
0000
1000
0100
0001
0100
,
0010
0001
0000
1001
0000
0000
0000
0000
,
0000
0000
1100
0000
1000
0100
1000
0000
,
1000
0100
0001
0100
1000
0010
0000
0100
,
0001
0010
0001
0000
0001
0100
1000
0100
,
0001
0020
0000
0000
0030
0000
0100
0010
,
0100
1000
1100
0000
1000
0010
1000
0000
,
1000
0010
0001
0010
1000
0100
0000
0010
,
0001
0100
0001
0000
0001
0010
1000
0010
,
0001
0000
0000
0100
0000
0000
0000
0000
0000
0010
0000
0000
0000
1000
0000
0000
0000
0000
0001
0000
0000
0000
1000
0000
,
0000
0000
0001
0000
0000
0000
0101
0000
0000
0000
0000
0000
0001
0000
0000
0010
0000
0000
0001
0000
0000
0000
0000
0000
,
0001
0010
1000
0010
0001
0100
0000
0010
,
1000
0100
1000
0000
1000
0010
0001
0010
,
1000
0020
0000
0000
0000
0000
0000
0000
,
0030
0000
0000
0000
0100
0000
0001
0010
0000
0001
0100
0000
0000
0000
0011
0000
,
0000
0000
0000
0000
0100
0000
1000
0010
0000
1000
0100
0000
0000
0000
1010
0000
,
0000
0000
0000
0000
0001
0000
1000
0100
0000
1000
0001
0000
0000
0000
0101
0000
,
0000
0000
0000
0000
1000
0000
0001
0100
0000
0001
1000
0000
0000
0000
0101
0000
,
0000
0001
0000
0000
0100
0000
0001
0100
0001
0000
0001
0100
1000
0100
0001
0010
,
0000
0100
1000
0001
0100
0000
1000
0100
0001
0100
0010
1000
0000
0020
0000
0000
,
0000
0000
0030
0000
0010
0000
1000
0100
1000
0000
1000
0100
0001
0100
1000
0010
,
0000
0100
0001
1000
0100
0000
0001
0100
1000
0100
0010
0002
0000
0000
0000
0000
,
0003
2000
0000
0000
,
0000
0000
0000
0000
,
0000
3002
0000
0000
,
0000
0000
0000
0000
,
0000
0023
0000
0000
,
0000
0000
0000
0000
,
0000
0000
0000
0000
,
0030
0000
1100
1000
0001
0000
0000
0001
,
0000
0000
0101
0000
0000
0110
0000
0000
,
0101
0000
0000
1100
0000
0000
1001
0000
,
0000
0000
1100
0000
0000
0110
0000
0000
,
1100
0000
0000
0101
0000
0000
1000
0001
,
0000
0000
0000
0001
0100
0001
1000
0001
,
0010
0100
1000
0100
0010
0100
0001
0100
,
0010
0100
1000
0100
0001
0100
1000
0100
,
0010
0002
0000
0000
0000
0000
0000
0000
,
0003
0000
0000
0100
0010
1000
0001
0010
,
0100
1000
0001
0100
1000
0100
0010
0001
,
0010
0000
0000
1000
0000
0000
0001
0000
0000
0000
0000
0000
1000
0000
0010
0000
1000
0000
0010
0000
1000
0000
0000
0000
,
0000
0001
0000
1000
0002
0000
0000
0000
,
0000
0000
0000
0003
0000
0000
0000
1000
0000
0001
0000
0001
,
0000
1000
0000
0010
0000
0010
0000
0100
0000
0001
0000
0001
,
0000
0100
0000
1000
0000
1000
0000
0100
0000
0001
0000
0001
,
0000
0000
1000
0000
0000
0000
2000
0000
0000
0000
0000
0000
0000
0000
0000
0000
0000
0000
3000
0000
0000
0010
0000
0000
,
0100
0010
0100
0001
0100
0010
0100
1000
,
0100
0010
1000
0100
0010
0001
0000
1000
,
0001
0010
0100
0001
0100
0010
0100
1000
,
0100
0020
0000
0000
0000
0000
0030
0000
,
0000
0000
0100
1000
0100
0010
0100
0001
,
0100
0010
0001
0100
0010
1000
0000
0001
,
1000
0010
0100
1000
0100
0010
0100
0001
,
0100
0010
0000
2002
0000
0000
0000
0000
,
3003
0000
1000
0100
1000
0001
1000
0010
,
1000
0001
0010
1000
0010
0100
0000
1000
,
0100
0010
0001
0100
0001
1000
0001
0010
,
0100
2000
0000
0000
0000
0000
0000
0000
,
3000
0000
0001
0100
0001
1000
0001
0010
,
0001
1000
0010
0001
0010
0100
0000
0001
,
0100
0010
1010
0000
0011
0000
1100
0000
,
0001
0100
0000
1000
0100
0001
1000
0100
,
0010
0001
1000
0010
0100
0000
0001
0000
,
1000
0100
0000
0001
0000
0100
1000
0000
,
0011
0000
0001
0010
0100
0000
1000
0000
,
0001
0100
0000
1000
0000
0100
0001
0000
,
1010
0000
0001
1000
0100
0000
0001
0000
,
0100
1000
0000
0100
0000
0010
0100
0000
,
1100
0000
1000
0001
1000
0001
0000
0100
,
0001
0010
0001
0010
0000
1100
0000
1001
,
0000
0000
0001
0100
1000
0000
0100
0000
,
0010
1000
0000
0001
0000
0010
1000
0000
,
0110
0000
1000
0100
0001
0000
0100
0000
,
0010
0001
0000
1000
0000
0010
0001
0000
,
0110
0000
0001
1000
0100
0000
0001
0000
,
0100
0010
0000
1000
0000
0010
0001
0000
,
0011
0000
1000
0001
0100
0000
1000
0000
,
0100
0010
0000
1000
0100
0001
0020
0000
,
0000
0000
0000
0000
,
0000
0030
0000
0000
;
