#TITLE:StarShine;
#SUBTITLE:(I Don't Want This Night To End);
#ARTIST:W&W x AXMO ft. SONJA;
#TITLETRANSLIT:;
#SUBTITLETRANSLIT:;
#ARTISTTRANSLIT:;
#GENRE:;
#CREDIT:;
#BANNER:StarShine (I Don't Want This Night To End).png;
#BACKGROUND:StarShine (I Don't Want This Night To End)-bg.png;
#LYRICSPATH:;
#CDTITLE:;
#MUSIC:StarShine (I Don't Want This Night To End).ogg;
#OFFSET:0.000000;
#SAMPLESTART:72.009033;
#SAMPLELENGTH:12.800003;
#SELECTABLE:YES;
#BPMS:0.000000=150.000000
;
#STOPS:
;
#BGCHANGES:0.000=StarShine (I Don't Want This Night To End).avi=1.000=0=0=0=StretchNoLoop====,
99999=-nosongbg-=1.000=0=0=0 // don't automatically add -songbackground-
;
#KEYSOUNDS:;
#ATTACKS:;

//---------------dance-single - ----------------
#NOTES:
     dance-single:
     :
     Beginner:
     2:
     0.130582,0.212196,0.018655,0.139910,0.000000,98.000000,96.000000,2.000000,15.000000,0.000000,0.000000,0.130582,0.212196,0.018655,0.139910,0.000000,98.000000,96.000000,2.000000,15.000000,0.000000,0.000000:
0000
0000
0000
0000
,
0000
0000
0000
0000
,
0000
0000
0000
0000
,
0000
0000
0000
0000
,
0020
0000
0030
0000
,
0010
0010
0000
0000
,
0100
0000
0100
0000
,
1000
0000
0001
0000
,
0020
0000
0030
0000
,
0010
0010
0000
0000
,
0100
0000
0100
0000
,
0200
0000
0300
0000
,
1000
0000
0000
0000
,
0010
0000
0000
0000
,
0100
0000
0000
0000
,
0001
0000
0000
0000
,
0001
0000
0000
0000
,
0010
0000
0000
0000
,
0100
0000
0000
0000
,
2000
0000
0000
0000
,
3000
0000
0000
0000
,
1000
1000
0000
0000
,
0001
0001
0000
0000
,
0100
0100
0000
0000
,
0010
0000
0010
0000
,
1000
1000
0000
0000
,
0001
0001
0000
0000
,
0010
0010
0000
0000
,
0200
0000
0300
0000
,
1000
0000
0000
0000
,
0010
0000
0000
0000
,
0001
0000
0000
0000
,
0100
0000
0000
0000
,
1000
0000
0000
0000
,
0001
0000
1000
0000
,
0001
0001
0001
0000
,
2002
0000
3003
0000
,
0001
0001
0001
0000
,
1000
0000
0001
0000
,
1000
1000
1000
0000
,
0010
0000
0100
0000
,
0010
0010
0010
0000
,
0100
0000
0010
0000
,
0100
0100
0100
0000
,
0010
0000
0000
0000
,
0000
0001
0001
0000
,
0000
1000
1000
0000
,
0000
0010
0010
0000
,
0100
0000
0100
0000
,
0100
0000
0100
0000
,
0001
0000
0000
0000
,
0100
0000
0100
0000
,
1000
0000
0000
0000
,
0002
0000
0003
0000
,
0010
0000
0010
0000
,
2000
0000
3000
0000
,
0010
0000
0010
0000
,
0002
0000
0003
0000
,
0100
0000
0100
0000
,
2000
0000
3000
0000
,
0100
0000
0000
0000
,
0020
0000
0030
0000
,
0200
0000
0300
0000
,
2000
0000
3000
0000
,
0002
0000
0003
0000
,
1001
0000
0000
0000
;

//---------------dance-single - ----------------
#NOTES:
     dance-single:
     :
     Easy:
     4:
     0.209198,0.242510,0.027982,0.074619,0.000000,157.000000,154.000000,3.000000,8.000000,0.000000,0.000000,0.209198,0.242510,0.027982,0.074619,0.000000,157.000000,154.000000,3.000000,8.000000,0.000000,0.000000:
0000
0000
0000
0000
,
0000
0000
0000
0000
,
0000
0000
0000
0000
,
0000
0000
0000
0000
,
1000
0000
1000
0000
,
0010
0010
0000
0000
,
0001
0000
0001
0000
,
0010
0010
0010
0000
,
1000
0000
1000
0000
,
0001
0001
0000
0000
,
1000
0000
0001
0000
,
2000
0000
3000
0000
,
0100
0100
0010
0000
,
0001
0000
1000
0000
,
0010
0010
0100
0000
,
0001
0000
0010
0000
,
0010
0010
0100
0000
,
1000
0000
0001
0000
,
0100
0100
0010
0000
,
2000
0000
0000
0000
,
3000
0000
0000
0000
,
0001
0100
0000
0000
,
0010
1000
0000
0000
,
0100
1000
0000
0000
,
0010
0001
0010
0000
,
0001
0100
0000
0000
,
0010
1000
0000
0000
,
0100
1000
0000
0000
,
0001
1000
0001
0000
,
1000
1000
1000
0000
,
0010
0010
0010
0000
,
0001
0001
0001
0000
,
0100
0100
0100
0000
,
1000
0000
0000
0000
,
0001
0000
1000
0000
,
0001
0001
0001
0000
,
2002
0000
3003
0000
,
1000
1000
0010
1000
,
0100
1000
1000
0000
,
0001
0001
0010
0001
,
0100
0001
0100
0000
,
0010
0010
0100
0001
,
1000
0001
1000
0000
,
0100
0100
0010
0000
,
0100
0000
1001
0000
,
0000
1000
0010
1000
,
0100
1000
0100
0000
,
0010
0001
0100
0001
,
1000
0001
1000
0000
,
0001
0010
0001
0010
,
0001
0100
0010
0000
,
1000
0010
1000
0010
,
1000
0100
0010
0000
,
0010
0010
0010
0000
,
0001
1000
0001
0000
,
0100
0100
0100
0000
,
0001
1000
0001
0000
,
1000
1000
1000
0000
,
0010
0100
0010
0000
,
0001
0001
0001
0000
,
0010
0010
0010
0000
,
0200
0000
0300
0000
,
2000
0000
3000
0000
,
0020
0000
0030
0000
,
0002
0000
0003
0000
,
1001
0000
0000
0000
;

//---------------dance-single - ----------------
#NOTES:
     dance-single:
     :
     Medium:
     8:
     0.358435,0.485020,0.195874,0.158564,0.000000,269.000000,248.000000,21.000000,17.000000,0.000000,0.000000,0.358435,0.485020,0.195874,0.158564,0.000000,269.000000,248.000000,21.000000,17.000000,0.000000,0.000000:
0000
0000
0000
0000
,
0000
0000
0000
0000
,
0000
0000
0000
0000
,
0000
0000
0000
0000
,
0001
0000
0001
0000
1000
0001
1000
0000
,
0010
0000
0010
0000
0100
0010
0100
0000
,
0001
1000
0100
0100
,
0010
0000
0001
0000
0100
0001
0100
0000
,
0010
0000
0010
0000
1000
0001
1000
0000
,
0100
0000
0100
0000
0010
0001
0010
0000
,
0100
0000
0100
0000
0010
0100
0010
0000
,
2002
0000
3003
1000
,
0100
1000
0110
0000
,
0001
0000
0000
0000
1100
0000
0000
1000
,
0010
1000
0110
0000
,
0001
0000
1010
0000
,
0001
0000
0100
0000
0110
0000
0000
1000
,
0001
0000
0110
0000
,
0010
0100
1001
0000
,
0020
0000
0030
0000
,
0000
0000
0000
0000
,
1000
2000
0000
3000
,
0010
0020
0000
0030
,
0100
0200
0000
0300
,
0001
0000
0001
0000
1000
0001
1000
0000
,
0100
0200
0000
0300
,
0010
0020
0000
0030
,
0001
0002
0000
0003
,
1000
0000
1000
0000
0001
1000
0001
0000
,
1000
0000
0001
0000
0100
0010
1000
0000
,
0002
0013
2000
3010
,
0001
0000
1000
0000
0100
0010
0001
0000
,
2000
0000
3100
0000
0001
1000
0001
0000
,
1001
0000
0000
0000
,
0110
0000
1001
0000
,
0110
0010
0010
0000
,
1000
1000
1000
0110
,
0001
0000
0001
0000
0010
0001
0100
0010
,
1000
0000
1000
0000
0001
0100
0001
1000
,
0001
0000
0001
0000
1000
0100
0010
0001
,
0100
0000
0100
0000
0010
1000
0100
0000
,
1000
0000
1000
0000
0001
1000
0100
1000
,
0001
0000
0001
0000
0010
0100
1000
0010
,
0100
0000
0100
0000
0001
1000
0001
0010
,
0100
0000
0000
0010
0100
0010
0100
0000
,
0000
0000
1001
0000
0001
1000
0100
0010
,
0001
0000
1001
0000
1000
0100
1000
0001
,
1000
0000
1001
0000
0001
0100
0010
1000
,
0100
0000
0110
0000
0010
0001
0100
0000
,
0001
0000
0101
0000
0100
0001
1000
0001
,
0100
0000
0110
0000
0010
0100
0001
0010
,
0100
0000
1100
0000
1000
0001
1000
0000
,
0010
0100
0010
0100
0010
0000
0000
0000
,
1000
0000
1000
0000
0100
0010
0001
0000
,
2000
3010
0002
0013
,
0001
0000
0001
0000
0100
0010
1000
0000
,
0002
0103
2000
3100
,
1000
0000
1000
0000
0010
0100
0001
0000
,
2000
0100
0100
3100
,
0001
0000
0001
0000
1000
0010
0100
0000
,
0001
1000
0001
1000
0001
0000
0000
0000
,
0100
0000
0000
0001
0000
0000
0010
0000
,
0010
0000
0000
0100
0000
0000
1000
0000
,
1000
0000
0000
0010
0000
0000
0100
0000
,
0100
0000
0000
0001
0000
0000
1000
0000
,
1001
0000
0000
0000
;

//---------------dance-single - ----------------
#NOTES:
     dance-single:
     :
     Hard:
     12:
     0.475693,0.575962,0.363765,0.401075,0.027982,357.000000,318.000000,39.000000,43.000000,0.000000,0.000000,0.475693,0.575962,0.363765,0.401075,0.027982,357.000000,318.000000,39.000000,43.000000,0.000000,0.000000:
// measure 0
0000
0000
0000
0000
,  // measure 1
0000
0000
0000
0000
,  // measure 2
0000
0000
0000
0000
,  // measure 3
0000
0000
0000
0000
,  // measure 4
1000
0000
0100
0000
1000
0001
0100
0001
,  // measure 5
0020
0000
0230
0000
1300
0001
1000
0001
,  // measure 6
0200
0000
0320
0000
1030
0100
0010
0000
,  // measure 7
0001
0000
0001
0000
1000
0010
1000
0000
,  // measure 8
0001
0000
0100
0000
0010
1000
0100
1000
,  // measure 9
0020
0000
0230
0000
0310
1000
0100
1000
,  // measure 10
0002
0000
2003
0000
3100
0010
0001
0010
,  // measure 11
0200
0000
0000
0000
0000
0300
0100
1000
,  // measure 12
0001
0000
0000
1000
1010
0000
0000
0000
,  // measure 13
0001
0000
0000
1000
1100
0100
0000
0100
,  // measure 14
0010
0100
1001
0000
,  // measure 15
0100
0000
0000
0100
0110
0000
0000
0000
,  // measure 16
1000
0000
0000
0100
1100
1000
0000
0001
,  // measure 17
0010
0000
0000
0010
0011
0000
0000
0000
,  // measure 18
0100
0000
0000
0100
0110
0000
0000
0000
,  // measure 19
0020
0100
0100
0130
,  // measure 20
0000
0000
0000
0000
,  // measure 21
1100
0202
0000
0303
,  // measure 22
1010
0022
0000
0033
,  // measure 23
0110
0000
2002
0000
0000
0000
3003
0001
,  // measure 24
0101
0000
0110
0000
1000
0001
1000
0000
,  // measure 25
0011
2200
0000
3300
,  // measure 26
1010
0202
0000
0303
,  // measure 27
0110
0000
2002
0000
0000
0000
3003
1000
,  // measure 28
1010
0000
0110
0000
0002
1000
1003
0000
,  // measure 29
0001
0000
0001
0000
0001
0010
0100
0010
,  // measure 30
0001
0000
0200
0000
0010
0000
0310
1000
,  // measure 31
0002
0013
2000
3010
,  // measure 32
0200
0010
0010
0310
,  // measure 33
0001
0010
0001
0010
0100
0010
0100
0010
,  // measure 34
0001
0100
0001
0100
0010
1000
0010
1000
,  // measure 35
0001
0001
0001
0110
,  // measure 36
1000
0000
0001
0000
1000
0000
0001
0100
0001
0000
0100
0000
0110
0000
0000
0000
,  // measure 37
1001
0000
0110
0000
1000
0100
0001
0100
,  // measure 38
0110
0000
1001
0000
0001
0100
1000
0100
,  // measure 39
0110
0000
1001
0000
1000
0010
0001
0010
,  // measure 40
0100
0000
0100
0000
0010
1000
0100
0000
,  // measure 41
1100
0000
0101
0000
0001
0010
1000
0010
,  // measure 42
0110
0000
1001
0000
1000
0010
0001
0010
,  // measure 43
0110
0000
0101
0000
1000
0100
0010
0000
,  // measure 44
0220
0000
0000
0000
0330
0000
1000
0100
1000
0000
1000
0000
1000
0000
1000
0000
,  // measure 45
0000
0000
0001
0100
0010
1000
0010
0001
,  // measure 46
0010
0000
1000
0000
0001
0000
0010
0001
0010
0000
0100
0000
1000
0000
0010
0000
,  // measure 47
1000
0001
1000
0100
0001
0100
1000
0001
,  // measure 48
0100
0000
0010
0000
0100
0000
0001
0000
1000
0000
0100
1000
0100
0000
0010
0000
,  // measure 49
0001
1000
0001
0100
0010
1000
0100
0010
,  // measure 50
0001
0010
1000
0010
0100
1000
0010
1000
,  // measure 51
0100
0001
0100
1000
0001
0100
0010
1000
,  // measure 52
0001
0000
0000
0000
1000
0000
0001
0100
0001
0000
0001
0000
1001
0000
0000
0000
,  // measure 53
1000
0000
1000
0010
0100
0010
1000
0000
,  // measure 54
0200
0000
0010
0000
0310
0001
1000
0000
,  // measure 55
2000
0000
3010
0000
1000
0002
0010
0000
,  // measure 56
0203
0000
0310
0000
0100
0100
0100
0000
,  // measure 57
0001
0000
0001
0010
0100
0010
0001
2000
,  // measure 58
0010
0000
3100
0000
0001
0100
1000
0000
,  // measure 59
0200
0000
0310
0000
1000
0001
1000
0000
,  // measure 60
0100
0000
1000
0000
0100
0000
0010
0001
1000
0000
0001
0000
1000
0000
0001
0000
,  // measure 61
0020
0000
0000
0032
0000
1003
0010
0000
,  // measure 62
0200
0000
0000
0302
0000
1003
0100
0000
,  // measure 63
0020
0000
0000
0230
0000
0310
0001
0000
,  // measure 64
0020
0000
0000
0230
0000
1300
0001
0100
,  // measure 65
0010
0000
0000
0000
;
