#TITLE:Srivijaya;
#SUBTITLE:;
#ARTIST:SM-MEGAtive;
#TITLETRANSLIT:;
#SUBTITLETRANSLIT:;
#ARTISTTRANSLIT:;
#GENRE:;
#CREDIT:;
#MUSIC:Srivijaya.ogg;
#BANNER:Srivijaya.png;
#BACKGROUND:Srivijaya-bg.png;
#CDTITLE:cdtitle.png;
#SAMPLESTART:85.049;
#SAMPLELENGTH:9.320;
#SELECTABLE:YES;
#OFFSET:0.000;
#BPMS:0.000=206.000;
#STOPS:;
#ORIGIN:;
#TAGS:;
#PREVIEWVID:;
#JACKET:Srivijaya-jacket.png;
#CDIMAGE:;
#DISCIMAGE:;
#BGCHANGES:;
#FGCHANGES:;

//--------------- dance-single - forcednature ----------------
#NOTES:
     dance-single:
     forcednature:
     Beginner:
     5:
     0,0,0,0,0:
0000
0000
0000
0000
,
0000
0000
0000
0000
,
0000
0000
0000
0000
,
0000
0000
0000
0000
,
1000
0000
0000
0000
,
0000
0000
0000
0000
,
0001
0000
0000
0000
,
0000
0000
0000
0000
,
0110
0000
0000
0000
,
1000
0000
0000
0000
,
0001
0000
0000
0000
,
1000
0000
0000
0000
,
0100
0000
0100
0000
,
0010
0000
0010
0000
,
0001
0000
1000
0000
,
0010
0010
0100
0100
,
1001
0000
0000
0000
,
0110
0000
0000
0000
,
1001
0000
0000
0000
,
0110
0000
0000
0000
,
1000
0000
1000
0000
,
0001
0000
0001
0000
,
0100
0000
0000
0100
,
0010
0000
0010
0000
,
2002
0000
0000
0000
,
0000
0000
0000
0000
,
0000
0000
0000
0000
,
0000
0000
3003
0000
,
0200
0000
0000
0000
,
0000
0000
0300
0000
,
0010
0000
0010
0000
,
0010
0010
0010
0010
,
1001
0000
0010
0000
,
0000
0000
0010
0000
,
1000
0000
0100
0000
,
0010
0001
0010
0001
,
0100
0000
0010
0000
,
0000
0000
0010
0000
,
0100
0000
0010
0000
,
1000
1000
0001
0000
,
0100
0010
0000
0010
,
0000
1000
0000
1000
,
0000
0001
0000
0001
,
0010
0100
0010
0100
,
1000
0001
0000
0001
,
0000
0100
0000
0000
,
2002
0000
0000
0000
,
0000
0000
3003
0000
,
1000
0000
1000
0000
,
0000
0000
1000
0000
,
0001
0000
0001
0000
,
0000
0000
0001
0000
,
0100
0000
0010
0000
,
0100
0000
0010
0000
,
1000
0001
1000
0001
,
0020
0000
0030
0000
,
2002
0000
0000
0000
,
0000
0000
0000
0000
,
0000
0000
0000
0000
,
0000
0000
3003
0000
,
0200
0000
0000
0000
,
0000
0000
0300
0000
,
0020
0000
0000
0000
,
0000
0000
0030
0000
,
2000
0000
0000
3000
,
0200
0000
0000
0300
,
0020
0000
0000
0030
,
0002
0000
0000
0003
,
0200
0000
0000
0300
,
0020
0000
0000
0030
,
2000
0000
0000
0000
,
0000
0000
3000
0000
,
1001
0000
0000
0000
,
0110
0001
0000
0001
,
0000
1000
0000
1000
,
0000
0010
0000
0010
,
0000
0100
0000
0100
,
0000
0001
0000
0010
,
0000
0100
0000
1000
,
0000
0001
0000
0100
,
0000
0010
0000
1000
,
0001
1000
0000
0010
,
0100
0001
0000
1000
,
0001
1000
0000
0100
,
0010
0001
0000
1000
,
0010
0010
0010
0000
,
0100
0100
0100
0000
,
0001
1000
0001
1000
,
0200
0000
0000
0300
,
0010
0000
0000
0010
,
0001
0000
0000
0001
,
1000
0000
0000
1000
,
0010
0000
0000
0010
,
0100
0000
0001
0000
,
0100
0000
1000
0000
,
0100
0000
0000
0100
,
0010
0000
0000
0010
,
0200
0000
0000
0000
,
0000
0000
0000
0000
,
0300
0000
0000
0000
;

//--------------- dance-single - forcednature ----------------
#NOTES:
     dance-single:
     forcednature:
     Easy:
     9:
     0,0,0,0,0:
0000
0000
0000
0000
,
0000
0000
0000
0000
,
0000
0000
0000
0000
,
0000
0000
0000
0000
,
0001
0000
0000
0010
0000
0000
0100
0000
,
0000
1000
0000
0000
0000
0000
0000
0000
,
0001
0000
0000
0100
0000
0000
0010
0000
,
1000
0000
0002
0003
,
1001
0000
0000
1000
0000
0000
0100
0000
,
1000
0000
0000
0001
0000
0000
0100
0000
,
0001
0000
0000
1000
0000
0000
0010
0000
,
1000
0000
0000
0001
0000
0000
0010
0000
,
0100
0100
1000
1000
,
0001
0000
0001
0000
0100
0010
0100
0000
,
0001
0001
1000
1000
,
0001
0100
0001
0000
1000
0100
1000
0000
,
0010
0000
0100
0010
0000
0000
1000
0000
,
0001
0000
1000
0001
0000
0000
0010
0000
,
0100
0000
0010
0100
0000
0000
1000
0000
,
0001
0000
1000
0001
1000
0000
0100
0000
,
1001
1000
0010
0100
,
1001
0001
0010
0100
,
1000
0000
0000
0001
0000
0000
1000
0000
0000
0001
0000
0000
1000
0000
0000
0000
,
0010
0000
0000
0100
0000
0000
0010
0000
0100
0000
0000
0000
0010
0000
0000
0000
,
2001
0000
0000
0000
,
0000
0000
0000
0000
,
3200
0000
0000
0000
,
0000
0000
0000
0000
,
0320
0000
0000
0000
,
0000
0000
0000
0000
,
0031
0001
0001
0001
,
1000
0100
1000
0000
0020
0000
0000
0000
,
0130
0000
0101
0000
,
0010
0010
1001
0000
,
0100
0000
1010
0000
,
0001
0101
1000
1100
,
0010
0000
0110
0000
,
0001
0000
1001
0000
,
1000
0000
0110
0000
,
0001
0100
0001
0000
2000
0000
3010
0000
,
0110
0001
0000
0001
,
0000
0001
0010
0001
,
1000
1000
0000
1000
,
0001
0011
1000
1010
,
0001
0100
0000
0100
,
0000
0100
0010
0100
,
1002
0000
0100
0000
,
0010
0010
0013
0000
,
0001
0000
1000
0000
0001
0100
0000
0010
,
0000
0100
0000
0010
1000
0000
0001
0000
,
1000
0000
0001
0000
1000
0100
0000
0010
,
0000
0100
0000
0010
0001
0000
1000
0000
,
0001
0000
0000
1000
0000
1000
0001
0000
,
0100
0000
0000
0010
0000
0010
0100
0000
,
0001
0010
0100
1000
,
0020
0000
0000
0130
,
1002
0000
0000
0000
,
0203
0000
0000
0000
,
0320
0000
0000
0000
,
2030
0000
0000
0000
,
3200
0000
0000
0000
,
0320
0000
0000
0000
,
0032
0000
0000
0000
,
0203
0000
0000
0000
,
0310
0000
0000
0010
0000
0000
0010
0000
,
1000
0000
0000
1000
0000
0000
1000
0000
,
0001
0000
0000
0010
0000
0000
0100
0000
,
1000
0000
0000
0010
0000
0000
0100
0000
,
0001
0000
0000
0001
0000
0000
0001
0000
,
1000
0000
0000
1000
0000
0000
1000
0000
,
0100
0000
0000
1000
0000
0000
0001
0000
,
0100
0000
0000
0001
0000
0000
1000
0000
,
2002
0000
0000
3003
,
1000
0000
0100
0000
0010
0001
0010
0000
,
0001
0000
0100
0000
0010
1000
0010
0000
,
1000
0000
0001
0000
0010
0100
0010
0000
,
0001
0000
1000
0000
0010
0100
0010
0000
,
1000
0000
0010
0000
0100
0001
0100
0000
,
0001
0000
0010
0000
0100
1000
0100
0000
,
1000
0000
0001
0000
0100
0010
0100
0000
,
0001
0000
1000
0000
0100
0010
0100
0000
,
1001
0001
1001
0001
,
1000
0000
0100
0010
0001
0000
0100
0000
,
1001
1000
1001
1000
,
0001
0000
0100
0010
1000
0000
0100
0000
,
1001
1000
1001
0001
,
0110
0100
0110
0010
,
1000
0100
1000
0000
0001
0100
0001
0000
,
2002
0000
0000
3003
,
0001
0000
0001
0100
0000
0000
0001
0000
,
1000
0000
1000
0100
0000
0000
1000
0000
,
0001
0000
0001
0010
0000
0000
0001
0000
,
1000
0000
1000
0010
0000
0000
1000
0000
,
1100
1000
0100
0010
,
0101
0001
0100
0010
,
1000
0000
0000
0001
0000
0000
1000
0000
0000
0001
0000
0000
1000
0000
0000
0000
,
0010
0000
0000
0100
0000
0000
0010
0000
0100
0000
0000
0000
0010
0000
0000
0000
,
2002
0000
0000
0000
,
0000
0000
0000
0000
,
3003
0000
0000
0000
;

//--------------- dance-single - MEGAtive ----------------
#NOTES:
     dance-single:
     MEGAtive:
     Medium:
     12:
     0.489028,0.568891,0.049255,0.673146,0.024627,417,411,6,82,0,0,0,0,0,0.489028,0.568891,0.049255,0.673146,0.024627,417,411,6,82,0,0,0,0,0:
0000
0000
0000
0000
,
0000
0000
0000
0000
,
0000
0000
0000
0000
,
0000
0000
0000
0000
,
0001
0000
0000
0100
0000
0000
0010
0000
,
0000
1000
0000
0000
0000
0000
0000
0000
,
1000
0000
0000
0100
0000
0000
0010
0000
,
0010
0000
0002
0000
,
2003
0000
0000
3020
0000
0000
1030
0000
,
0002
0000
0000
0023
0000
0000
0031
0000
,
2000
0000
0000
3200
0000
0000
1300
0000
,
0002
0000
0000
0203
0000
0000
0320
0000
,
1030
0001
1000
0001
,
0010
0000
0100
0000
0010
0001
1000
0000
,
0010
0100
0001
0000
1000
0100
0010
0000
,
0001
1000
0010
0000
0100
0001
1000
0000
,
0002
0000
0013
0020
0000
0000
0031
0000
,
0200
0000
0310
0020
0000
0000
1030
0001
,
2000
0000
3100
0200
0000
0000
0310
0001
,
0200
0000
0310
1000
0000
0001
0010
0000
,
0100
0000
0010
0000
0001
1000
0001
0000
,
0100
0000
0010
0000
1000
0001
0010
0000
,
0100
0000
0000
0100
0000
0000
0100
0000
0000
1000
0000
0000
0001
0000
0000
0000
,
0100
0000
0000
0100
0000
0000
0010
0000
1000
0000
0001
0000
1000
0000
0000
0000
,
0002
0000
0000
0100
0000
0000
0000
0000
,
0000
0000
0000
0000
,
2003
0000
0000
0100
0000
0000
0000
0000
,
0000
0000
0000
0000
,
3001
0010
0001
0010
,
0100
1000
0100
1000
,
0001
0100
0010
1000
,
0100
0000
0100
0000
0010
0001
0100
0001
,
2000
0000
3010
0100
0002
0000
0100
0000
,
1003
0100
0010
0001
0100
0010
0200
0000
,
0302
0000
0013
0100
2000
0000
0100
0000
,
3002
0203
0320
2030
,
3002
0000
0013
0100
2000
0000
0010
0000
,
3001
0100
0010
1000
0100
0010
0200
0000
,
2300
0000
3010
0100
0002
0000
0100
0000
,
1003
0100
0020
0000
0130
1000
0001
1000
,
0020
0000
0130
0001
1000
0001
0020
0000
,
0130
1000
0001
0100
0000
0100
0010
0000
,
0200
0000
0310
1000
0001
1000
0100
0010
,
0002
0203
0320
2030
,
3200
0000
0310
0001
1000
0001
0200
0000
,
0310
1000
0001
0010
0100
0010
0002
0000
,
1003
0000
0010
0100
0010
0000
1000
0001
,
1000
1000
0001
0001
,
1200
0000
1000
0000
0310
0002
0000
0100
,
0000
0100
0000
0103
0020
0000
0100
0000
,
2030
0000
0010
0000
3001
0020
0000
0100
,
0000
0100
0000
0031
2000
0000
3010
0000
,
0100
0001
0010
0001
1000
0000
0001
0000
,
0100
0010
1000
0010
0100
0000
0001
0000
,
1000
0100
0010
0000
0001
0100
0010
0000
,
2000
0000
0000
3010
,
1002
0000
0000
0000
,
0023
0000
0000
0000
,
0230
0000
0000
2300
0000
3020
0000
0000
,
0230
0000
0000
0000
,
0301
1000
0001
1000
,
0100
0010
0100
0010
,
0001
0100
0010
1000
,
0100
0010
0001
1000
,
0002
0000
0003
0200
0000
0300
0010
1000
,
0200
0000
0300
0020
0000
0030
0100
1000
,
0002
0000
0003
0100
0000
0200
0000
0000
,
0320
0000
0030
2000
0000
3000
0100
0010
,
0002
0000
0003
0200
0000
0300
0010
1000
,
0002
0000
0003
0020
0000
0030
0100
0010
,
0002
0000
0003
1000
0000
2000
0000
0000
,
3020
0000
0030
0200
0000
0000
0300
0000
,
1001
0000
0001
0001
,
1001
0000
1000
0100
0010
0000
0100
1000
,
0001
0000
0100
0010
0100
0000
0010
1000
,
0001
0000
0010
0100
0010
0000
0001
1000
,
0010
0000
0100
0001
0010
0000
0100
1000
,
0001
0000
0100
0010
0100
0000
0010
1000
,
0100
0000
0010
0001
0100
0000
0010
1000
,
0001
0000
0010
0001
0100
0000
0010
1000
,
0100
0000
0010
0100
1000
0000
0001
0000
,
0101
0000
0100
0000
0010
0000
1000
0100
,
0010
0000
0100
0000
1000
0000
0001
0100
,
0010
0000
0100
0000
0001
0000
1000
0100
,
0010
0000
0001
0000
1000
0000
0010
0100
,
0001
0000
1000
0100
0010
0000
0001
0100
,
0010
0000
1000
0001
0010
0000
0100
1000
,
0001
0000
0100
0010
0100
0000
0001
1000
,
0002
0000
0000
1003
,
0001
0000
0100
0200
0000
0000
0310
0000
,
2000
0000
3001
0002
0000
0000
0013
0100
,
2000
0000
3100
0200
0000
0000
0310
0000
,
0002
0000
0103
0010
0000
1000
0001
0000
,
1000
0100
0001
0100
,
1000
0010
0001
0010
,
0100
0000
0000
0100
0000
0000
0100
0000
0000
0001
0000
0000
0001
0000
0000
0000
,
1000
0000
0000
1000
0000
0000
1000
0000
0001
0000
1000
0000
0100
0000
0000
0000
,
2200
0000
0000
0000
,
0000
0000
0000
0000
,
3300
0000
0000
0000
;

//--------------- dance-single - MEGAtive ----------------
#NOTES:
     dance-single:
     MEGAtive:
     Hard:
     15:
     0.636792,0.772066,0.205228,0.533592,0.041046,543,518,25,65,0,0,0,0,0,0.636792,0.772066,0.205228,0.533592,0.041046,543,518,25,65,0,0,0,0,0:
0000
0000
0000
0000
,
0000
0000
0000
0000
,
0000
0000
0000
0000
,
0000
0000
0000
0000
,
1000
0000
0001
0010
0000
0010
0001
0000
,
0100
0010
0000
0000
0000
0000
0000
0000
,
0010
0000
1000
0001
0000
0010
0100
0000
,
1000
0000
2001
0000
,
3001
0100
1000
0100
,
0001
0100
1000
0100
,
0001
0010
1000
0010
,
0001
0010
1000
0010
,
0001
1000
0010
0000
0100
0001
0010
0000
,
0100
1000
0010
0000
0100
0100
0001
1000
,
0001
0010
0100
1000
0010
0100
0001
0010
,
0001
1000
0100
0001
1000
0010
0001
0001
,
2000
0000
0010
0020
0000
3030
0010
0100
,
0102
0000
0100
0200
0000
0303
0001
0001
,
2001
0000
0100
0200
0000
3300
1000
0001
,
0011
0000
1000
1010
0000
0000
0101
0000
,
0001
0100
0010
0100
0001
1000
0100
0010
,
0001
1000
0100
1000
0001
0100
0010
1000
,
0002
0000
0000
0203
0000
0000
2300
0000
0000
3002
0000
0000
0013
0000
0000
0000
,
0200
0000
0000
0302
0000
0000
1003
0000
0100
0000
0010
0000
0100
0000
0000
0000
,
2001
0000
0000
0010
0000
0000
0000
0000
,
0000
0000
0000
0000
,
3002
0000
0000
0010
0000
0000
0000
0000
,
0000
0000
0000
0000
,
1003
0100
1000
0100
,
0010
0001
0100
0010
,
1000
1000
0001
0001
,
0010
0100
0010
0001
1000
0010
1000
0000
,
1020
0000
0100
0100
2030
0000
0001
0000
,
3001
0010
1000
0010
0001
0100
0200
0000
,
0302
0000
0010
0010
2003
0000
3020
0000
,
0130
0101
1001
1200
,
0320
0000
0100
0100
0032
0000
1000
0000
,
0103
0010
0100
1000
0001
0010
0200
0000
,
0302
0000
0100
0100
2003
0000
3200
0000
,
0310
0000
0010
0000
0100
0000
0000
0000
1000
0001
1000
0000
0010
0000
1000
0001
,
2000
0000
3100
0010
0100
1000
0001
1000
,
0100
0010
0100
0010
0001
0100
0200
0000
,
0302
0000
0103
0010
0100
0001
1000
0001
,
0010
0011
1001
1010
,
2000
0000
3010
0100
0010
1000
0001
1000
,
0010
0100
0010
0100
0001
0010
0020
0000
,
0230
0000
1300
0001
1000
0000
0010
0100
,
0020
0030
2000
3000
0001
0000
0011
0000
,
1200
0000
0001
0000
0010
0320
0000
0001
,
0000
0230
0000
1300
2000
0000
0001
0000
,
3020
0000
0001
0000
0100
0230
0000
0001
,
0000
0320
0000
1030
2000
0000
0001
0000
,
3100
0000
0010
0000
0001
0000
0100
0000
0010
0000
1000
0000
0100
0010
0100
0000
,
1000
0000
0001
0000
0100
0000
0010
0000
0100
0000
0001
0000
0010
0100
0010
0000
,
0001
0100
0010
1000
0100
0010
0001
0100
,
0020
0000
0000
0130
,
1002
0000
0000
0010
0000
0000
0000
0000
,
2003
0000
0000
0100
0000
0000
0000
0000
,
3002
0000
0000
0010
0000
0010
0000
0000
,
2003
0000
0000
0100
0000
0000
0000
0000
,
3001
0010
0001
0010
,
0100
1000
0100
1000
,
0001
0100
0010
1000
,
0001
0010
0100
1000
,
0001
0010
0001
1000
0010
1000
0001
0001
,
1000
0100
1000
0001
0100
0001
1000
1000
,
0001
0010
0100
1000
0010
0100
0010
0100
,
0001
0010
0100
1000
0001
0100
0010
0100
,
0001
0010
0001
1000
0010
0100
0010
0010
,
1000
0010
1000
0001
0010
0100
0010
0010
,
0001
1000
0100
1000
0010
0100
0001
1000
,
0100
0010
0100
1000
0001
0100
0010
1000
,
0001
0000
0001
0100
,
0101
0000
0100
0010
1000
0100
0001
0100
,
0010
0000
0001
0010
0001
0100
1000
0100
,
0010
0000
0100
0001
1000
0100
0001
0100
,
0010
0000
0001
1000
0010
0100
0001
0001
,
1000
0000
0100
0010
0001
0100
1000
0100
,
0010
0000
1000
0010
1000
0100
0001
0100
,
0010
0000
0100
1000
0001
0100
1000
0100
,
0010
0000
1000
0001
0010
0100
1000
1000
,
0001
0000
0100
0100
0010
0001
0010
0100
,
0010
0000
1000
1000
0100
0010
1000
0010
,
0100
0000
0010
0010
0100
0001
0100
0010
,
0001
0000
0100
0100
0010
1000
0001
0010
,
0001
1000
0100
0001
0100
1000
0100
1000
,
0001
0100
0010
0001
0010
0100
0010
0100
,
0001
1000
0100
0001
1000
0010
0001
0100
,
0200
0000
0000
0301
,
2010
0000
0001
0002
0000
3003
1000
1000
,
1200
0000
0010
0020
0000
0330
0100
1000
,
1002
0000
1000
2000
0000
3003
0001
0000
,
0102
0000
0103
0110
0000
0000
1001
0000
,
1000
0100
1000
0100
0010
0001
0010
0001
,
0100
0010
0100
0001
1000
0010
0100
0001
,
2000
0000
0000
3200
0000
0000
0302
0000
0000
2003
0000
0000
3010
0000
0000
0000
,
0200
0000
0000
2300
0000
0000
3001
0000
0100
0000
0010
0000
0100
0000
0000
0000
,
2002
0000
0000
0000
,
0000
0000
0000
0000
,
3003
0000
0000
0000
;

//--------------- dance-single - MEGAtive ----------------
#NOTES:
     dance-single:
     MEGAtive:
     Challenge:
     18:
     0.847883,1.219052,0.566428,0.426873,0.357096,723,654,69,52,0,0,0,0,0,0.847883,1.219052,0.566428,0.426873,0.357096,723,654,69,52,0,0,0,0,0:
0000
0000
0000
0000
,
0000
0000
0000
0000
,
0000
0000
0000
0000
,
0000
0000
0000
0000
,
1000
0100
1000
0001
0010
0100
1000
0010
,
0100
1000
0000
0000
0000
0000
0000
0000
,
1000
0100
0010
0100
0001
1000
0100
0010
,
0001
0000
1002
0000
,
1003
0000
0010
0100
0010
0100
0001
0000
,
1000
0000
0100
0010
0100
1000
0001
0001
,
0100
0000
0010
0100
0010
0100
0001
0000
,
1000
0000
0001
0010
0001
1000
0100
0100
,
1000
0001
0100
0010
0100
0001
0010
0000
,
0010
0001
0100
0010
1000
1000
0010
0000
,
0100
0001
1000
0001
0010
0100
1000
0001
,
0100
0010
0100
0001
1000
0100
0010
0001
0100
0010
1000
0100
0010
0100
1000
0000
,
2100
0000
0000
0000
3001
0000
0101
0000
0000
0000
0000
0000
0100
0001
0010
0000
,
0011
0000
0000
0000
0001
1000
0010
0000
0000
0000
0000
0000
0110
0000
0010
0000
,
1002
0000
0000
0000
0013
0000
0011
0000
0000
0000
0000
0000
1000
0100
1000
0100
,
0010
0000
0000
0000
0100
1000
0010
0000
0100
0001
0100
0001
0010
0000
0000
0000
,
0001
0010
0001
0100
1000
0100
0010
0100
,
0001
1000
0001
0010
1000
0010
0100
0010
,
0001
0000
0000
0011
0000
0000
1100
0000
0000
1001
0000
0000
0110
0000
0000
0000
,
0110
0000
0000
1001
0000
0000
0001
0000
0001
0000
1000
0000
0100
0010
0100
0010
,
0002
0000
0000
0203
0000
0000
0000
0000
,
0000
0000
0000
0000
0000
0000
0310
1000
,
0001
1000
0100
0020
0000
0100
0000
0032
,
0000
0103
0020
0000
1030
0200
0000
0310
,
0100
1000
0001
1000
0010
0100
0010
1000
,
0001
0010
0100
0010
0001
1000
0010
0100
,
0001
0010
0100
0010
1000
0010
0100
0010
,
0001
0000
0001
0000
1000
0000
1000
0000
0010
0100
0010
0100
0010
0100
0010
0100
,
0002
0000
0103
0010
0002
0000
0023
0000
,
0130
0000
0001
1000
0001
0000
0020
0000
0000
0000
0100
0000
0130
0000
1000
0000
,
2100
0000
3100
0010
2000
0000
3020
0000
,
0031
0000
1000
0100
0010
0000
0100
0000
1100
0000
0000
0000
1001
0000
0000
0000
,
2010
0000
3010
0100
2000
0000
3200
0000
,
0310
0000
1000
0001
1000
0000
0100
0000
0020
0000
0100
0000
0130
0000
0010
0000
,
0012
0000
0013
0100
0002
0000
0103
0010
,
0011
0000
0001
0000
1001
0000
0000
0000
1000
0100
0010
0000
0001
0000
0100
0010
,
0200
0000
0301
0001
0010
1000
0010
0001
,
0100
0000
0010
0100
0010
0000
0001
0000
0010
0000
0100
0000
0100
0000
0001
0000
,
0002
0000
1003
1000
0010
0001
0010
0100
,
0002
0010
2003
0000
3020
0100
2030
0000
,
3002
0000
1003
1000
0100
0001
0100
1000
,
0010
0000
0100
0010
0100
0000
1000
0000
0100
0000
0010
0000
0010
0000
1000
0000
,
2000
0000
3010
0100
0020
0000
1030
0001
,
0010
0000
0010
0000
0100
0000
0100
1000
0001
0000
0100
0000
0101
0000
0000
0000
,
1010
0000
1010
0000
0001
0011
0000
1100
,
0000
1100
0000
1000
1010
0000
1010
0000
,
0101
0000
0101
0000
1000
1100
0000
0011
,
0000
0011
0000
0001
0101
0000
1001
0000
,
1000
0010
1000
0010
0100
0000
0001
0010
0100
0010
0100
0000
0010
0001
1000
0000
,
0010
0100
0010
0100
0001
0000
0100
0001
1000
0001
1000
0000
0100
0010
0100
0000
,
1000
0010
0100
0001
0010
0100
0010
0001
1000
0010
0100
0010
1000
0001
0010
0100
,
2000
0100
0000
0001
0001
0000
3010
0000
,
0102
0000
0000
0100
0000
0000
0000
0000
,
2003
0000
0000
0100
0000
0000
0000
0000
,
3002
0000
0000
0010
0000
1000
0000
0000
,
0203
0000
0000
0010
0000
0000
0000
0000
,
0302
0100
0100
0100
,
2003
0100
0100
0100
,
3002
0010
1000
0203
,
0320
0100
1000
0230
,
0301
0010
1000
0010
0100
0010
0001
0001
,
1000
0010
0001
0010
0100
0010
1000
1000
,
0100
0010
0100
0001
0100
1000
0001
1000
,
0010
0001
0010
0100
0010
0100
0001
0001
,
1000
0100
0001
0100
0010
0100
1000
1000
,
0001
0100
1000
0100
0010
0100
0001
0001
,
0010
0100
0010
1000
0010
0100
1000
0001
,
0100
0010
0100
0001
2000
0000
0000
0000
,
3100
0000
0000
0000
1000
0100
0010
0001
,
0011
0000
0000
0000
0010
0000
0001
0000
1000
0010
0100
0010
0100
0000
0010
0000
,
1010
0000
0000
0000
1000
0000
0001
0000
0010
0100
0010
0100
1000
0000
0001
0000
,
0011
0000
0000
0000
0010
0000
0001
0000
0100
0010
0100
0010
1000
0000
0001
0000
,
0101
0000
0000
0000
0100
0000
0010
0000
1000
0001
1000
0001
0010
0000
0010
0000
,
0011
0000
0000
0000
0010
0000
0001
0000
0100
0010
0100
0010
1000
0000
0001
0000
,
0101
0000
0000
0000
0100
0000
0001
0000
1000
0100
1000
0100
0010
0000
0001
0000
,
0011
0000
0000
0000
0010
0000
0001
0000
1000
0010
0100
0010
0100
0000
0001
0000
,
0101
0000
0000
0000
0100
0000
0010
0000
0100
0001
0100
0001
0010
0000
0100
0000
,
1100
0000
0101
0001
1001
0000
1100
0100
,
0110
0000
0000
0000
0110
0000
0010
0001
0100
0000
0010
0000
1000
0000
0001
0000
,
0101
0000
1001
1000
1100
0000
0011
0001
,
1001
0000
0000
0000
1010
0000
0010
0000
0110
0000
0100
0000
0001
0000
1000
0001
,
1000
0100
0001
0100
0010
0100
1000
0001
,
1000
0010
0001
0010
0100
0010
1000
0001
,
1000
0100
0010
0001
0100
0010
0100
0001
1000
0100
0010
0100
1000
0001
0100
0010
,
2000
0000
0000
3010
,
2010
0000
0000
0000
3001
0000
0012
0000
0000
0000
0000
0000
1003
0100
0010
0000
,
0012
0000
0000
0000
0103
0010
2000
0000
0000
0000
0000
0000
3010
0000
0010
0000
,
1002
0000
0000
0000
1003
0000
1200
0000
0000
0000
0000
0000
0310
0001
1000
0001
,
0200
0000
0000
0000
0310
1000
0100
0000
0010
0001
0010
0001
0100
0000
0000
0000
,
0010
0100
0010
1000
0001
0010
0100
1000
,
0001
0010
0001
1000
0010
0100
0010
1000
,
0001
0000
0000
1001
0000
0000
1100
0000
0000
1001
0000
0000
0101
0000
0000
0000
,
0101
0000
0000
0110
0000
0000
1010
0000
1000
0000
0001
0000
0010
0100
0010
0100
,
2000
0000
0000
0000
,
0000
0000
0000
0000
,
3000
0000
0000
0000
;
