#TITLE:Second Heaven GravityPfArrange;
#SUBTITLE:;
#ARTIST:cosMo@暴走P;
#TITLETRANSLIT:;
#SUBTITLETRANSLIT:;
#ARTISTTRANSLIT:;
#GENRE:;
#CREDIT:;
#MUSIC:Second Heaven GravityPfArrange.ogg;
#BANNER:Second Heaven GravityPfArrange.png;
#BACKGROUND:Second Heaven GravityPfArrange-bg.png;
#CDTITLE:;
#SAMPLESTART:27.401;
#SAMPLELENGTH:11.497;
#SELECTABLE:YES;
#OFFSET:-1.533;
#BPMS:0.000=167.000;
#STOPS:;
#BGCHANGES:;
#FGCHANGES:;

//--------------- dance-single - eataninja ----------------
#NOTES:
     dance-single:
     eataninja:
     Beginner:
     5:
     0,0,0,0,0:
0000
0000
0000
0000
,
0000
0000
0000
0000
,
0000
0000
0000
0000
,
0000
0000
0000
0000
,
1001
0000
0000
0000
,
0110
0000
0000
0000
,
1001
0000
0000
0000
,
0001
0010
0100
1000
,
0001
0000
0000
0000
,
0000
0000
0000
0000
,
1000
1000
0010
0000
,
0100
0000
0110
0000
,
0001
0001
1000
0000
,
0100
0000
0010
0000
,
0000
0001
0000
1000
,
0000
1000
0010
1000
,
0000
0001
0000
1000
,
1001
0000
0000
0000
,
1000
1000
0100
0000
,
0001
0000
0100
0000
,
1000
1000
0100
0000
,
0010
0000
0001
0000
,
0001
0100
0010
0000
,
0001
0000
0010
0000
,
0100
0100
0001
0000
,
1000
0000
0001
0000
,
0000
0010
0000
0100
,
0000
1000
0001
1000
,
0000
0010
0000
0100
,
0001
0001
1000
0000
,
0000
0100
0000
0010
,
0000
0001
1000
0001
,
0000
0100
0000
0010
,
0110
0000
0000
0000
,
0001
0001
0100
0000
,
1000
0000
0100
0000
,
0001
0001
0100
0000
,
0010
0000
1000
0000
,
1000
0100
0010
0000
,
1000
0000
0010
0000
,
0100
0100
1000
0000
,
0001
0000
1001
1001
,
0000
0010
0000
0100
,
0000
1000
0001
0100
,
0000
0010
0000
0100
,
0001
0001
1000
0000
,
1000
1001
0000
0000
,
0010
0110
0000
0000
,
0001
1000
0001
1000
,
0010
0010
0010
0000
,
2000
0000
0001
0000
,
0100
0000
3001
0000
,
0002
0000
0100
0000
,
1003
0000
0000
0000
,
0002
0000
1000
0000
,
0010
0000
1003
0000
,
2000
0000
0001
0000
,
3010
0000
0000
0000
,
0100
0100
0001
0000
,
1000
0001
1000
0000
,
0100
0000
0010
0000
,
0001
1000
0010
0000
,
0000
2002
0000
0000
,
0000
0000
3003
0000
,
1000
1000
0001
0001
,
1000
0100
0001
0000
,
0110
0000
0000
0000
,
1001
0000
0000
0000
,
0110
0000
0000
0000
,
0001
0100
0010
1000
,
0001
0000
1001
0000
,
0010
0000
0110
0000
,
1000
0000
1001
0000
,
1000
0010
1000
0010
,
0100
0001
0100
0001
,
0000
2002
0000
0000
,
0000
0000
0000
0000
,
0000
0000
0000
0000
,
0000
0000
0000
3003
;

//--------------- dance-single - eataninja ----------------
#NOTES:
     dance-single:
     eataninja:
     Easy:
     9:
     0,0,0,0,0:
0000
0000
0000
0000
,
0000
0000
0000
0000
,
0000
0000
0000
0000
,
0000
0000
0000
0000
,
1000
1000
0000
0000
0000
0000
0000
0000
,
0001
0001
0000
0000
0000
0000
0000
0000
,
0010
0010
0010
0000
0100
0100
1000
0000
,
0020
0032
0203
2300
,
0001
0000
0001
0000
,
0001
0000
3001
0000
,
0100
0010
0110
0100
,
0001
0000
1000
0000
0001
0010
0001
0000
,
0010
0100
0110
0010
,
0001
0000
1000
0000
0010
0100
0100
0000
,
0000
0001
1000
0001
0000
1000
0100
1000
,
0000
0001
0000
0010
0000
0100
0010
0001
,
0000
1000
0010
1000
0000
0001
0100
0001
,
0100
0000
0000
0000
,
0100
0100
1010
0001
,
1000
0000
0100
0000
0010
0001
0100
0000
,
0010
0010
0101
1000
,
0001
0000
0010
0000
0001
0000
0000
0000
1000
0000
0000
2000
0000
0000
0000
0000
,
3010
0100
1001
0001
,
0010
0100
1000
0002
0000
0100
0103
0000
,
0010
0010
0101
1000
,
0001
0000
0010
0000
0001
0000
0000
0000
1000
0000
0000
2000
0000
0000
0000
0000
,
3000
0001
0100
0001
0000
1000
0001
1000
,
0000
0100
0000
0010
0000
0001
1000
0010
,
0000
0100
0001
0100
0000
0010
1000
0010
,
0100
0000
0100
0000
0001
0010
0100
0000
,
0000
1000
0001
1000
0000
0001
0010
0001
,
0000
1000
0000
0010
0000
0100
0001
1000
,
0000
0001
0010
0001
0000
1000
0100
1000
,
0001
0000
0000
0101
,
1000
0000
1000
0000
0001
0010
0100
0000
,
1000
0010
0101
1000
,
0001
0000
0001
0000
0010
0100
1000
0000
,
0001
0000
0100
0000
0001
0000
0000
0000
1000
0000
0000
2000
0000
0000
0000
0000
,
3001
0010
1100
0001
,
1000
0010
0100
0002
0000
1000
1003
0000
,
0100
0000
0100
0000
0010
0001
1000
0000
,
0001
0100
0001
0000
1000
0100
0001
0000
,
0100
0100
0100
0000
0010
0000
0001
0000
,
1000
0010
0001
0010
,
0100
0010
0100
0000
0110
0000
1001
0000
,
0001
0000
0010
0000
1000
0010
0001
0000
,
1000
1000
1000
0000
0010
0000
1001
0000
,
0001
0001
0001
0000
0010
0000
1001
0000
,
1000
0010
0001
0000
,
0010
0010
0100
0000
,
0002
0203
2300
3200
,
0320
1030
1001
1001
,
0002
0023
2030
3020
,
0032
1003
1010
0011
,
2000
3200
0302
0203
,
0320
0031
1001
1001
,
2000
3020
0032
0023
,
0130
0100
0100
0000
0101
0000
1100
0000
,
0001
0000
1000
0000
0100
0010
0001
0000
,
1000
0000
0010
0000
0001
0010
1000
0000
,
0001
1001
1000
1002
,
0023
0230
2300
3001
,
0000
0000
0000
0000
0100
0000
0000
0100
0000
0000
0010
0000
0000
0010
0000
0000
,
1000
0000
0000
1000
0000
0000
0001
0000
0010
0000
0100
0000
1000
0000
0000
0000
,
0001
0100
0001
0000
1000
0100
1000
0000
,
1000
0001
0100
0000
1001
0000
0000
0000
,
0001
0001
0000
0000
0000
0000
0000
0000
,
1000
1000
0000
0000
0000
0000
0000
0000
,
0010
0010
0000
0000
0000
0000
0000
0000
,
0000
0000
0200
0000
0000
0302
0000
0000
0023
0000
0000
0230
0000
0000
1300
0000
,
0001
0001
0000
0000
1000
0001
0100
0000
,
0001
0001
0000
0000
1000
0100
0010
0000
,
0010
0010
0000
0000
0001
1000
0010
0000
,
0002
0023
2030
3200
,
0302
2003
3020
0032
,
0003
0202
0000
0000
,
0000
0000
0000
0000
,
0000
0000
0000
0000
,
0000
0000
0000
0303
;

//--------------- dance-single - eataninja ----------------
#NOTES:
     dance-single:
     eataninja:
     Medium:
     13:
     0,0,0,0,0:
0000
0000
0000
0000
,
0000
0000
0000
0000
,
0000
0000
0000
0000
,
0000
0000
0000
0000
,
0001
0001
0100
0010
1000
0100
0010
0000
,
0001
0001
1000
0010
0100
0010
0001
0000
,
0010
0000
0010
0000
0100
0000
0100
0000
0001
0000
0001
0000
1000
0100
0000
0000
,
1100
1001
0110
0101
,
2000
3002
0023
0230
,
2300
3002
0203
0320
,
1030
0000
0000
0001
0000
0000
1000
0000
1000
0000
0000
0100
0000
0000
0010
0000
,
0001
0000
1000
0000
0010
0100
0000
0100
0001
0000
0010
0000
1000
0000
0010
0000
,
0100
0000
0000
1000
0000
0000
2000
0000
0000
0000
3010
0000
0100
0000
0001
0000
,
1000
0000
0000
1000
0001
0000
0010
0000
0100
0000
0001
0000
0100
0010
0000
0000
,
0010
0001
0100
1000
0000
0100
0010
1000
,
0000
0000
0001
0000
0010
0100
0000
1000
0000
0000
0010
0000
0001
0000
0010
0000
,
0000
0100
0001
0010
0100
0100
1000
0001
,
0100
0000
0000
0000
,
0100
0000
0000
0100
0010
0000
0000
0000
1000
0000
0000
1000
0001
0000
0000
0000
,
0010
0000
0000
0010
0100
0000
0000
0000
0001
0000
0100
0000
1000
0000
0000
0000
,
1000
0000
0000
1000
0001
0000
0000
0000
0100
0000
0000
0100
0010
0000
0000
0000
,
1000
0000
1000
0000
0001
0000
0010
0000
0100
0000
0000
2100
0000
0000
0000
0000
,
3001
0000
0000
0001
0100
0000
0000
0100
1000
0000
0000
0100
0010
0000
0000
0010
,
1000
0100
0010
0002
0000
1003
0010
0100
,
0001
0000
0000
0001
1000
0000
0000
0000
0100
0000
0000
0100
0010
0000
0000
0000
,
0001
0000
0001
0000
1000
0000
0010
0000
0100
0000
0000
0102
0000
0000
1000
0000
,
1003
0010
0100
1000
0000
0100
0010
1000
,
0000
0000
0001
0000
0010
0100
0000
1000
0000
0000
0010
0000
0010
0000
0010
0000
,
0000
0100
0001
0010
0000
0100
0010
0001
,
1000
0010
0000
0000
1000
0010
0000
0100
0000
0000
1000
0000
0100
0000
0001
0000
,
0000
0010
0100
0001
0000
0100
0010
0001
,
0000
0000
1000
0000
0010
0100
0000
0001
0000
0000
0010
0000
0100
0000
1000
0000
,
0000
0001
0100
1000
0100
0100
0010
0010
,
1001
0000
0000
0000
,
1000
0000
0000
1000
0010
0000
0000
0010
0100
0000
0000
0100
0001
0000
0000
0001
,
1000
0000
0000
1000
0100
0000
0000
0100
0001
0000
0100
0000
1000
0000
0010
0000
,
0100
0000
0000
0100
0001
0000
0000
0001
1000
0000
0000
1000
0100
0000
0000
0100
,
0010
0000
0010
0000
0001
0000
1000
0000
0100
0000
0000
2001
0000
0000
0000
0000
,
3001
0000
0000
0001
1000
0000
0000
0010
0001
0000
0000
0010
0100
0000
0000
0100
,
0001
1000
0100
0020
0000
0031
1000
0010
,
0100
0000
0000
0100
0010
0000
0000
0010
1000
0000
0000
1000
0001
0000
0000
0010
,
0100
0000
0100
0000
1000
0000
0001
0000
0100
0000
1000
0000
0100
0001
0000
0000
,
1000
0010
0110
0000
0100
0001
0010
0100
,
1000
0010
0001
1000
0100
0010
1000
0001
,
0010
0100
0001
0100
0010
0001
1000
0010
,
0100
0100
0001
0001
1000
0100
0001
0100
,
0010
0010
0011
0000
1000
0100
0010
0001
,
0100
0100
0101
0000
1000
0001
0010
0100
,
1000
0010
0001
1000
,
0100
0000
0100
0000
0010
0010
0010
0000
,
1000
0000
1010
0000
0110
0000
0001
2000
,
0000
0000
3200
0000
0000
0000
0310
0000
0001
0000
0000
1000
0000
0000
0010
0000
,
0100
0000
0110
0000
0110
0000
0001
1000
,
0100
0000
0001
0000
0100
0000
0000
0000
0010
0000
0000
0001
0000
0000
1000
0000
,
0010
0100
0010
0100
0000
0000
0001
1000
0001
1000
0000
0000
,
0200
0000
0000
0000
0320
0000
0000
0000
0031
0000
0000
1001
0000
0000
1000
0000
,
0001
0100
0001
0100
0000
0000
0010
1000
0010
1000
0000
0000
,
0001
0010
2000
0000
3200
0000
0302
0000
,
1003
0100
1000
0100
0010
0001
0100
0010
,
1000
1000
0001
0100
1000
0100
0010
1000
,
0001
0000
0010
0000
0100
0010
0000
0100
0010
0000
0001
0000
1000
0000
0010
0000
,
0200
0000
0000
2300
0000
0000
3002
0000
0000
0000
0013
0000
0100
0000
0001
0000
,
1000
0000
0100
0000
0002
0000
0000
0203
0000
0000
2300
0000
0000
3200
0000
0000
,
0320
0000
0000
0032
0000
0000
0103
0000
1000
0000
0100
0000
0010
0000
1000
0000
,
1000
0100
0001
0100
0010
0001
0100
0010
,
0100
0001
1000
0010
0200
0000
0300
0000
,
0101
0001
0000
0000
1000
0001
0010
0000
,
1100
1000
0000
0000
0001
1000
0001
0000
,
0011
0001
0000
0000
1000
0010
0001
0000
,
0010
0000
0200
0000
0000
0302
0000
0000
0023
0000
0000
0230
0000
0000
1300
0000
,
1100
1000
0001
0000
0001
0010
0100
0000
,
1100
1000
0001
0000
1000
0010
0100
0000
,
0101
0000
0001
0000
1000
0000
1000
0000
0001
0000
0010
0000
1000
0010
0000
0000
,
0200
0320
0032
2003
,
3020
0032
2003
3200
,
0300
2002
0000
0000
,
0000
0000
0000
0000
,
0000
0000
0000
0000
,
0000
0000
0000
3003
;

//--------------- dance-single - eataninja ----------------
#NOTES:
     dance-single:
     eataninja:
     Hard:
     17:
     0,0,0,0,0:
0000
0000
0000
0000
,
0000
0000
0000
0000
,
0000
0000
0000
0000
,
0000
0000
0000
0000
,
1000
0000
1000
0000
0010
0000
0100
0000
0001
1000
0001
0010
0100
0000
0000
0000
,
1000
0000
1000
0000
0100
0000
0010
0000
0001
0100
0010
1000
0001
0000
0000
0000
,
0100
0000
0100
0000
0010
0000
0010
0000
1000
0001
1000
0001
0010
0001
0010
0001
,
1000
0000
0000
1000
0100
0000
0000
0001
0100
0000
0000
1000
0001
0000
0000
0001
,
0200
0000
0020
0300
2000
0030
0002
3000
,
0020
0003
0200
0030
2000
0300
0002
3000
,
0103
0000
0000
0100
0010
0000
1000
0000
0001
0000
0000
0001
0010
0000
0100
0000
,
1000
0000
0001
0000
0100
0010
0000
0100
0001
0000
0010
0000
1000
0000
0010
0000
,
0100
0000
0000
0100
1000
0000
0002
0000
0000
0000
0203
0000
0000
0000
0310
0000
,
1000
0000
0000
1000
0001
0000
0010
0000
0100
0010
0001
1000
0001
0100
0000
0000
,
0100
0001
1000
1100
0000
1000
0001
0011
,
0000
0000
1000
0000
0010
0100
0000
1000
0000
0000
0100
0000
0001
0000
0010
0000
,
0100
0000
1000
0000
0001
0000
0100
0000
0010
0100
0001
1000
0001
0010
0100
1000
,
0010
0000
0001
0000
0010
0100
0000
0102
0000
0000
0103
0000
1000
0000
0100
0000
,
0010
0000
0100
0001
0100
0010
0000
1000
0000
0001
0000
0000
0001
0010
0100
1000
,
0001
0000
1000
0010
0100
0010
0000
0002
0000
0000
0013
0000
0100
0010
1000
0000
,
0001
0000
1000
0100
1000
0001
0000
0100
0000
0010
0000
0000
1000
0001
0010
0100
,
0010
0000
0001
0010
0100
1000
0001
1000
0010
0000
0000
0201
0000
0000
0000
0000
,
0310
0000
1000
0001
1000
0100
0000
0002
0000
0000
0103
0000
0010
0000
0001
0000
,
1000
0010
0001
0010
0100
0000
0002
0000
0000
0000
1003
0000
0001
0010
0100
1000
,
0001
0000
0100
0010
0100
0001
0000
1000
0000
0100
0000
0000
0010
0001
1000
0001
,
1000
0000
0010
0100
0010
1000
0001
0010
0100
0000
0000
1002
0000
0000
0000
0000
,
0103
0001
0010
1001
0000
1000
0010
1001
,
0000
0000
0100
0000
0010
0100
0000
0110
0000
0000
0001
0000
1000
0000
0100
0000
,
0000
1000
0010
1001
0000
0001
0010
0100
,
1000
0100
1000
0100
1000
0001
0000
0100
0000
0000
0001
0010
0100
1000
0010
0000
,
1000
0001
0100
1001
0000
1000
0100
1001
,
0000
0000
0010
0000
0100
0010
0000
0110
0000
0000
0001
0000
1000
0000
0010
0000
,
0000
0000
1000
0000
0100
0000
0010
0000
0001
1000
0001
1000
0100
1000
0100
1000
,
0001
0000
0100
0000
0001
0100
0000
1000
0000
0000
0100
0000
0001
0000
0010
0100
,
1000
0000
0001
1000
0001
0100
0000
1000
0000
0100
0000
0000
0010
0100
0001
1000
,
0001
0000
0010
0100
0001
0100
0000
0020
0000
0000
0031
0000
1000
0001
0100
0010
,
1000
0000
0001
0010
0001
0100
0000
1000
0000
0100
0000
0000
0010
0100
0001
1000
,
0100
1000
0100
0010
0001
1000
0001
0100
0010
0000
0000
2001
0000
0000
0000
0000
,
3001
0000
0100
0010
1000
0100
0000
0002
0000
0000
0103
0000
0010
0001
1000
0001
,
0100
0010
1000
0001
0100
0000
2000
0000
0000
0000
3100
0000
0010
1000
0001
0010
,
0100
0000
1000
0001
1000
0010
0000
0001
0000
0010
0000
0000
0100
0010
0100
0001
,
1000
0100
1000
0100
0010
0001
1000
0001
0100
0000
0110
0000
0010
0002
0000
0000
,
0013
0000
0110
0000
1001
0000
0000
0001
0000
0100
0010
1000
0001
0010
0100
1000
,
0001
0000
0010
1000
0010
0100
1000
0001
0100
0010
0100
0001
1000
0100
0010
0001
,
1000
0010
1000
0001
0010
0100
0000
1200
0000
0000
0301
0000
0100
0000
1000
0000
,
0001
1000
0001
0100
0010
1000
0001
0100
1000
0100
1000
0100
0010
0000
1000
0000
,
1001
0000
0011
0000
0110
0000
0000
0000
0100
0010
0001
1000
0001
0100
0010
0000
,
1001
0000
1010
0000
0110
0000
0000
0000
0100
0010
0100
0010
1000
0001
0010
0100
,
1000
0000
0001
0100
0010
0100
0000
1000
0000
0100
0000
0000
0010
1000
0001
0010
,
0100
0001
0100
0001
0100
0010
0001
1000
0001
0000
0100
0010
0000
0010
0000
0000
,
1000
0001
0100
0010
0100
0001
1000
0100
0010
0001
1000
0001
,
0100
0000
0000
0000
1000
0000
0000
0000
0100
0000
0000
0000
0010
0000
0000
0000
1000
0000
0000
0000
0001
0000
0000
0000
0010
0000
0000
0000
0000
0000
0000
0000
0000
0011
0000
0000
0000
0000
0000
0000
0000
0000
0110
0000
0000
0000
0000
0000
,
0100
1000
0001
1000
0100
0010
0001
1000
0010
0100
0010
1000
,
0100
0000
0000
0000
0001
0000
0000
0000
0100
0000
0000
0000
0010
0000
0000
0000
0001
0000
0000
0000
1000
0000
0000
0000
0010
0000
0000
0000
0000
0000
0000
0000
0000
1001
0000
0000
0000
0000
0000
0000
0000
0000
0101
0000
0000
0000
0000
0000
,
0100
0010
1000
0001
0010
0100
1000
0001
1000
0010
0100
0001
,
0010
0000
0000
0000
1000
0000
0000
0000
0010
0000
0000
0000
0100
0000
0000
0000
1000
0000
0000
0000
0001
0000
0000
0000
0100
0000
0000
0000
0000
0000
0000
0000
0000
0101
0000
0000
0000
0000
0000
0000
0000
0000
1001
0000
0000
0000
0000
0000
,
1000
0100
0001
0100
0010
0001
1000
0010
0100
1000
0100
0001
,
1000
1010
0210
0000
0302
0000
2003
0000
,
3100
0000
0010
0100
0010
0000
0100
0010
0001
1000
0000
0010
0000
0010
0100
0001
,
1000
0000
0100
1000
0100
0000
0001
0100
0010
0100
0000
2000
0000
0000
3001
0000
,
1000
0000
0010
0000
0100
0010
0000
0100
1000
0000
0100
0000
0001
0000
1000
0000
,
1010
0000
0000
0102
0000
0000
2003
0000
0000
0000
3001
0000
0010
0000
0100
0000
,
1000
0000
0000
1000
0020
0000
0000
0032
0000
0000
2003
0000
0000
3200
0000
0000
,
0320
0000
0000
2030
0000
0000
3001
0010
0100
0000
0001
0000
0100
0000
1000
0000
,
0010
0000
0010
0100
0001
0010
1000
0010
0001
0000
0100
0000
0100
0000
0100
0010
,
1000
0001
0010
0100
2200
0000
0000
3300
,
0100
0000
0100
0000
0010
0001
0100
0020
0000
0000
1030
0000
0001
0100
0001
0000
,
1000
0000
1000
0000
0001
0010
0100
1000
0010
0000
0001
0000
0010
0100
0000
0000
,
0001
0000
0001
0000
1000
0100
1000
0100
0010
0001
0010
0001
0100
0010
0100
0010
,
1000
0000
1010
0000
0000
0101
0000
0000
0011
0000
0000
0110
0000
0000
1100
0000
,
0001
0000
0001
0000
1000
0010
0100
0001
1000
0010
0001
0010
0100
0000
0000
0000
,
0001
0000
0001
0000
1000
0100
0010
0001
1000
0100
0001
0100
1000
0000
0000
0000
,
0100
0000
0100
0000
0010
0001
1000
0010
0001
0010
0100
0001
1000
0001
1000
0001
,
0100
0000
0000
0100
0010
0000
0000
0001
1000
0000
0000
0100
0001
0000
0000
0001
,
1000
0000
0000
1000
0100
0000
0000
0100
0001
0000
0000
0001
0010
0000
0010
0000
,
1000
0202
0000
0000
,
0000
0000
0000
0000
,
0000
0000
0000
0000
,
0000
0000
0000
0303
;
