#VERSION:0.83;
#TITLE:Samb-Adagio;
#SUBTITLE:;
#ARTIST:Safri Duo;
#TITLETRANSLIT:;
#SUBTITLETRANSLIT:;
#ARTISTTRANSLIT:;
#GENRE:Trance;
#CREDIT:;
#MUSIC:Samb-Adagio.ogg;
#BANNER:Samb-Adagio-bn.avi;
#BACKGROUND:Samb-Adagio-bg.png;
#CDTITLE:cdtitle.png;
#SAMPLESTART:71.304;
#SAMPLELENGTH:15.000;
#SELECTABLE:YES;
#OFFSET:0.000;
#BPMS:0.000=138.000
,100.000=69.000
,132.000=138.000
;
#STOPS:;
#SPEEDS:0.000=1.000=0.000=0;
#SCROLLS:0.000=1.000;
#TICKCOUNTS:0.000=4;
#TIMESIGNATURES:0.000=4=4;
#LABELS:0.000=Song Start;
#COMBOS:0.000=1;
#ORIGIN:Denmark;
#PREVIEWVID:;
#JACKET:Samb-Adagio-jacket.png;
#CDIMAGE:;
#DISCIMAGE:;
#BGCHANGES:2.000=Samb-Adagio.avi=2.000=0=0=1,
2.250=Samb-Adagio.avi=1.000=0=0=1,
99999.000=-nosongbg-=1.000=0=0=0=StretchNoLoop====
;
#FGCHANGES:;

//--------------- dance-single - RaverAce ----------------
#NOTEDATA:;
#STEPSTYPE:dance-single;
#DESCRIPTION:RaverAce;
#DIFFICULTY:Beginner;
#METER:5;
#RADARVALUES:0.128311,0.240107,0.142285,0,0,101,85,16,0,0,0,0,0,0,0.128311,0.240107,0.142285,0,0,101,85,16,0,0,0,0,0,0;
#CHARTNAME:;
#CHARTSTYLE:;
#CREDIT:RaverAce;
#NOTES:
0000
0000
0000
0000
,
0000
0000
0000
0000
,
0000
0000
0000
0000
,
0000
0000
0000
0000
,
0000
0000
0000
0000
,
1000
0000
1000
0000
,
1000
0000
1000
0000
,
0001
0000
0001
0000
,
0001
0000
0000
0000
,
1001
0000
0001
0000
,
1001
0000
1000
0000
,
1001
0000
1000
0000
,
1001
0000
0001
0000
,
1001
0000
0010
0000
,
1001
0000
0100
0000
,
1001
0000
0100
0000
,
1001
0000
0010
0000
,
1000
0000
0010
0010
,
0100
0000
0001
0001
,
0010
0000
0100
0100
,
1000
0000
0001
0001
,
0100
0000
0010
0010
,
1000
0000
0100
0100
,
0010
0000
0001
0001
,
0010
0000
0100
0000
,
1001
0000
0000
0000
,
0000
0000
0000
0000
,
0010
0000
0000
0000
,
0000
0000
0000
0000
,
1000
1000
0001
0001
,
1000
1000
0001
0001
,
0010
0100
0010
0100
,
1000
0001
1001
0000
,
1001
0000
0001
0000
,
0010
0000
0100
0000
,
1000
0000
0010
0000
,
0100
0000
0001
0000
,
1000
0000
0100
0000
,
0010
0000
0001
0000
,
1000
0000
0010
0000
,
0100
0000
0001
0001
,
1001
0000
1000
0000
,
0100
0000
0010
0000
,
0001
0000
0010
0000
,
0100
0000
1000
0000
,
0001
0000
0100
0000
,
0010
0000
1000
0000
,
0001
0000
1000
0000
,
0001
0000
1001
0000
,
1001
0000
1000
0000
,
0001
0000
1000
0000
,
1001
0000
0001
0000
,
1000
0000
0001
0000
,
1001
0000
0000
0000
,
0100
0000
0000
0000
;

//--------------- dance-single - RaverAce ----------------
#NOTEDATA:;
#STEPSTYPE:dance-single;
#DESCRIPTION:RaverAce;
#DIFFICULTY:Easy;
#METER:10;
#RADARVALUES:0.34428,0.432192,0.106714,0.560249,0.06225,271,259,12,63,0,0,0,0,0,0.34428,0.432192,0.106714,0.560249,0.06225,271,259,12,63,0,0,0,0,0;
#CHARTNAME:;
#CHARTSTYLE:;
#CREDIT:RaverAce;
#NOTES:
0000
0000
0000
0000
,
0000
0000
0000
0000
,
0000
0000
0000
0000
,
0000
0000
0000
0000
,
0000
0000
0000
0000
,
2001
0000
0000
3001
0020
0000
0000
0130
,
2000
0000
0000
0000
0100
0000
0000
3200
0000
0000
0310
0000
0001
0000
1000
0000
,
1002
0000
0000
1003
0020
0000
0000
0130
,
0002
0000
0000
0000
0100
0000
0000
0203
0000
0000
0310
0000
1000
0000
0001
0000
,
2001
0000
0000
0000
0010
0000
0000
3020
0000
0000
1030
0000
0010
0000
0100
0000
,
0001
0000
1000
0000
0002
0000
0000
2003
0000
0000
3001
0000
0010
0000
0100
0000
,
0020
0000
0000
0000
0001
0000
0000
0032
0000
0000
1003
0000
0010
0000
0100
0000
,
0001
0000
1000
0000
0002
0000
0000
2003
0000
0000
3010
0000
0100
0000
0001
0000
,
1002
0000
0000
0000
0010
0000
0000
0023
0000
0000
0031
0000
0010
0000
0100
0000
,
1000
0000
0001
0000
2000
0000
0000
3002
0000
0000
1003
0000
0010
0000
0100
0000
,
0020
0000
0000
0000
1000
0000
0000
2030
0000
0000
3001
0000
0010
0000
0100
0000
,
1000
0000
0001
0000
1000
0000
0000
1002
0000
0000
0010
0000
0013
0000
0000
0000
,
1001
0001
2000
0000
0010
0000
3010
0000
,
1000
0100
0020
0000
0001
0000
0031
1000
,
0001
0100
0002
0000
0010
0000
0013
0000
,
0100
0010
0200
0000
0320
0000
0031
0000
,
1001
1000
0002
0000
0010
0000
0013
0000
,
0001
0100
0020
0000
1000
0000
1030
0001
,
1000
0100
2000
0000
0010
0000
3010
0000
,
0100
0010
0200
0000
0320
0000
1030
0000
,
1002
0000
0023
0000
,
0230
0000
2300
0000
,
3020
0000
0230
0000
,
0302
0000
2000
3003
,
2001
3200
0302
0203
,
0320
0032
0203
2300
,
3100
0010
1000
0100
0001
0100
0010
0001
,
1000
0000
0000
0000
0010
0000
0000
0000
0100
0000
0000
0000
0001
0000
0000
0000
1000
0000
0001
0000
1000
0000
0000
2002
0000
0000
0000
0000
0000
0000
3003
0000
,
1000
0100
1000
0000
0001
1000
0001
0000
,
0100
0001
0100
0000
0010
0100
0010
0000
,
1000
0010
1000
0000
0010
0100
0010
0000
,
0100
0001
0100
0000
0001
0010
0001
0000
,
0010
0100
0010
0000
0100
1000
0100
0000
,
1000
0001
1000
0000
0001
0100
0001
0000
,
0010
0100
0010
0000
0100
1000
0100
0000
,
1000
0001
1000
0000
0001
0100
1000
0100
,
0010
0100
0001
0000
1000
0001
1000
0000
,
0100
1000
0100
0000
0010
0100
0010
0000
,
0001
0010
0001
0000
0010
0100
0010
0000
,
0100
1000
0100
0000
1000
0010
1000
0000
,
0010
0100
0010
0000
0100
0001
0100
0000
,
0001
1000
0001
0000
1000
0100
1000
0000
,
0010
0100
0010
0000
0100
0001
0100
0000
,
0001
0000
1000
0000
0001
0000
2000
0002
0000
0000
0000
0000
0000
0000
3003
0000
,
2001
0000
3020
0230
,
0301
1000
0002
0000
0010
0000
0013
0000
,
1002
0000
0023
0230
,
1300
0001
2000
0000
0010
0000
3010
0000
,
2002
0000
0000
0003
,
3001
0000
0000
0000
;

//--------------- dance-single - RaverAce ----------------
#NOTEDATA:;
#STEPSTYPE:dance-single;
#DESCRIPTION:RaverAce;
#DIFFICULTY:Medium;
#METER:13;
#RADARVALUES:0.627581,1.176523,0.275678,0.320142,0.995998,494,463,31,36,0,0,0,0,0,0.627581,1.176523,0.275678,0.320142,0.995998,494,463,31,36,0,0,0,0,0;
#CHARTNAME:;
#CHARTSTYLE:;
#CREDIT:RaverAce;
#NOTES:
0000
0000
0000
0000
,
0000
0000
0000
0000
,
0000
0000
0000
0000
,
0000
0000
0000
0000
,
0000
0000
0000
0000
,
2001
0000
0000
0000
0000
0000
3001
0100
0020
0000
0000
0000
0000
0000
1030
0100
,
0020
0000
0000
0000
0130
0000
0000
0210
0000
0000
0310
0001
0000
0001
1000
0000
,
1002
0000
0000
0000
0000
0000
1003
0100
0020
0000
0000
0000
0000
0000
0031
0100
,
0020
0000
0000
0000
0130
0000
0000
0210
0000
0000
0310
1000
0000
1000
0001
0000
,
1001
0000
0000
0000
1100
0000
0100
2000
0000
0000
3001
0100
0000
0010
0200
0000
,
0001
0000
0001
0000
0301
0000
0010
0002
0000
0000
1003
0100
0000
0010
0001
0000
,
1001
0000
0000
0000
1010
0000
0010
0200
0000
0000
0301
1000
0000
0100
2000
0000
,
0010
0000
0010
0000
3010
0000
1000
0002
0000
0000
0013
0100
0000
1000
0001
0000
,
1001
0000
0000
0000
0101
0000
0100
0002
0000
0000
1003
0100
0000
0010
0200
0000
,
1000
0000
1000
0000
1300
0000
0010
2000
0000
0000
3001
0100
0000
0010
1000
0000
,
1001
0000
0000
0000
0011
0000
0010
0200
0000
0000
1300
0001
0000
0100
0002
0000
,
0010
0000
0010
0000
0013
0000
0000
0012
0000
0000
1003
0010
0000
0010
1000
0000
,
1001
0000
0001
0000
0001
0000
0010
0001
0010
0000
0100
1000
0000
0001
1000
0000
,
0010
0000
0010
0000
0010
0000
0100
0010
0100
0000
0001
0100
0000
0010
1000
0000
,
0100
0000
0100
0000
0100
0000
0010
0001
0010
0000
0100
1000
0000
0001
0100
0000
,
0001
0000
0001
0000
0001
0000
0010
0100
1000
0000
0001
0100
0000
0010
0100
0001
,
1000
0000
1000
0000
1000
0000
0010
1000
0010
0000
0100
0001
0000
1000
0001
0000
,
0010
0000
0010
0000
0010
0000
0100
0010
0100
0000
1000
0100
0000
0010
0001
0000
,
0100
0000
0100
0000
0100
0000
0010
1000
0010
0000
0100
0001
0000
1000
0100
0000
,
1000
0000
1000
0000
1000
0000
0010
0100
0001
0000
1000
0100
0000
0010
0100
0000
,
2001
0000
3200
0000
,
0302
0000
0000
0000
0203
0000
0320
0032
,
1003
0000
0000
1000
0000
0000
1000
0000
0010
0000
0000
0010
0000
0000
0010
0000
0100
0000
0000
0100
0000
0000
0100
0000
0001
0000
0000
0001
0000
0000
0001
0000
,
0011
0000
0000
0010
0000
0000
0010
0000
0100
0000
0000
0100
0000
0000
0100
0000
1000
0000
0000
1000
0000
0000
1000
0000
0010
0000
0100
0010
0000
0100
0010
0000
,
2000
0000
0000
0000
0000
0000
3001
0000
0010
0000
0100
0010
0000
0001
0100
0000
0020
0000
0000
0000
0000
0000
1030
0000
0010
0000
0100
0001
0000
0001
1000
0000
,
0002
0000
0000
0000
0000
0000
1003
0000
0010
0000
0100
0010
0000
1000
0100
0000
0020
0000
0000
0000
0000
0000
0031
0000
0010
0000
0100
1000
0000
1000
0001
0000
,
0100
0010
0000
0100
0010
0100
0000
0010
0100
0010
0000
0100
0010
0100
0000
0001
1000
0001
0000
1000
0001
1000
0000
0001
1000
0001
0000
1000
0001
1000
0000
0100
,
1000
0100
0000
0010
0001
0010
0000
0001
0100
0001
0000
1000
0010
1000
0000
0001
1000
0000
1001
0000
1001
0000
0000
0021
0000
0000
0130
1000
0000
0001
0100
0000
,
0110
0000
0010
0000
1000
0000
0000
0100
0000
0010
0000
0001
1000
0000
0000
0001
,
0000
0010
0000
0100
1000
0000
0000
0001
0000
0100
0000
0010
1000
0000
0001
0010
,
0000
0100
0000
1000
0001
0000
0000
0100
0000
0010
0000
1000
0001
0000
0010
0100
,
0000
0100
0000
1000
0010
0000
0100
0001
0000
0100
0000
0010
1000
0000
0001
0010
,
0000
0100
0000
0010
0001
0000
0000
1000
0000
0010
0000
1000
0100
0000
0000
1000
,
0000
0010
0000
0100
0001
0000
0000
1000
0000
0100
0000
0010
0001
0000
1000
0010
,
0000
0100
0000
0001
1000
0000
0000
0100
0000
0010
0000
0001
1000
0000
0010
0100
,
0000
0100
0000
0001
0010
0000
0100
1000
0000
0100
0000
0010
0001
0000
1000
0000
,
1001
0000
0001
0000
0100
0000
1000
0100
0000
0010
0000
1000
0001
0000
0010
1000
,
0000
0010
0000
0100
1000
0000
0010
0001
0000
0010
0000
0100
0001
0000
1000
0100
,
0000
0001
0000
0100
1000
0000
0001
0100
0000
1000
0000
0100
0001
0000
1000
0010
,
0000
0001
0000
0010
1000
0000
0001
0010
0000
1000
0000
0010
0001
0000
1000
0010
,
0000
0010
0000
0100
0001
0000
1000
0100
0000
0010
0000
0001
1000
0000
0010
0001
,
0000
0010
0000
0100
0001
0000
0010
1000
0000
0010
0000
0100
1000
0000
0001
0100
,
0000
1000
0000
0100
0001
0000
1000
0100
0000
0001
0000
0100
1000
0000
0001
0000
,
1000
0000
0010
0000
0110
0000
0100
0002
0000
0000
1003
0100
0000
0010
0001
0000
,
1002
0000
0000
0000
0000
0000
1003
0000
0001
0000
0010
0100
0000
1000
0010
0000
,
0110
0000
0110
0000
0110
0000
0100
0001
1000
0000
0100
0010
0000
0001
1000
0000
,
2001
0000
0000
0000
0000
0000
3001
0000
1000
0000
0010
0100
0000
0001
0010
0000
,
0110
0000
0110
0000
0110
0000
0100
1000
0001
0000
0100
0010
0000
1000
0001
0000
,
2002
0000
0000
3000
,
1003
0000
0000
0000
;

//--------------- dance-single - RaverAce ----------------
#NOTEDATA:;
#STEPSTYPE:dance-single;
#DESCRIPTION:RaverAce;
#DIFFICULTY:Hard;
#METER:15;
#RADARVALUES:0.734295,1.200534,0.462428,0.382392,1.20498,578,526,52,43,0,0,0,0,0,0.734295,1.200534,0.462428,0.382392,1.20498,578,526,52,43,0,0,0,0,0;
#CHARTNAME:;
#CHARTSTYLE:;
#CREDIT:RaverAce;
#NOTES:
0000
0000
0000
0000
,
0000
0000
0000
0000
,
0000
0000
0000
0000
,
0000
0000
0000
0000
,
0000
0000
0000
0000
,
1002
0000
0000
0000
0000
0000
0000
0000
0000
1003
0010
0100
0002
0000
0000
0000
0000
0000
0000
0000
0000
1003
0100
0010
,
0002
0000
0000
0000
0023
0000
0000
2030
0000
0000
3010
0100
0000
1000
0001
0000
,
2001
0000
0000
0000
0000
0000
0000
0000
0000
3001
0100
0010
2000
0000
0000
0000
0000
0000
0000
0000
0000
3001
0010
0100
,
2000
0000
0000
0000
0000
0000
0000
0000
0000
0000
0000
0000
3020
0000
0000
0000
0000
0000
0000
0000
0000
0032
0000
0000
0000
0000
0000
0000
0000
0000
0013
0000
0000
0100
0000
0000
0000
0000
0000
0001
0000
0000
1000
0000
0100
0000
0010
0000
,
0001
0000
0000
0000
0011
0000
0010
0200
0000
0000
0310
0001
0000
0100
0001
0000
,
1001
0000
0000
0000
0000
0000
1010
0000
0000
0000
0000
0000
1001
0000
0000
0000
0000
0000
0001
0000
0000
0020
0000
0000
0000
0000
0000
0000
0000
0000
0130
0000
0000
1000
0000
0000
0000
0000
0000
1000
0000
0000
0010
0000
0100
0000
0001
0000
,
1000
0000
0000
0000
1100
0000
0100
0020
0000
0000
0031
0100
0000
1000
0100
0000
,
0101
0000
0000
0000
0000
0000
1001
0000
0000
0000
0000
0000
0101
0000
0000
0000
0000
0000
0100
0000
0000
0020
0000
0000
0000
0000
0000
0000
0000
0000
1030
0000
0000
0100
0000
0000
0000
0000
0000
0010
0000
0000
0001
0000
0100
0000
0010
0000
,
1000
0000
0000
0000
1010
0000
0010
0200
0000
0000
0310
1000
0000
0100
1000
0000
,
1001
0000
0000
0000
0000
0000
0011
0000
0000
0000
0000
0000
1001
0000
0000
0000
0000
0000
1000
0000
0000
0020
0000
0000
0000
0000
0000
0000
0000
0000
0130
0000
0000
0001
0000
0000
0000
0000
0000
0001
0000
0000
0010
0000
0100
0000
1000
0000
,
0001
0000
0000
0000
0101
0000
0100
0020
0000
0000
1030
0100
0000
0001
0100
0000
,
1100
0000
0000
0000
0000
0000
1001
0000
0000
0000
0000
0000
1100
0000
0000
0000
0000
0000
0000
0000
0000
0021
0000
0000
0000
0000
0000
0000
0000
0000
0031
0000
0000
0010
0000
0000
0000
0000
0000
0010
0000
0000
0001
0000
0100
0000
0010
0000
,
1000
0000
0000
0000
0000
0000
1100
0000
0000
0000
0000
0000
1001
0000
0000
0000
0000
0000
0001
0000
0000
0100
0000
0000
0010
0000
0000
0000
0000
0000
1000
0000
0000
0100
0000
0000
0000
0000
0000
0010
0000
0000
0100
0000
1000
0000
0010
0000
,
0100
0000
0000
0000
0000
0000
0101
0000
0000
0000
0000
0000
1001
0000
0000
0000
0000
0000
1000
0000
0000
0100
0000
0000
0010
0000
0000
0000
0000
0000
0001
0000
0000
0100
0000
0000
0000
0000
0000
0001
0000
0000
0010
0000
0100
0000
1000
0000
,
0010
0000
0000
0000
0000
0000
1010
0000
0000
0000
0000
0000
0110
0000
0000
0000
0000
0000
0100
0000
0000
0001
0000
0000
1000
0000
0000
0000
0000
0000
0100
0000
0000
0010
0000
0000
0000
0000
0000
0001
0000
0000
0100
0000
0010
0000
1000
0000
,
0001
0000
0000
0000
0000
0000
0011
0000
0000
0000
0000
0000
0110
0000
0000
0000
0000
0000
0100
0000
0000
1000
0000
0000
0001
0000
0000
0000
0000
0000
0100
0000
0000
0010
0000
0000
0000
0000
0000
1000
0000
0000
0100
0000
1000
0000
0010
0000
,
0100
0000
0000
0000
0000
0000
0101
0000
0000
0000
0000
0000
1001
0000
0000
0000
0000
0000
1000
0000
0000
0100
0000
0000
0010
0000
0000
0000
0000
0000
0001
0000
0000
0100
0000
0000
0000
0000
0000
0010
0000
0000
0100
0000
0001
0000
0010
0000
,
0100
0000
0000
0000
0000
0000
1100
0000
0000
0000
0000
0000
1001
0000
0000
0000
0000
0000
0001
0000
0000
0100
0000
0000
0010
0000
0000
0000
0000
0000
1000
0000
0000
0100
0000
0000
0000
0000
0000
1000
0000
0000
0010
0000
0100
0000
0001
0000
,
0010
0000
0000
0000
0000
0000
0011
0000
0000
0000
0000
0000
0110
0000
0000
0000
0000
0000
0100
0000
0000
1000
0000
0000
0001
0000
0000
0000
0000
0000
0100
0000
0000
0010
0000
0000
0000
0000
0000
1000
0000
0000
0100
0000
0010
0000
0001
0000
,
1000
0000
0000
0000
0000
0000
1010
0000
0000
0000
0000
0000
0110
0000
0000
0000
0000
0000
0100
0000
0000
0001
0000
0000
1000
0000
0000
0000
0000
0000
0100
0000
0000
0010
0000
0000
0000
0000
0000
0001
0000
0000
0100
0000
0001
0000
0010
0000
,
0200
0000
2300
0000
,
3020
0000
0000
0000
0000
0000
0000
0000
0000
0000
0000
0000
0000
0000
0000
0000
0032
0000
0000
0000
0000
0000
0000
0000
0013
0000
0100
0001
0000
1000
0100
0000
,
2000
0000
0000
3002
0000
0000
0013
0000
2000
0000
0000
3002
0000
0000
0103
0000
2000
0000
0000
3020
0000
0000
0031
0000
2000
0000
0000
3200
0000
0000
0301
0000
,
1002
0000
0000
2003
0000
0000
3010
0000
0002
0000
0000
2003
0000
0000
3100
0000
0002
0000
0000
0023
0000
0000
1030
0000
0001
0000
0100
0010
0000
0001
0100
0000
,
0020
0000
0000
0000
0000
0000
1030
0000
0100
0000
0001
0100
0000
0100
0010
0000
0002
0000
0000
0000
0000
0000
1003
0000
0010
0000
0100
0001
0000
1000
0100
0000
,
0020
0000
0000
0000
0000
0000
0000
0000
0000
0000
0000
0000
0000
0000
0000
0000
0000
0000
0031
0000
0000
0000
0000
0000
0100
0000
0000
0000
0000
0000
1000
0000
0000
0100
0000
0000
0000
0000
0000
0100
0000
0000
0010
0000
0000
0000
0000
0000
2000
0000
0000
0000
0000
0000
0000
0000
0000
0000
0000
0000
0000
0000
0000
0000
0000
0000
3001
0000
0000
0000
0000
0000
0010
0000
0000
0000
0000
0000
0100
0000
0000
1000
0000
0000
0000
0000
0000
0001
0000
0000
0100
0000
0010
0000
1000
0000
,
0001
0010
0000
0001
1000
0010
0000
1000
0001
0010
0000
0001
1000
0010
0000
0100
0001
1000
0000
0100
1000
0001
0000
0100
0001
1000
0000
0100
1000
0001
0000
0010
,
0100
1000
0000
0010
0100
0001
0000
0010
0100
1000
0000
0010
0100
0001
0000
1000
0001
0000
0011
0000
1001
0000
0000
1020
0000
0000
0130
0001
0000
0001
1000
0000
,
0010
1000
0000
0100
1000
0000
0010
0100
0000
0001
0000
1000
0100
0000
0001
0100
,
0000
0010
0000
0001
0100
0000
1000
0100
0000
0010
0000
1000
0001
0000
0010
1000
,
0000
0010
0000
0001
0100
0000
0010
1000
0000
0100
0000
0001
0100
0000
0010
0001
,
0000
1000
0000
0010
0001
0000
0010
0100
0000
0001
0000
0010
0100
0000
1000
0010
,
0000
0010
0000
0100
0001
0000
0010
0100
0000
1000
0000
0001
0100
0000
1000
0100
,
0000
0010
0000
1000
0100
0000
0001
0100
0000
0010
0000
0001
1000
0000
0010
0001
,
0000
0010
0000
1000
0100
0000
0010
0001
0000
0100
0000
1000
0100
0000
0010
1000
,
0000
0001
0000
0010
0100
0000
0010
0001
0000
1000
0000
0010
1000
0100
0001
0100
,
0010
0001
0000
0100
0001
0000
0010
0100
1000
0001
0000
0100
0010
0000
1000
0100
,
0010
0001
0000
0010
1000
0000
0010
0100
1000
0010
0000
0001
0010
0000
0100
0010
,
1000
0001
0000
0010
0100
0000
1000
0010
0001
0010
0000
1000
0100
0000
0010
0001
,
1000
0010
0000
0010
0100
0000
0001
0010
1000
0010
0000
0010
0100
1000
0010
0100
,
0000
0001
0000
0100
0010
0000
1000
0100
0000
0001
0000
0100
0010
0000
0001
0100
,
0000
1000
0000
0100
0010
0000
1000
0100
0000
0001
0000
0100
0010
0000
0001
1000
,
0010
0100
0000
0001
0010
0000
0100
1000
0001
0100
0000
1000
0100
0000
0001
0010
,
0100
0000
0110
0000
0011
0000
0010
0200
0000
0000
1300
0010
0000
0100
0001
0000
,
1001
0000
1000
0100
0000
0010
0100
0000
1100
0000
1000
0001
0000
0001
0100
0000
,
0110
0000
1010
0000
0110
0000
0100
0001
0010
0000
1000
0010
0000
0100
1000
0000
,
1001
0000
0001
0100
0000
0010
0100
0000
0101
0000
0001
1000
0000
1000
0100
0000
,
0110
0000
0000
0000
0000
0000
0011
0000
0000
0000
0000
0000
0110
0000
0000
0000
0000
0000
0100
0000
0000
1000
0000
0000
0010
0000
0000
0000
0000
0000
0001
0000
0000
0010
0000
0000
0000
0000
0000
0100
0000
0000
0001
0000
1000
0000
0100
0000
,
0020
0000
0000
0000
,
0130
0000
0000
0000
;

//--------------- dance-double - RaverAce ----------------
#NOTEDATA:;
#STEPSTYPE:dance-double;
#DESCRIPTION:RaverAce;
#DIFFICULTY:Easy;
#METER:7;
#RADARVALUES:0.271867,0.336149,0.231214,0.257892,0,214,188,26,29,0,0,0,0,0,0.271867,0.336149,0.231214,0.257892,0,214,188,26,29,0,0,0,0,0;
#CHARTNAME:;
#CHARTSTYLE:;
#CREDIT:RaverAce;
#NOTES:
00000000
00000000
00000000
00000000
,
00000000
00000000
00000000
00000000
,
00000000
00000000
00000000
00000000
,
00000000
00000000
00000000
00000000
,
00000000
00000000
00000000
00000000
,
00001001
00000000
00001001
00000000
,
00010100
00000000
00101000
00000000
,
10010000
00000000
10010000
00000000
,
01001000
00000000
00010010
00000000
,
00011000
00001000
00100000
00000000
,
01000000
01000000
10000000
00000000
00010000
00000000
00000000
00000000
,
10010000
10010000
10010000
00000000
,
10000000
00010000
01000000
00000000
00001000
00000000
00000000
00000000
,
00011000
00010000
00000010
00000000
,
00000100
00000100
00000001
00000000
00001000
00000000
00000000
00000000
,
00001001
00001001
00001001
00000000
,
00000001
00001000
00000100
00000000
00011000
00000000
00000000
00000000
,
01010000
01000000
01000000
00000000
00010000
00000000
10000000
00000000
,
01000000
01000000
01000000
00000000
00100000
00000000
00001000
00000000
,
00010000
00010000
00010000
00000000
00000010
00000000
00000100
00000000
,
00000001
00000001
00000001
00000000
00000010
00000001
00000100
00000010
,
00001000
00000100
00000100
00000000
00001000
00000000
00000001
00000000
,
00000100
00000100
00000100
00000000
00000010
00000000
00010000
00000000
,
00001000
00001000
00001000
00000000
00100000
00000000
01000000
00000000
,
10000000
10000000
10000000
00000000
00100000
10000000
01000000
00100000
,
00120000
00000000
02030000
00000000
,
03200000
00000000
20300000
32000000
,
03020000
00000000
00032000
00000000
,
00003200
00000000
00000320
00002030
,
00003002
00000023
00002030
00023000
,
00230000
20300000
32000000
03020000
,
00032000
00003200
00000320
00002030
,
00003002
00000023
00000130
00000110
,
00001001
00000001
00000100
00001000
,
00010000
01000000
00100000
00010000
,
01000000
00001000
00010000
00000100
,
00000010
00000001
00000100
00001000
,
00010000
01000000
10000000
00100000
,
00010000
00001000
00000010
00000001
,
00001000
00000010
00010000
00001000
,
00100000
01000000
10000000
00010000
,
10010000
10000000
01000000
00010000
,
00001000
00000100
00000010
00001000
,
00000100
00010000
00001000
01000000
,
00100000
10000000
01000000
00010000
,
00001000
00000100
00000001
00000010
,
00001000
00010000
00100000
10000000
,
00010000
00100000
00001000
00010000
,
00000010
00000100
00000010
00000000
00000220
00000000
00000000
00000330
,
00001002
00000000
00000013
00000100
,
00010000
00001000
00010000
00000000
00001000
00000000
00100000
00000000
,
20010000
00000000
30100000
01000000
,
00001000
00010000
00001000
00000000
00010000
00000000
00000010
00000000
,
00001020
00000000
00000000
00000000
,
00010030
00000000
00000000
00000000
;

//--------------- dance-double - RaverAce ----------------
#NOTEDATA:;
#STEPSTYPE:dance-double;
#DESCRIPTION:RaverAce;
#DIFFICULTY:Medium;
#METER:12;
#RADARVALUES:0.584387,0.840374,0.471321,0.240107,0.778124,460,407,53,27,0,0,0,0,0,0.584387,0.840374,0.471321,0.240107,0.778124,460,407,53,27,0,0,0,0,0;
#CHARTNAME:;
#CHARTSTYLE:;
#CREDIT:RaverAce;
#NOTES:
00000000
00000000
00000000
00000000
,
00000000
00000000
00000000
00000000
,
00000000
00000000
00000000
00000000
,
00000000
00000000
00000000
00000000
,
00000000
00000000
00000000
00000000
,
00011000
00000000
00011000
00000000
,
00012000
00000000
00000000
00000000
00203000
00000000
00000000
02300000
00000000
00000000
03100000
00000000
00001000
00000000
00010000
00000000
,
00011000
00000000
00011000
00000000
,
00021000
00000000
00000000
00000000
00030020
00000000
00000000
00000230
00000000
00000000
00000310
00000000
00010000
00000000
00001000
00000000
,
00011000
00000000
00000000
00000000
00110000
00000000
00000000
02100000
00000000
00000000
13000000
00000000
00100000
00000000
01000000
00000000
,
00001000
00000000
00001000
00000000
00001000
00000000
00000000
00011000
00000000
00000000
00010000
00000000
00000100
00000000
00000010
00000000
,
00000011
00000000
00000000
00000000
00000101
00000000
00000000
00002010
00000000
00000000
00003100
00000000
00010000
00000000
00001000
00000000
,
00100000
00000000
00100000
00000000
00100000
00000000
00000000
02100000
00000000
00000000
03100000
00000000
00001000
00000000
00010000
00000000
,
00011000
00000000
00000000
00000000
00001010
00000000
00000000
00000210
00000000
00000000
00000301
00000000
00000010
00000000
00000100
00000000
,
00010000
00000000
00010000
00000000
00010000
00000000
00000000
00011000
00000000
00000000
00001000
00000000
01000000
00000000
00100000
00000000
,
10100000
00000000
00000000
00000000
11000000
00000000
00000000
00120000
00000000
00000000
01030000
00000000
00001000
00000000
00010000
00000000
,
00000010
00000000
00000010
00000000
00000010
00000000
00000000
00000210
00000000
00000000
00000310
00000000
00010000
00000000
00001000
00000000
,
00101000
00000000
00100000
00000000
00100000
00000000
01000000
00100000
01000000
00000000
10000000
00100000
00000000
01000000
00001000
00000000
,
00010000
00000000
00010000
00000000
00010000
00000000
00000100
00001000
00000100
00000000
00000010
00000001
00000000
00000100
00000001
00000000
,
00000010
00000000
00000010
00000000
00000010
00000000
00000100
00010000
00001000
00000000
00100000
01000000
00000000
10000000
00100000
00000000
,
10000000
00000000
10000000
00000000
10000000
00000000
00100000
01000000
00001000
00000000
00010000
00000010
00000000
00000010
00010000
00000000
,
00010010
00000000
00000010
00000000
00000010
00000000
00000100
00000010
00000100
00000000
00000001
00000010
00000000
00000100
00010000
00000000
,
00001000
00000000
00001000
00000000
00001000
00000000
01000000
00010000
01000000
00000000
00100000
10000000
00000000
01000000
10000000
00000000
,
00100000
00000000
00100000
00000000
00100000
00000000
01000000
00001000
00010000
00000000
00000010
00000100
00000000
00000001
00000010
00000000
,
00000001
00000000
00000001
00000000
00000001
00000000
00000010
00000100
00010000
00000000
00001000
00100000
00000000
00100000
00001000
00000000
,
00021000
00000000
00030200
00000000
,
00000320
00000000
00000032
00000203
,
00000310
00000000
00000000
00001000
00000000
00000000
00000010
00000000
00000100
00000000
00000000
00000001
00000000
00000000
00001000
00000000
00000100
00000000
00000000
00010000
00000000
00000000
00001000
00000000
00100000
00000000
00000000
01000000
00000000
00000000
10000000
00000000
,
10010000
00000000
00000000
00010000
00000000
00000000
00100000
00000000
01000000
00000000
00000000
10000000
00000000
00000000
00100000
00000000
01000000
00000000
00000000
00001000
00000000
00000000
00010000
00000000
00000100
00000000
00000010
00000100
00000000
00001000
00000001
00000000
,
00002001
00000000
00000000
00000000
00000000
00000000
00003010
00000000
00000100
00000000
00000001
00000010
00000000
00000010
00000100
00000000
00020000
00000000
00000000
00000000
00000000
00000000
00031000
00000000
00100000
00000000
01000000
10000000
00000000
00100000
01000000
00000000
,
00020000
00000000
00000000
00000000
00000000
00000000
00130000
00000000
01000000
00000000
10000000
00100000
00000000
00100000
01000000
00000000
00002000
00000000
00000000
00000000
00000000
00000000
00013000
00000000
00000010
00000000
00000100
00000001
00000000
00000010
00000100
00000000
,
00001100
00010100
00001100
00010100
00011000
00101000
00011000
00101000
,
01100000
00000000
00000000
00000000
00101000
00000000
00000000
00000000
01100000
00000000
00000000
00000000
00101000
00000000
00000000
00000000
00100000
00000000
01000000
00000000
10000000
00000000
00000000
10020000
00000000
00000000
10030000
00100000
00000000
01000000
00001000
00000000
,
00011000
00000000
00010000
00000000
00000100
00000000
00000000
00000010
00000000
00000001
00000000
00000100
00000010
00000000
00000000
00001000
,
00000000
00000100
00000000
00010000
00001000
00000000
00000000
00100000
00000000
01000000
00000000
10000000
00100000
00000000
00000000
10000000
,
00000000
01000000
00000000
00100000
00001000
00000000
00000000
00010000
00000000
00000100
00000000
00000010
00000001
00000000
00000000
00000100
,
00000000
00000010
00000000
00010000
00001000
00000000
00000000
00100000
00000000
01000000
00000000
10000000
00010000
00000000
01000000
00000000
,
00001000
01000000
00000000
00010000
01000000
00000000
00000000
00100000
00000000
10000000
00000000
01000000
00100000
00000000
00000000
00010000
,
00000000
01000000
00000000
00001000
00010000
00000000
00000000
00000010
00000000
00000100
00000000
00000001
00000010
00000000
00000000
00000001
,
00000000
00000100
00000000
00000010
00010000
00000000
00000000
00001000
00000000
01000000
00000000
00100000
10000000
00000000
00000000
01000000
,
00000000
00100000
00000000
00001000
00010000
00000000
00000000
00000010
00000000
00000100
00000000
00000001
00001000
00000000
00000100
00000000
,
00010100
00000000
00010000
00000000
00001000
00000000
00100000
01000000
00000000
01000000
00000000
10000000
00100000
00000000
01000000
00010000
,
00000000
10000000
00000000
01000000
00100000
00000000
00001000
00010000
00000000
00000100
00000000
00000010
00000100
00000000
00001000
00000001
,
00000000
00000100
00000000
00001000
00010000
00000000
01000000
10000000
00000000
00100000
00000000
01000000
00010000
00000000
10000000
01000000
,
00000000
00010000
00000000
00001000
00000100
00000000
00000001
00000010
00000000
00000100
00000000
00001000
00000001
00000000
00001000
00000100
,
00000000
00010000
00000000
00000100
00010000
00000000
00000010
00000100
00000000
00000100
00000000
00000001
00000010
00000000
00000100
00001000
,
00000000
00000001
00000000
00000100
00000010
00000000
00010000
00001000
00000000
01000000
00000000
00100000
01000000
00000000
00010000
10000000
,
00000000
01000000
00000000
00010000
00001000
00000000
00000100
00000001
00000000
00000010
00000000
00000100
00001000
00000000
00000001
00000100
,
00000010
00000000
00001010
00000000
00011000
00000000
00001000
00200000
00000000
00000000
01300000
00100000
00000000
00100000
00001000
00000000
,
00012000
00000000
00000000
00000000
00000000
00000000
00013000
00000000
00000100
00000000
00000010
00000001
00000000
00000001
00000100
00000000
,
00000110
00000000
00001010
00000000
00000110
00000000
00000010
00001000
00000010
00000000
00001000
00000100
00000000
00010000
00001000
00000000
,
00021000
00000000
00000000
00000000
00000000
00000000
00031000
00000000
01000000
00000000
00100000
10000000
00000000
10000000
01000000
00000000
,
01100000
00000000
00110000
00000000
01100000
00000000
00100000
00010000
00100000
00000000
00010000
01000000
00000000
00001000
00010000
00000000
,
00022000
00000000
00000000
00030000
,
00013000
00000000
00000000
00000000
;

//--------------- dance-double - RaverAce ----------------
#NOTEDATA:;
#STEPSTYPE:dance-double;
#DESCRIPTION:RaverAce;
#DIFFICULTY:Hard;
#METER:15;
#RADARVALUES:0.660611,1.152512,0.302357,0.471321,1.044909,520,486,34,53,0,0,0,0,0,0.660611,1.152512,0.302357,0.471321,1.044909,520,486,34,53,0,0,0,0,0;
#CHARTNAME:;
#CHARTSTYLE:;
#CREDIT:RaverAce;
#NOTES:
00000000
00000000
00000000
00000000
,
00000000
00000000
00000000
00000000
,
00000000
00000000
00000000
00000000
,
00000000
00000000
00000000
00000000
,
00000000
00000000
00000000
00000000
,
10020000
00000000
00000000
00000000
00000000
00000000
00000000
00000000
00000000
10030000
01000000
00100000
00020000
00000000
00000000
00000000
00000000
00000000
00000000
00000000
00000000
01030000
00001000
00010000
,
00000200
00000000
00000000
00000000
00002300
00000000
00000000
00003020
00000000
00000000
00000130
00000001
00000000
00001000
00000001
00000000
,
00002001
00000000
00000000
00000000
00000000
00000000
00000000
00000000
00000000
00003001
00000100
00000010
00002000
00000000
00000000
00000000
00000000
00000000
00000000
00000000
00000000
00003100
00010000
00001000
,
02000000
00000000
00000000
00000000
03020000
00000000
00000000
00230000
00000000
00000000
01300000
10000000
00000000
00010000
10000000
00000000
,
10010000
00000000
00000000
00000000
01001000
00000000
00001000
00020000
00000000
00000000
00030100
00000010
00000000
00000001
00000100
00000000
,
00000020
00000000
00001000
00000000
00002030
00000000
00003100
00020000
00000000
00000000
00031000
00100000
00000000
01000000
10000000
00000000
,
10100000
00000000
00000000
00000000
01010000
00000000
00010000
00200000
00000000
00000000
00301000
00010000
00000000
00000100
00000010
00000000
,
00000002
00000000
00001000
00000000
00002003
00000000
00003100
00020000
00000000
00000000
00031000
00010000
00000000
00000100
00001000
00000000
,
00001001
00000000
00000000
00000000
00010100
00000000
00010000
00002000
00000000
00000000
01003000
00100000
00000000
10000000
01000000
00000000
,
00200000
00000000
00010000
00000000
00320000
00000000
01030000
00002000
00000000
00000000
00013000
00000010
00000000
00000100
00000001
00000000
,
00000011
00000000
00000000
00000000
00001100
00000000
00001000
00000020
00000000
00000000
00010030
00001000
00000000
01000000
00100000
00000000
,
20000000
00000000
00010000
00000000
30010000
00000000
00000000
20010000
00000000
00000000
31000000
00000000
00010000
00000000
00001000
00000000
,
00001100
00000000
00000100
00000000
00000100
00000000
00000010
00001000
00000001
00000000
00000010
00001000
00000000
00010000
00100000
00000000
,
10100000
00000000
10000000
00000000
10000000
00000000
01000000
00100000
00001000
00000000
00010000
00000100
00000000
00000010
00000001
00000000
,
00001001
00000000
00001000
00000000
00001000
00000000
00000010
00001000
00000001
00000000
00000100
00001000
00000000
00010000
01000000
00000000
,
01100000
00000000
00100000
00000000
00100000
00000000
00001000
00010000
00000100
00000000
00010000
00001000
00000000
00100000
01000000
00000000
,
01010000
00000000
01000000
00000000
01000000
00000000
00100000
00010000
10000000
00000000
00100000
00010000
00000000
00001000
00000010
00000000
,
00000011
00000000
00000001
00000000
00000001
00000000
00000100
00000010
00010000
00000000
00001000
01000000
00000000
00100000
10000000
00000000
,
10010000
00000000
00010000
00000000
00010000
00000000
00100000
00010000
10000000
00000000
01000000
00010000
00000000
00001000
00000100
00000000
,
00000110
00000000
00000010
00000000
00000010
00000000
00010000
00001000
01000000
00000000
00001000
00010000
00000000
00000010
00000100
00000001
,
00000020
00000000
00000230
00000000
,
00020300
00000000
00000000
00000000
00000000
00000000
00000000
00000000
00000000
00000000
00000000
00000000
00000000
00000000
00000000
00000000
00032000
00000000
00000000
00000000
00000000
00000000
00000000
00000000
00013000
00000000
00001000
00100000
00000000
00100000
01000000
00000000
,
20000000
00000000
00000000
30200000
00000000
00000000
00310000
00000000
00002000
00000000
00000000
00003020
00000000
00000000
00000031
00000000
00000200
00000000
00000000
00002300
00000000
00000000
00013000
00000000
02000000
00000000
00000000
23000000
00000000
00000000
30100000
00000000
,
20100000
00000000
00000000
32000000
00000000
00000000
03010000
00000000
00002000
00000000
00000000
00003200
00000000
00000000
00000301
00000000
00000020
00000000
00000000
00002030
00000000
00000000
00013000
00000000
00100000
00000000
10000000
00100000
00000000
01000000
00010000
00000000
,
20000000
00000000
00000000
00000000
00000000
00000000
31000000
00000000
00100000
00000000
00001000
00010000
00000000
00000100
00001000
00000000
00000020
00000000
00000000
00000000
00000000
00000000
00001030
00000000
00000100
00000000
00000010
00000001
00000000
00000001
00000100
00000000
,
00000002
00000000
00000000
00000000
00000000
00000000
00000103
00000000
00000010
00000000
00010000
00001000
00000000
01000000
00010000
00000000
00200000
00000000
00000000
00000000
00000000
00000000
00310000
00000000
01000000
00000000
00100000
10000000
00000000
10000000
01000000
00000000
,
10000000
01000000
00000000
00100000
00001000
00010000
00000000
00000100
00010000
00001000
00000000
00010000
00000100
00001000
00000000
00000010
00000100
00000001
00000000
00000010
00000100
00001000
00000000
00000100
00010000
00001000
00000000
00100000
00010000
01000000
00000000
00100000
,
10000000
01000000
00000000
10000000
00010000
01000000
00000000
00001000
00010000
00000100
00000000
00001000
00000100
00000010
00000000
00000001
00001000
00000000
00001001
00000000
00000101
00000000
00000000
00000021
00000000
00000000
00000130
00001000
00000000
00000100
00010000
00000000
,
00001000
00100000
00000000
01000000
10000000
00000000
00100000
01000000
00000000
00001000
00000000
00010000
00000100
00000000
00000010
00000001
,
00000000
00000100
00000000
00000010
00001000
00000000
00000100
00010000
00000000
00001000
00000000
00100000
01000000
00000000
10000000
00100000
,
00000000
00010000
00000000
00001000
00000010
00000000
00000001
00000100
00000000
00001000
00000000
00010000
01000000
00000000
10000000
00100000
,
00000000
01000000
00000000
00001000
00010000
00000000
00000100
00000010
00000000
00000001
00000000
00000100
00000010
00000000
00001000
00000001
,
00000000
00000001
00000000
00000100
00000001
00000000
00000010
00000100
00000000
00010000
00000000
00001000
01000000
00000000
00100000
10000000
,
00000000
01000000
00000000
00100000
00010000
00000000
01000000
00001000
00000000
00010000
00000000
00000010
00000100
00000000
00000001
00000010
,
00000000
00001000
00000000
00010000
00100000
00000000
10000000
01000000
00000000
00010000
00000000
00001000
00000100
00000000
00000001
00000010
,
00000000
00000100
00000000
00010000
00001000
00000000
01000000
00100000
00000000
10000000
00000000
01000000
00100000
00000000
00001000
00000000
,
00010000
00000010
00000000
00000100
00000001
00000000
00001000
00000100
00000010
00000001
00000000
00000010
00000100
00000000
00010000
00001000
,
00100000
01000000
00000000
10000000
00100000
00000000
01000000
00001000
00010000
00000100
00000000
00000010
00000100
00000000
00000010
00000001
,
00000000
00000100
00000000
00001000
00010000
00000000
01000000
00100000
00000000
00010000
00000000
01000000
00100000
00000000
10000000
00100000
,
00000000
00010000
00000000
00001000
00000010
00000000
00000100
00001000
00000000
00000100
00000000
00000010
00000001
00000000
00001000
00000010
,
00000000
00000010
00000000
00010000
00001000
00000000
00010000
01000000
00100000
00010000
00000000
00100000
01000000
00000000
00001000
00010000
,
00000010
00000100
00000000
00000001
00000010
00000000
00000100
00010000
00001000
01000000
00000000
00100000
01000000
00000000
00100000
10000000
,
00000000
01000000
00000000
00010000
00001000
00000000
00000100
00000010
00000000
00001000
00000000
00000100
00000010
00000000
00000001
00000010
,
00000100
00000000
00001100
00000000
00010100
00000000
00010000
00002000
00000000
00000000
00103000
00010000
00000000
10000000
00010000
00000000
,
20010000
00000000
00000000
00000000
00000000
00000000
31000000
00000000
00010000
00000000
00001000
00000100
00000000
00000010
00000100
00000000
,
00000110
00000000
00000101
00000000
00000110
00000000
00000010
00010000
00001000
00000000
00010000
00000100
00000000
00000010
00000001
00000000
,
00001002
00000000
00000000
00000000
00000000
00000000
00000103
00000000
00001000
00000000
00010000
01000000
00000000
00100000
01000000
00000000
,
01100000
00000000
11000000
00000000
01100000
00000000
00100000
00001000
00010000
00000000
00001000
01000000
00000000
00100000
10000000
00000000
,
20020000
00000000
00000000
00030000
,
30010000
00000000
00000000
00000000
;
