#TITLE:Sakura Fubuki;
#SUBTITLE:;
#ARTIST:Street;
#TITLETRANSLIT:;
#SUBTITLETRANSLIT:;
#ARTISTTRANSLIT:;
#GENRE:Drumstep;
#CREDIT:;
#BANNER:Sakura Fubuki.png;
#BACKGROUND:Sakura Fubuki-bg.png;
#LYRICSPATH:;
#CDTITLE:cdtitle.png;
#MUSIC:Sakura Fubuki.ogg;
#OFFSET:-0.017000;
#SAMPLESTART:68.246002;
#SAMPLELENGTH:15.000000;
#SELECTABLE:YES;
#BPMS:0.000000=87.500000
,16.000000=175.000000
,120.000000=87.500000
,136.000000=175.000000
,232.000000=87.500000
,264.000000=175.000000
;
#STOPS:
;
#BGCHANGES:-0.500=Sakura Fubuki.avi=1.000=0=0=0=StretchNoLoop==CrossFade_Fastest==,
99999=-nosongbg-=1.000=0=0=0 // don't automatically add -songbackground-
;
#KEYSOUNDS:;
#ATTACKS:;

//---------------dance-single - Daff_4K----------------
#NOTES:
     dance-single:
     Daff_4K:
     Beginner:
     3:
     0.105362,0.165946,0.067049,0.000000,0.000000,88.000000,80.000000,8.000000,0.000000,0.000000,0.000000,0.105362,0.165946,0.067049,0.000000,0.000000,88.000000,80.000000,8.000000,0.000000,0.000000,0.000000:
0000
0000
0000
0000
,
0000
0000
0000
0000
,
0000
0000
0000
0000
,
0000
0000
0000
0000
,
0010
0000
0000
0000
,
0010
0000
0000
0000
,
0100
0000
0000
0000
,
0100
0000
0000
0000
,
0001
0000
0001
0000
,
1000
0000
1000
0000
,
0100
0000
0000
0000
,
0010
0000
0000
0000
,
0110
0000
0000
1001
,
0000
0000
0001
0000
,
1000
0000
0001
0000
,
0000
0000
0100
0000
,
0010
0000
0100
0000
,
0000
0000
0001
0000
,
1000
0000
0001
0000
,
0000
0000
0010
0000
,
0100
0000
0010
0000
,
0001
0000
1000
0000
,
0001
0000
1000
0000
,
0000
0000
0100
0000
,
0010
0000
0100
0000
,
0000
0000
1000
0000
,
0001
0000
1000
0000
,
0000
0000
0010
0000
,
0100
0000
0010
0000
,
1000
0000
0000
0000
,
1001
0000
0000
0000
,
0000
0000
0000
0000
,
0000
0000
0000
0000
,
0000
0000
0000
0000
,
0001
0000
0000
0000
,
0001
0000
0000
0000
,
1000
0000
0000
0000
,
1000
0000
0000
0000
,
0100
0000
0100
0000
,
0100
0000
0010
0000
,
0010
0000
0010
0000
,
0110
0000
0000
0000
,
1001
0000
0000
0000
,
0100
0000
0010
0000
,
1000
0000
0000
0000
,
0100
0000
0010
0000
,
0001
0000
0000
0000
,
1000
0000
0000
0000
,
0010
0000
0100
0000
,
0010
0000
0000
0000
,
1001
0000
0000
0000
,
0100
0000
0010
0000
,
0001
0000
0000
0000
,
0100
0000
0010
0000
,
1000
0000
0000
0000
,
0001
0000
0000
0000
,
0010
0000
0100
0000
,
0010
0000
0000
0000
,
1001
0000
0000
0000
,
0000
0000
0000
0000
,
1000
0000
0000
0000
,
0001
0000
0000
0000
,
0100
0000
0000
0000
,
0010
0000
0000
0000
,
1000
0000
0000
0000
,
0001
0000
0000
0000
,
1001
0000
0000
0000
;

//---------------dance-single - Daff_4K----------------
#NOTES:
     dance-single:
     Daff_4K:
     Easy:
     7:
     0.261012,0.331892,0.284958,0.352006,0.062858,218.000000,184.000000,34.000000,42.000000,0.000000,0.000000,0.261012,0.331892,0.284958,0.352006,0.062858,218.000000,184.000000,34.000000,42.000000,0.000000,0.000000:
0000
0000
0000
0000
,
0000
0000
0000
0000
,
0000
0000
0000
0000
,
0000
0000
0000
0000
,
1000
0000
0010
0000
,
0100
0000
0001
1000
,
0001
0000
0010
0000
,
0100
0000
1000
0001
,
1000
1000
0001
0001
,
0100
0100
0010
0010
,
0220
0000
0000
0330
,
2002
0000
0000
3003
,
0110
0000
0000
1001
0000
0000
0110
0000
,
0000
1001
0000
0000
1000
0000
0001
0000
,
2001
0000
3010
0000
,
0100
0001
1001
0000
,
1200
0000
0000
0000
0310
0000
0001
1000
,
0001
0000
0100
0010
0100
0000
0000
2001
,
0000
0000
3100
0010
,
0001
1000
1010
0000
,
0102
0000
0000
0000
0013
0000
0100
0010
,
0000
0000
0000
1001
0000
0110
0000
1002
,
0000
0000
0013
0000
,
0100
1000
1001
0000
,
0201
0000
0000
0000
0310
0000
1000
0001
,
1000
0000
0100
0010
0100
0000
0000
1002
,
0000
0000
0103
0010
,
1000
0001
0011
0000
,
2100
0000
3010
0100
,
0001
0010
0100
1000
,
1002
0000
0000
0000
0000
0000
0000
0100
0000
0000
0000
0000
0000
0000
0000
1000
,
0000
0000
0000
0000
0000
0000
0000
0010
0000
0000
0000
0000
0000
0000
0000
0000
,
2003
0000
0000
0000
0000
0000
0000
0100
0000
0000
0000
0000
0000
0000
0000
0001
,
0000
0000
0000
0000
0000
0000
0000
0010
0000
0000
0000
0000
3000
0000
0000
0000
,
1002
0000
0023
0000
,
0130
1000
0001
0000
,
2001
0000
3020
0000
,
0130
0001
1000
0000
,
0100
0100
0010
0010
,
0001
0001
1000
1000
,
0010
0100
0001
1000
,
2002
0000
0000
3003
,
0022
0033
0001
0100
,
1000
0100
0001
1000
,
0001
0010
0100
1000
,
0010
0100
0001
1000
,
2200
3300
0100
0010
,
0022
0033
0001
1000
,
2020
3030
0010
0100
,
0202
0303
0001
1000
,
0001
0010
0001
0000
1000
0010
1000
0000
,
0100
0000
0010
0000
0001
1000
0001
0000
,
1000
0010
0100
0001
,
0010
0100
1000
0001
,
0202
0303
0100
0010
,
2020
3030
1000
0001
,
0010
0001
0010
0000
0100
1000
0100
0000
,
1000
0010
0100
0001
,
2002
0000
0000
0000
,
3003
0000
0000
0000
,
2000
0000
0000
0000
0000
0000
0000
3002
0000
0000
0000
0000
0000
0000
0000
0023
,
0000
0000
0000
0000
0000
0000
0000
0230
0000
0000
0000
0000
0300
0000
0000
0000
,
1002
0000
0000
0000
0000
0000
0000
0100
0000
0000
0000
0000
0000
0000
0000
0010
,
0000
0000
0000
0000
0000
0000
0000
0100
0000
0000
0000
0000
0000
0000
0000
0000
,
2003
0000
0000
0000
0000
0000
0000
0100
0000
0000
0000
0000
0000
0000
0000
0010
,
0000
0000
0000
0000
0000
0000
0000
0100
0000
0000
0000
0000
3000
0000
0000
0000
,
1001
0000
0000
0000
;

//---------------dance-single - Daff_4K----------------
#NOTES:
     dance-single:
     Daff_4K:
     Medium:
     11:
     0.354401,0.442522,0.243052,0.620202,0.062858,296.000000,267.000000,29.000000,74.000000,0.000000,0.000000,0.354401,0.442522,0.243052,0.620202,0.062858,296.000000,267.000000,29.000000,74.000000,0.000000,0.000000:
0000
0000
0000
0000
,
0000
0000
0000
0000
,
0000
0000
0000
0000
,
0000
0000
0000
0000
,
1000
0010
0100
0001
,
0100
0000
0010
0000
1000
0001
1000
0000
,
0001
0010
0100
1000
,
0100
0000
0010
0000
0001
1000
0001
0000
,
0100
0100
0010
0010
,
1000
0100
1000
0000
0001
0100
0001
0000
,
0020
0230
2300
3002
,
0203
0010
0010
0310
,
1001
0000
0000
0110
0000
0000
1001
0000
,
0000
0110
0000
0000
1000
0001
0100
0020
,
0000
1030
0001
1000
0200
0000
0320
0000
,
0031
1000
0002
0000
0100
0000
0103
0010
,
2000
0000
0001
0000
3001
0000
1000
0100
,
0010
0000
0001
0100
0010
1000
0000
1001
,
0000
0001
0010
0100
2000
0000
3002
0000
,
0203
0000
0010
0000
0310
1000
0001
0000
,
2000
0000
0100
0000
3100
0010
0001
2002
,
0000
3003
0000
1001
0000
1100
0000
0120
,
0000
0031
1000
0001
0200
0000
0320
0000
,
1030
0001
2000
0000
0100
0000
3100
0010
,
0002
0000
1000
0000
1003
0000
0001
0100
,
0010
0000
1000
0100
0010
0001
0000
1001
,
0000
1000
0010
0100
0002
0000
2003
0000
,
3200
0000
0010
0000
0310
0001
1000
0000
,
0002
0000
0100
0000
0103
0010
1000
0100
,
0020
0100
0100
0130
,
1002
0000
0000
0000
0000
0000
0000
0203
0000
0000
0000
0000
0000
0000
0000
0320
,
0000
0000
0000
0000
0000
0000
0000
2030
0000
0000
0000
0000
3000
0000
0000
0000
,
2001
0000
0000
0000
0000
0000
0000
3200
0000
0000
0000
0000
0000
0000
0000
0320
,
0000
0000
0000
0000
0000
0000
0000
0032
0000
0000
0000
0000
0003
0000
0000
0000
,
2001
0000
0000
0010
3020
0000
0000
0130
,
0002
2003
0100
3001
,
1002
0000
0000
0010
0023
0000
0000
0130
,
2000
3002
0100
1003
,
2000
0010
3002
0010
,
1003
0100
1000
0000
0001
0100
0001
0000
,
0010
0100
1000
0010
0100
0001
1000
0000
,
2002
0000
0000
3003
,
0101
0000
1010
0000
1000
0001
0010
0000
,
0002
0100
2003
0010
,
3001
1000
0100
0000
0010
0001
1000
0000
,
0200
0001
0320
1000
,
0032
0000
1000
0000
0103
0010
1000
0002
,
0000
0013
0000
1100
0000
0011
0000
2001
,
0000
3010
0000
0101
0000
1010
0000
1002
,
0000
0013
0001
0100
0010
1000
0001
0000
,
1000
0100
1000
0001
0100
0001
0010
0100
,
2000
0100
3002
0010
,
1003
0001
0100
0000
0010
1000
0001
0000
,
0200
1000
0320
0001
,
2030
0000
0001
0000
3100
0010
0001
2000
,
0000
3001
0000
0110
0000
1001
0000
1000
,
0001
0010
0001
0000
1000
0010
1000
0000
,
0100
0010
0001
0100
0010
1000
0001
0000
,
2002
0000
0000
0000
,
0000
0000
0000
3003
,
2000
0000
0000
0000
0000
0000
0000
3002
0000
0000
0000
0000
0000
0000
0000
0203
,
0000
0000
0000
0000
0000
0000
0000
0320
0000
0000
0000
0000
0030
0000
0000
0000
,
2001
0000
0000
0000
0000
0000
0000
3200
0000
0000
0000
0000
0000
0000
0000
0320
,
0000
0000
0000
0000
0000
0000
0000
0032
0000
0000
0000
0000
0003
0000
0000
0000
,
1002
0000
0000
0000
0000
0000
0000
0203
0000
0000
0000
0000
0000
0000
0000
0320
,
0000
0000
0000
0000
0000
0000
0000
2030
0000
0000
0000
0000
3000
0000
0000
0000
,
1001
0000
0000
0000
;

//---------------dance-single - Daff_4K----------------
#NOTES:
     dance-single:
     Daff_4K:
     Hard:
     15:
     0.566323,0.691441,0.444199,0.636964,0.372959,473.000000,420.000000,53.000000,76.000000,0.000000,0.000000,0.566323,0.691441,0.444199,0.636964,0.372959,473.000000,420.000000,53.000000,76.000000,0.000000,0.000000:
0000
0000
0000
0000
,
0000
0000
0000
0000
,
0000
0000
0000
0000
,
0000
0000
0000
0000
,
2001
0010
0001
0100
,
0001
0000
0010
0000
3100
1000
0001
0000
,
1002
0010
1000
0100
,
1000
0000
0010
0000
0103
0001
1000
0000
,
1010
0101
0011
1100
,
1000
0001
0100
0010
1000
0001
0010
0100
,
1000
0001
1000
0001
1000
0001
1000
0001
0100
0010
0100
0010
0100
0010
0100
0010
,
2000
0000
0000
0000
3002
0000
0000
0000
0013
0000
0100
0010
0100
0000
1000
0000
,
0001
0011
0000
1000
1010
0000
0001
0101
,
0000
0000
1000
0000
1100
0000
0000
0000
0001
0000
1000
0001
1000
0000
0020
0000
,
0000
0000
0130
0000
0001
0000
1000
0000
0100
0000
0010
0100
0020
0000
0000
0000
,
0031
0000
1000
0001
1000
0000
0010
0000
0001
0000
0010
0000
1000
0000
0100
0000
,
0002
0000
0000
0000
0103
0000
1000
0001
1000
0000
0001
0000
0100
0010
0100
0010
,
0100
0000
0001
0000
0010
0100
0010
0100
0010
0000
0001
0000
1000
0000
1002
0000
,
0000
0000
0013
0000
0100
0010
0100
0000
1000
0000
0010
0000
0001
0000
0010
0000
,
1000
0000
0100
0010
0200
0000
0000
0000
1300
0000
0001
0000
0100
0000
0010
0100
,
0020
0000
0000
0000
1030
0000
0001
0000
0010
0000
0100
0010
0100
0000
2001
0000
,
0000
3100
0010
0110
0000
1001
0001
0020
,
0000
0000
0130
0000
1000
0000
0001
0000
0100
0000
0010
0100
0020
0000
0000
0000
,
1030
0000
0001
1000
0001
0000
0010
0000
1000
0000
0010
0000
0001
0000
0100
0000
,
2000
0000
0000
0000
3100
0000
0001
1000
0001
0000
1000
0000
0100
0010
0100
0010
,
0100
0000
1000
0000
0010
0100
0010
0100
0010
0000
1000
0000
0001
0000
2001
0000
,
0000
0000
3010
0000
0100
0010
0100
0000
0001
0000
0010
0000
1000
0000
0010
0000
,
0001
0000
0100
0010
0200
0000
0000
0000
0301
0000
1000
0000
0100
0000
0010
0100
,
0020
0000
0000
0000
0031
0000
1000
0000
0010
0000
0100
0010
0100
0000
0001
0000
,
0010
0000
0100
0000
1000
0000
0010
0000
0100
0000
0001
0000
1000
0001
1000
0002
,
2000
0000
0000
0000
3003
0000
0000
2020
0000
0000
0000
0000
3030
0000
0000
0220
,
0000
0000
0000
0000
0330
0000
0000
0202
0000
0000
0000
0000
0303
0000
0000
0000
,
2002
0000
0000
0000
3003
0000
0000
0022
0000
0000
0000
0000
0033
0000
0000
0220
,
0000
0000
0000
0000
0330
0000
0000
2200
0000
0000
0000
0000
3300
0000
0000
0000
,
2002
0000
3000
0000
0203
0000
0310
1000
,
0200
0000
0301
0100
1000
0010
0100
0000
,
2002
0000
0003
0000
3200
0000
0310
0001
,
0200
0000
1300
0100
0001
0010
0100
1000
,
0010
0001
0010
1000
0001
0010
1000
0010
,
0001
0100
0100
0010
0010
1000
0100
0010
,
0001
0100
0001
0100
0001
0100
0001
1000
0100
1000
0100
1000
0100
1000
0001
2000
,
0002
0000
0000
3003
,
0101
0000
0000
0000
1010
0000
0000
1000
0001
0000
0010
0000
0100
0000
1000
0000
,
0001
0000
0100
0010
0100
0000
0001
0010
0001
0000
1000
0010
1000
0000
0200
0000
,
0000
0000
1300
0001
1000
0000
0010
0000
0001
0000
1000
0000
0100
0000
0002
0000
,
0000
0000
1003
0100
1000
0000
0001
0100
0001
0000
0010
0100
0010
0000
0001
0000
,
0101
0000
0000
0000
1010
0000
0000
1000
0001
0000
0010
0000
0100
0000
2100
0000
,
0000
3001
0100
0110
0000
1001
0000
0102
,
0000
1003
0100
0110
0000
1001
0000
1000
,
0100
0000
0010
0000
0001
0000
0100
0000
0010
0000
1000
0100
1000
0000
0001
0100
,
0001
0000
1000
0010
1000
0000
0001
0010
0001
0000
0100
0010
0100
0000
0001
0000
,
1000
0000
0100
0010
0100
0000
1000
0010
1000
0000
0001
0010
0001
0000
0100
0000
,
0110
0000
1001
0000
0001
0010
0100
2000
,
0000
0000
3001
0100
0001
0000
1000
0100
1000
0000
0010
0100
0010
0000
1000
0000
,
1100
0000
0000
0000
0011
0000
0000
0001
1000
0000
0010
0000
0100
0000
0102
0000
,
0000
1003
0100
0110
0000
1001
0000
2100
,
0000
3001
1000
0010
0100
0001
0010
0100
,
1000
0010
1000
0000
0001
0010
0001
0000
0100
0010
0100
0010
1000
0001
1000
0002
,
2000
0000
0000
0000
,
0000
0000
0000
3003
,
0202
0000
0000
0000
0303
0000
0000
2020
0000
0000
0000
0000
3030
0000
0000
2200
,
0000
0000
0000
0000
3300
0000
0000
0022
0000
0000
0000
0000
0033
0000
0000
0000
,
2002
0000
0000
0000
3003
0000
0000
2020
0000
0000
0000
0000
3030
0000
0000
0022
,
0000
0000
0000
0000
0000
0000
0000
0000
0033
0000
0000
0000
0000
0000
0220
0000
0000
0000
0000
0000
0000
0000
0000
0000
0330
0000
0000
0000
0000
0000
0001
2000
,
0002
0000
0000
0000
3003
0000
0000
0022
0000
0000
0000
0000
0033
0000
0000
2020
,
0000
0000
0000
0000
0000
0000
0000
0000
3030
0000
0000
0000
0000
0000
0220
0000
0000
0000
0000
0000
0000
0000
0000
0000
0330
0000
0000
0000
1000
0001
0100
0010
,
0100
0000
0000
0000
;

//---------------dance-single - Daff_4K----------------
#NOTES:
     dance-single:
     Daff_4K:
     Challenge:
     16:
     0.686053,0.912702,0.393912,0.561534,0.645345,573.000000,526.000000,47.000000,67.000000,0.000000,0.000000,0.686053,0.912702,0.393912,0.561534,0.645345,573.000000,526.000000,47.000000,67.000000,0.000000,0.000000:
// measure 0
0000
0000
0000
0000
,  // measure 1
0000
0000
0000
0000
,  // measure 2
0000
0000
0000
0000
,  // measure 3
0000
0000
0000
0000
,  // measure 4
2001
0100
0001
0010
,  // measure 5
0001
0000
3100
0000
1000
0010
0100
0000
,  // measure 6
1002
0100
1000
0010
,  // measure 7
1000
0000
0103
0000
0001
0010
0100
1000
,  // measure 8
1010
0101
0011
1100
,  // measure 9
1000
0010
0100
0001
0010
0100
1000
0001
,  // measure 10
1000
0010
1000
0010
1000
0010
1000
0010
0100
0001
0100
0001
0100
0001
0100
0001
,  // measure 11
0010
0100
0010
0100
1000
0001
1000
0001
0100
0010
0100
0010
1000
0001
1000
0000
,  // measure 12
1010
1010
0000
0101
0101
0000
0011
0011
,  // measure 13
0000
0000
1100
0000
1100
0000
0000
0000
1000
0000
0001
1000
0001
0010
0200
0000
,  // measure 14
0000
0000
1300
0000
0001
0000
0100
0010
1000
0000
0100
0010
0002
0000
0000
0000
,  // measure 15
1003
0000
0010
0100
0010
0000
0001
0000
0010
0000
1000
0000
0100
0000
0010
0100
,  // measure 16
0020
0000
0000
0000
0031
0000
1000
0001
1000
0000
0010
0100
0001
0010
0100
1000
,  // measure 17
0002
0000
1000
0000
1003
0001
0100
0010
1000
0000
0100
0000
0001
0000
0120
0000
,  // measure 18
0000
0000
0031
0000
1000
0001
1000
0001
0100
0000
0010
0000
1000
0000
0100
0010
,  // measure 19
0100
0000
1000
0001
2000
0000
0000
0000
3010
0000
0100
0000
0001
0000
0010
0100
,  // measure 20
0020
0000
0000
0000
0031
0000
1000
0001
1000
0000
0010
0100
0001
0000
2001
0000
,  // measure 21
0000
0000
3100
0000
0010
0000
1001
0000
0100
0000
1001
0000
1000
0010
0200
0000
,  // measure 22
0000
0000
0301
0000
1000
0000
0100
0010
0001
0000
0100
0010
2000
0000
0000
0000
,  // measure 23
3001
0000
0010
0100
0010
0000
1000
0000
0010
0000
0001
0000
0100
0000
0010
0100
,  // measure 24
0020
0000
0000
0000
1030
0000
0001
1000
0001
0000
0010
0100
1000
0010
0100
0001
,  // measure 25
2000
0000
0001
0000
3001
1000
0100
0010
0001
0000
0100
0000
1000
0000
0120
0000
,  // measure 26
0000
0000
1030
0000
0001
1000
0001
1000
0100
0000
0010
0000
0001
0000
0100
0010
,  // measure 27
0100
0000
0001
1000
0002
0000
0000
0000
0013
0000
0100
0000
1000
0000
0010
0100
,  // measure 28
0020
0000
0000
0000
1030
0000
0001
1000
0001
0000
0010
0100
1000
0000
0001
0000
,  // measure 29
1000
0010
1000
0000
0001
0010
0001
0000
0100
0010
0100
0010
0100
0010
0100
0000
,  // measure 30
2002
0000
0000
0000
3003
0000
0000
2200
0000
0000
0000
0000
3300
0000
0000
0022
,  // measure 31
0000
0000
0000
0000
0000
0000
0000
0000
0033
0000
0000
0000
0000
0000
0220
0000
0000
0000
0000
0000
0000
0000
0000
0000
0330
0000
0000
0000
0000
0000
0010
0002
,  // measure 32
2000
0000
0000
0000
3003
0000
0000
0202
0000
0000
0000
0000
0303
0000
0000
2020
,  // measure 33
0000
0000
0000
0000
3030
0000
0000
0220
0000
0000
0000
0000
0330
0000
0000
0000
,  // measure 34
2001
0000
3100
0010
1002
0000
0013
0100
,  // measure 35
1000
0010
0001
0010
1000
0100
0010
0001
,  // measure 36
1002
0000
0103
0010
2001
0000
3010
0100
,  // measure 37
0001
0010
1000
0010
0001
0100
0010
1000
,  // measure 38
0100
0001
0100
1000
0001
0100
1000
0100
,  // measure 39
0001
0001
1000
1000
0100
0100
0010
0010
,  // measure 40
0001
0100
0001
0100
0001
0100
0001
0100
0010
1000
0010
1000
0010
1000
0010
1000
,  // measure 41
0100
0010
0100
0010
0001
0100
0010
1000
0100
0010
0001
1000
0001
0000
0000
0000
,  // measure 42
0101
0000
0000
0000
1010
0000
0000
1000
0001
0000
0010
0000
1000
0000
0010
0000
,  // measure 43
0001
0000
1000
0010
0100
0010
1000
0100
0010
0001
0100
0010
0100
0001
1000
0000
,  // measure 44
0001
0000
0010
0100
0010
0000
0001
1000
0001
0000
0100
0000
0010
0000
1000
0000
,  // measure 45
0001
0000
1000
0100
0010
0001
0010
0100
1000
0010
0100
0001
0100
0010
1000
0100
,  // measure 46
0010
0000
0000
0000
1001
0000
0000
0001
0010
0000
0100
1000
0100
0000
1000
0000
,  // measure 47
0010
0000
0001
0000
0010
0000
2000
0000
0100
0000
3020
0000
0100
0000
1030
0001
,  // measure 48
1000
0000
0100
0000
0010
0000
0002
0000
0100
0000
0023
0000
0100
0000
0031
1000
,  // measure 49
0001
0000
0100
0000
0010
0000
1000
0001
1000
0000
0100
0010
0100
0010
0001
0100
,  // measure 50
0001
0000
1000
0100
1000
0000
0001
0010
0100
0000
1000
0010
0100
0000
0001
0000
,  // measure 51
1000
0000
0001
0010
0100
0010
0001
0100
0010
1000
0100
0010
0100
1000
0001
0000
,  // measure 52
1000
0000
0010
0100
0010
0000
1000
0001
1000
0000
0100
0000
0010
0000
0001
0000
,  // measure 53
1000
0000
0001
0100
0010
1000
0010
0100
0001
0010
0100
1000
0100
0010
0001
0100
,  // measure 54
0010
0000
0000
0000
1001
0000
0000
1000
0010
0000
0100
0001
0100
0000
0001
0000
,  // measure 55
0010
0000
1000
0000
0010
0000
0002
0000
0100
0000
2003
0000
0100
0000
3010
0100
,  // measure 56
0010
0000
1000
0000
0001
0000
0010
0000
0100
0000
1000
0010
1000
0010
0100
0001
,  // measure 57
0100
0001
0010
0100
1000
0010
0100
0001
1000
0100
0010
0001
0100
0010
1000
0002
,  // measure 58
2000
0000
0000
0000
3003
0000
0000
2200
0000
0000
0000
0000
3300
0000
0000
0202
,  // measure 59
0000
0000
0000
0000
0000
0000
0000
0000
0303
0000
0000
0000
0000
0000
0220
0000
0000
0000
0000
0000
0000
0000
0000
0000
0330
0000
0000
0000
0000
0000
0010
0002
,  // measure 60
2000
0000
0000
0000
3003
0000
0000
0202
0000
0000
0000
0000
0303
0000
0000
2200
,  // measure 61
0000
0000
0000
0000
3300
0000
0000
0220
0000
0000
0000
0000
0330
0000
0000
0000
,  // measure 62
2010
0000
0000
0000
3100
0000
0000
0201
0000
0000
0000
0000
0310
0000
0000
1002
,  // measure 63
0000
0000
0000
0000
0000
0000
0000
0000
0103
0000
0000
0000
0000
0000
2010
0000
0000
0000
0000
0000
0000
0000
0000
0000
3001
0000
0000
0000
1000
0000
0100
0010
,  // measure 64
0002
0000
0000
0000
0103
0000
0000
1200
0000
0000
0000
0000
0310
0000
0000
2001
,  // measure 65
0000
0000
0000
0000
0000
0000
0000
0000
3100
0000
0000
0000
0000
0000
0012
0000
0000
0000
0000
0000
0000
0000
0000
0000
1003
0000
0000
0000
0010
0100
0001
1000
,  // measure 66
0100
0000
0000
0000
;
