#VERSION:0.83;
#TITLE:SUNSET;
#SUBTITLE:;
#ARTIST:KNK;
#TITLETRANSLIT:;
#SUBTITLETRANSLIT:;
#ARTISTTRANSLIT:;
#GENRE:;
#ORIGIN:;
#TAGS:;
#CREDIT:;
#BANNER:SUNSET.png;
#BACKGROUND:SUNSET-bg.png;
#PREVIEWVID:;
#JACKET:SUNSET-jacket.png;
#CDIMAGE:;
#DISCIMAGE:;
#LYRICSPATH:SUNSET.lrc;
#CDTITLE:;
#MUSIC:SUNSET.ogg;
#OFFSET:0.002500;
#SAMPLESTART:15.797497;
#SAMPLELENGTH:15.000000;
#SELECTABLE:YES;
#BPMS:0.000000=120.000000;
#STOPS:;
#DELAYS:;
#WARPS:;
#TIMESIGNATURES:0.000000=4=4;
#TICKCOUNTS:0.000000=4;
#COMBOS:0.000000=1;
#SPEEDS:0.000000=1.000000=0.000000=0;
#SCROLLS:0.000000=1.000000;
#FAKES:;
#LABELS:0.000000=Song Start;
#LASTSECONDHINT:113.497498;
#BGCHANGES:;
#KEYSOUNDS:;
#ATTACKS:
;

//---------------dance-single - ----------------
#NOTEDATA:;
#CHARTNAME:;
#STEPSTYPE:dance-single;
#BANNER:;
#DESCRIPTION:;
#CHARTSTYLE:;
#DIFFICULTY:Beginner;
#METER:2;
#METERF:0.000000;
#RADARVALUES:0.121894,0.219409,0.104480,0.095774,0.000000,98.000000,86.000000,12.000000,11.000000,0.000000,0.000000,0.000000,0.000000,0.000000,0.121894,0.219409,0.104480,0.095774,0.000000,98.000000,86.000000,12.000000,11.000000,0.000000,0.000000,0.000000,0.000000,0.000000;
#CREDIT:DJEmbrace;
#NOTES:
// measure 0
0000
0000
0000
0000
,  // measure 1
0000
0000
0000
0000
,  // measure 2
0000
0000
0000
0000
,  // measure 3
0000
0000
0000
0000
,  // measure 4
1000
1000
0000
1000
,  // measure 5
0000
0001
0000
0001
,  // measure 6
0000
0010
0000
0010
,  // measure 7
0000
0200
0000
0300
,  // measure 8
0100
0000
0000
0000
,  // measure 9
0010
0000
0000
0000
,  // measure 10
0001
0000
0000
0000
,  // measure 11
1000
0000
0000
0000
,  // measure 12
1001
0000
0000
0000
,  // measure 13
0110
0000
0000
0000
,  // measure 14
1001
0000
0000
0000
,  // measure 15
0110
0000
0000
0000
,  // measure 16
0001
0000
0001
0000
,  // measure 17
1000
0000
1000
0000
,  // measure 18
0010
0000
0100
0000
,  // measure 19
0100
0000
0010
0000
,  // measure 20
0010
0000
2000
0000
,  // measure 21
3000
0000
0002
0000
,  // measure 22
0003
0000
0020
0000
,  // measure 23
0030
0000
0100
0100
,  // measure 24
0100
0000
0010
0000
,  // measure 25
0001
0000
0100
0100
,  // measure 26
0100
0000
0010
0000
,  // measure 27
1000
0000
0100
0100
,  // measure 28
0100
0000
0010
0010
,  // measure 29
0000
0000
0100
0100
,  // measure 30
0000
0000
0010
0000
,  // measure 31
0010
0000
0010
0000
,  // measure 32
0220
0000
0000
0000
,  // measure 33
0000
0000
0000
0000
,  // measure 34
0330
0000
0000
0000
,  // measure 35
0000
0000
0000
0000
,  // measure 36
0001
0001
0001
0001
,  // measure 37
0001
0001
0001
0001
,  // measure 38
1000
0000
1000
0000
,  // measure 39
0000
0000
0000
0000
,  // measure 40
1001
0000
0000
0010
,  // measure 41
0010
0000
0000
0100
,  // measure 42
0100
0000
0000
0010
,  // measure 43
0010
0000
0000
0000
,  // measure 44
1001
0000
0010
0000
,  // measure 45
0100
0000
0010
0000
,  // measure 46
1001
0000
0001
0000
,  // measure 47
1000
0000
0001
0000
,  // measure 48
2000
0000
3000
0000
,  // measure 49
0002
0000
0003
0000
,  // measure 50
0020
0000
0030
0000
,  // measure 51
0200
0000
0300
0000
,  // measure 52
0110
0000
0110
0000
,  // measure 53
0001
0000
0001
0000
,  // measure 54
1001
0000
1001
0000
,  // measure 55
0010
0000
0020
0000
,  // measure 56
0030
0000
0000
0000
;

//---------------dance-single - ----------------
#NOTEDATA:;
#CHARTNAME:;
#STEPSTYPE:dance-single;
#BANNER:;
#DESCRIPTION:;
#CHARTSTYLE:;
#DIFFICULTY:Easy;
#METER:6;
#METERF:0.000000;
#RADARVALUES:0.216424,0.291892,0.139307,0.191548,0.004353,174.000000,158.000000,16.000000,22.000000,0.000000,0.000000,0.000000,0.000000,0.000000,0.216424,0.291892,0.139307,0.191548,0.004353,174.000000,158.000000,16.000000,22.000000,0.000000,0.000000,0.000000,0.000000,0.000000;
#CREDIT:DJEmbrace;
#NOTES:
// measure 0
0000
0000
0000
0000
,  // measure 1
0000
0000
0000
0000
,  // measure 2
0000
0000
0000
0000
,  // measure 3
0000
0000
0000
0000
,  // measure 4
0001
1000
0000
0010
,  // measure 5
0000
0100
0000
0010
,  // measure 6
0000
1000
0000
0100
,  // measure 7
0020
0001
0000
0031
,  // measure 8
1002
0000
1003
0000
0000
0000
1000
0010
,  // measure 9
0020
0000
0130
0000
0000
0000
0100
0001
,  // measure 10
0002
0000
1003
0000
0000
0000
1000
0100
,  // measure 11
0200
0310
0000
0001
,  // measure 12
2010
0000
3010
0000
0000
0000
0010
1000
,  // measure 13
2000
0000
3001
0000
0000
0000
0010
0001
,  // measure 14
0002
0000
0103
0000
0000
0000
0100
0010
,  // measure 15
0020
2030
0000
3001
,  // measure 16
1001
0000
1000
0010
,  // measure 17
0100
0000
0001
0001
,  // measure 18
1000
0000
0100
0010
,  // measure 19
0100
0000
1000
0010
,  // measure 20
0010
0000
0200
0000
,  // measure 21
0301
0000
2000
0000
,  // measure 22
3100
0000
0020
0000
,  // measure 23
0031
1000
1001
0110
,  // measure 24
1001
0001
0000
1000
,  // measure 25
0000
0000
0000
0000
0010
0000
0000
0000
0100
0000
0000
0000
0100
0000
0000
0100
,  // measure 26
0000
0000
0000
0001
2000
0000
0000
0000
,  // measure 27
3001
0001
0010
0010
,  // measure 28
1100
0000
0000
0000
0001
1000
0001
1000
,  // measure 29
0000
0000
0000
0000
0010
0100
0010
0100
,  // measure 30
0000
0010
2000
3001
,  // measure 31
0002
2003
3020
0130
,  // measure 32
2002
0000
0000
0000
,  // measure 33
0000
0000
0000
0000
,  // measure 34
3003
0000
0000
0000
,  // measure 35
0000
0000
0000
0000
,  // measure 36
0001
0001
0001
0001
,  // measure 37
0001
0001
0001
0001
,  // measure 38
0010
0000
0100
0000
,  // measure 39
0000
0000
0000
0000
,  // measure 40
1100
0001
0010
0100
,  // measure 41
0110
0010
0001
0100
,  // measure 42
0101
1000
0100
0010
,  // measure 43
0110
0100
1000
0010
,  // measure 44
1002
0000
0010
0000
,  // measure 45
0100
0000
0000
0000
0013
0000
0000
1000
,  // measure 46
2000
0000
0010
0000
,  // measure 47
0100
0000
3010
0000
,  // measure 48
0101
0000
0000
1000
1000
0000
0000
0001
,  // measure 49
0001
0000
0000
1000
1000
0000
0000
0000
,  // measure 50
0010
0000
0000
0100
0100
0000
0000
0010
,  // measure 51
0010
0000
0000
0100
0100
0000
0000
0000
,  // measure 52
1001
0001
0010
0010
,  // measure 53
0100
0100
1000
1000
,  // measure 54
1001
1000
0010
0010
,  // measure 55
0100
0000
0100
0000
0001
0000
0001
0001
;

//---------------dance-single - ----------------
#NOTEDATA:;
#CHARTNAME:;
#STEPSTYPE:dance-single;
#BANNER:;
#DESCRIPTION:;
#CHARTSTYLE:;
#DIFFICULTY:Medium;
#METER:10;
#METERF:0.000000;
#RADARVALUES:0.373145,0.441756,0.217668,0.348268,0.296028,300.000000,275.000000,25.000000,40.000000,0.000000,0.000000,0.000000,0.000000,0.000000,0.373145,0.441756,0.217668,0.348268,0.296028,300.000000,275.000000,25.000000,40.000000,0.000000,0.000000,0.000000,0.000000,0.000000;
#CREDIT:DJEmbrace;
#NOTES:
// measure 0
0000
0000
0000
0000
,  // measure 1
0000
0000
0000
0000
,  // measure 2
0000
0000
0000
0000
,  // measure 3
0000
0000
0000
0000
,  // measure 4
1000
0002
0103
0002
,  // measure 5
1003
2000
3010
2000
,  // measure 6
3100
0020
0031
0200
,  // measure 7
0320
2030
3200
0310
,  // measure 8
2001
0000
0000
3001
0000
0000
1000
0000
0010
0000
1000
0000
0100
0000
0010
0000
,  // measure 9
0020
0000
0000
0031
0000
0000
0100
0000
0010
0000
0200
0000
0000
0000
0301
0000
,  // measure 10
0002
0000
0000
1003
0000
0000
0001
0000
0100
0000
0001
0000
0010
0000
0100
0000
,  // measure 11
0200
0000
0000
1300
0000
0000
0010
0000
0100
0000
0020
0000
0000
0000
1030
0000
,  // measure 12
1010
0000
0000
0000
0101
0000
0000
1000
0100
0000
0000
0010
0001
0000
0100
0000
,  // measure 13
0100
0000
0000
0010
1000
0000
0000
0100
0010
0000
0000
0001
1000
0000
0000
0000
,  // measure 14
1100
0000
0000
0000
0011
0000
0000
0001
0100
0000
0000
0010
1000
0000
0001
0000
,  // measure 15
0001
0000
0000
1000
0100
0000
0000
0010
0001
0000
0000
0100
0010
0000
0000
0000
,  // measure 16
2010
0000
3001
0000
0001
0010
1000
0010
,  // measure 17
0001
1000
0010
0000
0100
1000
0100
0001
,  // measure 18
1000
0000
0100
0000
1000
0010
0001
0010
,  // measure 19
1000
0000
0001
0000
0010
0000
0000
0010
0100
0000
0010
0000
0100
0000
0010
0000
,  // measure 20
0001
0000
2001
0000
0010
0000
3100
0010
,  // measure 21
0001
0000
1002
0000
0010
0000
0103
0010
,  // measure 22
1000
0000
0201
0000
1000
0000
0310
1000
,  // measure 23
0001
0000
0100
0000
1000
0000
0000
0000
1200
0000
0000
0000
0310
0000
0000
0100
,  // measure 24
0001
0020
1000
0032
,  // measure 25
0203
0000
0000
0000
1000
0000
0000
0000
0310
0000
1000
0000
0001
0000
0000
0001
,  // measure 26
0000
0000
1000
0100
1200
0000
0320
0000
,  // measure 27
1000
0000
0000
0000
0032
0000
0000
0000
1000
0000
0000
0000
0103
0000
0000
0100
,  // measure 28
0001
0000
0000
0000
0000
0000
1000
0001
1000
0000
0010
0000
0200
0000
0000
0301
,  // measure 29
0000
0000
0000
0000
0000
0000
0001
0000
1000
0000
0001
0000
0020
0000
0000
0130
,  // measure 30
0000
0000
0010
0001
0011
0000
1001
0000
,  // measure 31
0101
0000
0000
0000
1000
0100
0000
1000
0200
0000
0000
0000
0310
0000
0000
0000
,  // measure 32
2002
0000
0000
0000
,  // measure 33
0000
0000
0000
0000
,  // measure 34
3003
0000
0000
0000
,  // measure 35
0000
0000
0000
0000
,  // measure 36
1000
1000
1000
1000
,  // measure 37
0001
0001
0001
0001
,  // measure 38
0100
0000
0010
0000
,  // measure 39
0000
0000
0000
0000
,  // measure 40
1002
0000
0000
0103
0000
0010
0000
0100
0000
0001
0000
1000
0000
0100
0000
0000
,  // measure 41
0000
0010
0000
0001
0000
0010
0000
0100
0000
1000
0000
0001
0000
1000
0000
0000
,  // measure 42
1020
0000
0000
0130
0000
0100
0000
0001
0000
0001
0000
1000
0000
1000
0000
0000
,  // measure 43
0000
0010
0000
0010
0000
1000
0000
0001
0000
0000
1000
0000
0000
0000
0001
0000
,  // measure 44
0110
0000
0000
0000
1001
0000
0000
0001
0100
0000
0000
0100
0010
0000
1000
0000
,  // measure 45
1000
0000
0000
0000
0011
0000
0000
0010
0100
0000
0000
0100
1000
0000
0000
0000
,  // measure 46
0101
0000
0000
0000
1010
0000
0000
0010
0100
0000
0000
0100
0001
0000
1000
0000
,  // measure 47
1000
0000
0000
0000
1100
0000
0000
0100
0010
0000
0000
0010
0001
0000
0000
0000
,  // measure 48
1001
0000
0000
1000
0000
0000
0010
0000
1000
0000
0000
0001
0000
0000
0010
0000
,  // measure 49
0100
0000
0000
0010
0000
0000
0001
0000
0100
0000
0020
0000
0000
0000
1030
0000
,  // measure 50
1000
0000
0000
0001
0000
0000
1000
0000
0100
0000
0000
0010
0000
0000
0100
0000
,  // measure 51
1000
0000
0000
0010
0000
0000
0100
0000
0001
0000
0020
0000
0000
0000
0130
0000
,  // measure 52
0210
0000
0000
0000
1300
0000
0000
1000
0010
0000
0000
0010
0100
0000
0001
0000
,  // measure 53
2000
0000
0000
0000
3100
0000
0000
0100
0010
0000
0000
0010
0001
0000
0100
0000
,  // measure 54
0020
0000
0000
0000
0130
0000
0000
0100
0001
0000
0000
0001
1000
0000
0100
0000
,  // measure 55
0020
0000
0000
0000
0130
0000
0000
0100
1000
0000
0000
1000
0010
0000
0200
0000
,  // measure 56
0000
0000
0000
0300
0000
0000
0000
0000
;

//---------------dance-single - ----------------
#NOTEDATA:;
#CHARTNAME:;
#STEPSTYPE:dance-single;
#BANNER:;
#DESCRIPTION:;
#CHARTSTYLE:;
#DIFFICULTY:Hard;
#METER:14;
#METERF:0.000000;
#RADARVALUES:0.524890,0.635970,0.113187,0.287321,0.835844,422.000000,409.000000,13.000000,33.000000,0.000000,0.000000,0.000000,0.000000,0.000000,0.524890,0.635970,0.113187,0.287321,0.835844,422.000000,409.000000,13.000000,33.000000,0.000000,0.000000,0.000000,0.000000,0.000000;
#CREDIT:DJEmbrace;
#NOTES:
// measure 0
0000
0000
0000
0000
,  // measure 1
0000
0000
0000
0000
,  // measure 2
0000
0000
0000
0000
,  // measure 3
0000
0000
0000
0000
,  // measure 4
0001
0002
0103
0200
,  // measure 5
1300
2000
3100
0200
,  // measure 6
0301
0020
0130
0200
,  // measure 7
2300
3020
0100
1030
,  // measure 8
2001
0000
0000
3001
0010
0001
1000
0100
0000
1000
0000
1000
0000
0010
0100
0000
,  // measure 9
0200
0000
0301
0010
0000
0100
1000
0001
0000
0100
0000
0100
0000
0010
1000
0000
,  // measure 10
2000
0000
3001
0100
0000
0010
0100
1000
0000
0100
0000
0100
0000
0001
1000
0000
,  // measure 11
2000
0000
3001
0010
0000
0100
0010
1000
0000
1000
0010
0000
0001
0000
0100
0000
,  // measure 12
0201
0000
0000
0310
0000
0010
1000
0010
0000
0010
0100
0010
0000
0010
1000
0010
,  // measure 13
2000
0000
0000
3100
0000
0100
0010
0100
0000
0100
1000
0100
0000
0100
0010
0100
,  // measure 14
0020
0000
0031
1000
0000
1000
0001
0100
0000
0100
0001
1000
0000
1000
0001
0010
,  // measure 15
0002
0000
0013
0100
0000
0100
0010
0001
0000
0001
0010
0100
0000
0100
1000
0000
,  // measure 16
1002
0000
0000
0000
0103
0000
0000
0000
0110
0000
0100
0010
0000
0001
0000
0010
,  // measure 17
1000
0000
0001
0000
0001
0000
0000
0000
1100
0000
1000
0100
0000
0001
0000
0100
,  // measure 18
0000
0000
0000
0000
1000
0000
0000
0000
1010
0000
0010
0100
0000
1000
0000
0100
,  // measure 19
0010
0000
1000
0000
1000
0000
0000
0001
0010
0000
0010
0100
0000
0001
0000
0100
,  // measure 20
0000
0000
0000
0000
1000
0001
0100
0010
0000
0100
0010
1000
0000
0010
1000
0001
,  // measure 21
0000
0000
0000
0000
1000
0001
0010
0001
0010
0100
1000
0001
0000
1000
0001
0100
,  // measure 22
0000
0000
0000
0000
0100
0001
1000
0001
0000
0010
0100
0010
0000
0001
1000
0002
,  // measure 23
0000
0000
0103
0000
0010
0100
0010
0100
0001
0010
0100
1000
0100
0010
0001
1000
,  // measure 24
0001
0000
0000
0000
0002
0100
0000
0100
0000
0100
0000
0100
0000
0103
0000
0000
,  // measure 25
0010
1000
0000
1000
0000
0001
1000
0100
0000
0010
0000
1000
0000
0010
0000
0001
,  // measure 26
1000
0000
0000
0000
0020
0100
0000
1000
0000
0100
0000
0100
0000
0130
0000
0000
,  // measure 27
0001
0010
0000
0001
0000
1000
0010
0100
0000
0010
0000
0001
0000
0010
0000
0010
,  // measure 28
1000
0000
0000
0001
1000
0000
0001
0001
1000
0000
0100
0000
1000
0000
0100
0100
,  // measure 29
1000
0000
0000
0001
1000
0000
0010
0100
0010
0000
1000
0000
0100
0000
0010
0010
,  // measure 30
0100
0000
0000
0000
0010
0001
1000
0000
0020
0000
0100
0000
1030
0000
0001
0000
,  // measure 31
2100
0000
0001
0000
3010
0100
0001
0100
0020
0000
0100
0000
1030
0001
0010
0000
,  // measure 32
0220
0000
0000
0000
,  // measure 33
0000
0000
0000
0000
,  // measure 34
0330
0000
0000
0000
,  // measure 35
0000
0000
0000
0000
,  // measure 36
0100
0100
0100
0100
,  // measure 37
0010
0010
0010
0010
,  // measure 38
0001
0000
1000
0000
,  // measure 39
0000
0000
0000
0000
,  // measure 40
1100
0000
0100
1000
0000
0001
1000
0010
0000
0010
0000
0010
0000
0010
0100
0000
,  // measure 41
0100
0001
0000
0001
0000
0001
0010
0100
0000
0100
0010
0000
1000
0000
0010
0000
,  // measure 42
0010
0000
0001
0100
0000
0010
1000
0001
0000
0001
0000
0001
0000
0001
0010
0000
,  // measure 43
0010
0100
0000
0100
0000
0100
1000
0001
0000
0100
0010
0000
0001
0000
0010
0000
,  // measure 44
0102
0000
1000
0000
0010
0000
0013
0100
0000
0100
0010
1000
0010
0000
0100
0000
,  // measure 45
0100
0010
0001
0000
1000
0000
0001
0100
0000
0100
0010
0001
0010
0000
1000
0000
,  // measure 46
1000
0001
0010
0000
0001
1000
0100
0001
0000
0001
0100
0010
0001
0000
0010
0000
,  // measure 47
0010
0001
1000
0000
1000
0001
0100
1000
0000
1000
0100
0010
1000
0001
0000
0000
,  // measure 48
1001
0000
0000
1000
0000
0000
0010
0000
0010
0000
0000
1000
0000
0000
0100
0000
,  // measure 49
0100
0000
0000
1000
0000
0000
0001
0000
0001
0000
0200
0000
0000
0000
0310
0000
,  // measure 50
1000
0000
0000
0100
0000
0000
0010
0000
0010
0000
0000
0001
0000
0000
0100
0000
,  // measure 51
0100
0000
0000
0010
0000
0000
1000
0000
1000
0000
0002
0000
0000
0000
0013
0000
,  // measure 52
1002
0000
0000
0103
0000
0100
0001
0010
0000
0010
0001
0100
0000
0100
0001
1000
,  // measure 53
0200
0000
0000
0310
0000
0100
1000
0010
0000
0010
1000
0100
0000
0100
1000
0000
,  // measure 54
2010
0000
0000
0001
0000
0000
3100
0000
0010
0001
0010
0001
0000
1000
0010
1000
,  // measure 55
0020
0000
0000
0100
0000
0000
1030
0000
0001
0010
0001
0010
0000
0100
1000
0020
,  // measure 56
0000
0000
0000
0030
0000
0000
0000
0000
0000
0000
0000
0000
0000
0000
0000
0000
;
