#VERSION:0.83;
#TITLE:ΣXEΔON;
#SUBTITLE:;
#ARTIST:dj VERTICAI;
#TITLETRANSLIT:SKHEDON;
#SUBTITLETRANSLIT:;
#ARTISTTRANSLIT:;
#GENRE:;
#ORIGIN:;
#CREDIT:;
#BANNER:SKHEDON.png;
#BACKGROUND:SKHEDON-bg.png;
#PREVIEWVID:;
#JACKET:SKHEDON-jacket.png;
#CDIMAGE:;
#DISCIMAGE:;
#LYRICSPATH:;
#CDTITLE:;
#MUSIC:SKHEDON.ogg;
#OFFSET:-1.295621;
#SAMPLESTART:11.397057;
#SAMPLELENGTH:15.000000;
#SELECTABLE:YES;
#BPMS:0.000=190.000;
#STOPS:;
#DELAYS:;
#WARPS:;
#TIMESIGNATURES:0.000=4=4;
#TICKCOUNTS:0.000=4;
#COMBOS:0.000=1;
#SPEEDS:0.000=1.000=0.000=0;
#SCROLLS:0.000=1.000;
#FAKES:;
#LABELS:0.000=Song Start;
#BGCHANGES:;
#KEYSOUNDS:;
#ATTACKS:
;

//---------------dance-single - ----------------
#NOTEDATA:;
#CHARTNAME:;
#STEPSTYPE:dance-single;
#DESCRIPTION:;
#CHARTSTYLE:;
#DIFFICULTY:Hard;
#METER:15;
#RADARVALUES:0.738195,0.848201,0.175813,0.359270,0.126127,676.000000,653.000000,23.000000,47.000000,0.000000,0.000000,0.000000,0.000000,0.000000,0.738195,0.848201,0.175813,0.359270,0.126127,676.000000,653.000000,23.000000,47.000000,0.000000,0.000000,0.000000,0.000000,0.000000;
#CREDIT:;
#NOTES:
0000
0000
0000
0000
,
0000
0000
0000
0000
,
0000
0000
0000
0000
,
0000
0000
0000
0000
,
0000
0000
0000
0000
,
0000
0000
0000
0000
,
0000
0000
0000
0000
,
0000
0000
0000
0000
,
0001
1000
0100
1000
0010
0001
1000
0100
,
0001
0010
0001
0100
1000
0001
0010
0100
,
0001
0010
0100
0010
1000
0001
0100
1000
,
0001
0100
0010
0100
0001
0010
0100
1000
,
0010
1000
0100
0100
0000
0100
1000
0001
,
0100
0001
0100
0010
0100
1000
0100
0010
,
1000
0001
0010
0200
0000
1300
0010
0200
,
0000
0301
1000
0100
1000
0010
0100
0001
,
0010
0001
0100
0100
0000
0100
0001
1000
,
0200
0302
0023
2030
,
3001
0000
0001
0000
0001
0000
0001
0000
0001
0000
0100
0000
0010
0000
1000
0001
,
1000
1000
1000
1000
1000
0100
0010
0001
,
1000
0010
1010
0000
0001
0101
0000
0001
,
0011
0000
1000
1100
0000
0100
0120
0000
,
0100
1000
0100
0001
,
0130
1000
0001
0100
0001
1000
0100
1000
,
0010
0000
0100
0000
0001
0000
1000
0000
0010
1000
0001
0000
0010
0001
1000
0000
,
0002
0000
0000
0003
,
2000
0000
0100
0002
3000
0010
2000
0003
,
0100
0002
3000
0010
2000
0003
3010
0100
,
0002
0000
0100
2000
0003
0010
0002
3000
,
0100
2000
0003
3010
0100
1000
0100
0010
,
2000
0000
0100
0002
3000
0010
2000
0003
,
0010
0002
3000
0100
2000
0003
3010
0100
,
0002
0000
0010
2000
0003
0100
0002
3000
,
0100
2000
0003
3001
0010
0100
0001
0100
,
1000
0000
1000
0100
0010
0001
0011
0000
,
0001
0100
0010
1000
1010
0000
0010
0100
,
0110
0000
0100
0001
1000
0100
1100
0000
,
0100
0000
1000
0000
0001
0000
0100
0000
0010
1000
0010
0000
0100
0001
0100
0000
,
0001
0000
0010
0020
0000
0130
1000
0002
,
0000
1003
0010
0100
0002
0000
2003
0000
,
3100
0000
0100
0010
0000
0010
0200
0000
,
1300
0000
0001
0000
0010
0000
0100
0000
0010
0001
0010
0000
0100
1000
0100
1000
,
0001
0100
0010
1000
0010
0100
0001
0010
,
1000
0010
0001
0010
0100
1000
0010
0100
,
0010
1000
0001
0100
1000
0100
0001
0010
,
0100
1000
0001
0010
0001
0100
0001
1000
,
1000
0010
0100
0001
0010
1000
0001
0100
,
1000
0001
0100
0010
1000
0010
0001
0010
,
0100
0001
1000
0100
0010
0100
1000
0100
,
0010
0001
0001
0001
0001
1000
0010
0100
,
0001
0010
0100
0001
0100
1000
0010
0100
,
0001
1000
0100
0010
0001
1000
0010
0001
,
0010
0100
0001
0010
0100
1000
0001
0100
,
0010
1000
0010
0100
1000
0100
0001
0010
,
0001
0000
0001
1000
0001
0100
0001
0020
,
0000
0031
1000
0100
1000
0010
1000
0001
,
1000
0000
1000
0100
0010
0001
0100
0010
,
0000
0000
0010
0000
0010
0000
0010
0000
0100
0000
0001
0000
1000
0001
1000
0001
,
0010
0100
1000
1100
0100
0010
0011
0001
,
2000
0000
3002
0000
0103
0010
0100
0010
,
1010
1000
0001
0101
0100
0010
1010
1000
,
0002
0000
2003
0000
3100
0010
0200
0000
,
1300
0100
0010
0001
0010
0100
1000
0001
,
0100
0010
0100
0001
1000
0000
0001
1001
,
0000
0010
0110
0000
1000
1001
0000
0001
,
0020
0000
0130
1000
0001
0010
0100
1000
,
0001
0010
0100
1000
0001
0010
0100
1000
,
0001
0100
0010
1000
0001
0010
0100
1000
,
0001
0000
1000
0000
0001
0000
1000
0000
0001
0000
0100
0000
0010
1000
0001
1000
,
0001
0010
0100
0010
0100
0010
0100
0010
,
0100
0010
0001
1000
0010
0100
0001
0010
,
0001
0010
1000
0010
0100
1000
0100
0001
,
0100
0000
1000
0001
0000
0000
0100
0000
0001
1000
0000
0000
0100
0000
1000
0000
,
0001
0100
1000
0100
0010
1000
0010
0001
,
0010
0000
0010
1000
0100
0001
0100
1000
,
1001
0000
1000
0001
0010
1000
0010
0001
,
1000
0000
0100
0010
0000
0000
0100
0000
1000
0010
0000
0000
0100
0000
0001
0000
,
1000
0010
0100
0001
0100
1000
0100
0010
,
1000
0000
0000
0000
0001
0010
0001
0000
1000
0010
1000
0000
0001
0000
0010
0000
,
0100
1000
0010
0001
0010
1000
0100
0001
,
0100
0000
0010
0001
0000
0000
0100
0000
0010
1000
0000
0000
0010
0000
0100
0000
,
0001
0010
1000
0010
0001
0100
1000
0100
,
0010
0000
1000
0001
0010
0001
1000
0010
,
0100
0001
0010
0010
0000
0010
0100
1000
,
0010
1000
0010
0100
0010
0001
0010
0100
,
0001
1000
0100
0100
0000
1000
0001
0100
,
0010
1000
0010
0000
1000
0001
1000
0000
0100
1000
0100
0000
1000
0000
0001
0000
,
1000
0100
0010
0020
0000
0000
0030
0001
,
0020
2030
3200
0302
,
0013
0001
0010
0001
0010
0001
1000
0010
,
0100
0000
0010
0000
1000
0000
0010
0000
1000
0000
0010
0000
1000
0001
1000
0002
,
0003
0000
0101
0001
1000
1010
0010
1000
,
1100
0100
0010
0011
0001
0100
0120
0000
,
0100
1000
0001
1000
,
0130
0010
0100
0001
1000
0001
0010
0100
,
0010
0001
0100
0010
1000
0100
0010
0001
,
0010
0100
0010
0000
0001
1000
0001
0000
0100
0001
0100
0010
1000
0010
0100
0001
,
0000
0000
0000
0000
0000
0000
0000
0000
0000
0000
0000
0000
0001
0010
0100
2000
,
0200
0000
0000
0000
,
0000
0000
0000
0000
,
0000
0000
0000
0000
0000
0000
0000
3300
;

//---------------dance-single - ----------------
#NOTEDATA:;
#CHARTNAME:;
#STEPSTYPE:dance-single;
#DESCRIPTION:;
#CHARTSTYLE:;
#DIFFICULTY:Challenge;
#METER:18;
#RADARVALUES:1.026484,1.195192,0.282829,0.305761,0.974614,940.000000,903.000000,37.000000,40.000000,0.000000,0.000000,0.000000,0.000000,0.000000,1.026484,1.195192,0.282829,0.305761,0.974614,940.000000,903.000000,37.000000,40.000000,0.000000,0.000000,0.000000,0.000000,0.000000;
#CREDIT:;
#NOTES:
0000
0000
0000
0000
,
0000
0000
0000
0000
,
0000
0000
0000
0000
,
0000
0000
0000
0000
,
0000
0000
0000
0000
,
0000
0000
0000
0000
,
0000
0000
0000
0000
,
0000
0000
0000
0000
,
1000
0000
0001
0000
0100
0000
0001
0000
0010
0000
1000
0000
0010
0000
0001
1000
,
0001
0000
0100
0000
1000
0000
0100
0000
0001
0000
1000
0000
0010
0100
0010
0100
,
0001
0000
0010
0000
0100
0000
0010
0000
1000
0000
0001
0000
0100
0000
1000
0001
,
1000
0000
0010
0000
0100
0000
0010
0000
0001
0000
0010
0000
0100
0001
1000
0001
,
0010
0100
1000
1000
0000
0100
1000
0001
,
0001
0000
0100
0001
0100
0000
0010
0100
0010
0000
1000
0010
1000
0000
1000
0000
,
0001
0010
0100
0120
0000
0031
1000
2001
,
0000
3010
0100
0210
0000
0310
0100
0001
,
1000
0100
0010
0010
0000
0010
0001
1000
,
0010
0000
0100
0010
1000
0000
0001
1000
0100
0000
1000
0001
0010
0000
0001
0010
,
0100
0000
0100
0000
0100
0000
0100
0000
0100
0000
0100
0000
0100
0000
0010
0100
,
1000
0000
1000
0000
0001
0000
0001
0000
0100
0001
0100
0010
1000
0010
0100
0020
,
0030
0000
0000
0000
1010
0000
1000
0001
1000
0000
1100
0000
0100
0010
0001
0000
,
0011
0000
0001
1000
0001
0000
0101
0000
0100
0010
1000
0000
2001
0000
0000
0000
,
0100
0000
3001
0010
1000
1000
0010
0001
,
0001
0010
1000
1000
0010
0001
0010
0100
,
0010
0000
0001
0000
0100
0000
0010
0000
1000
0010
0100
0001
1000
0001
0100
0010
,
1000
0000
1000
0000
1000
0000
1000
0000
0010
0100
0000
0001
0000
0100
0010
0000
,
2000
0010
0001
3002
0100
1000
2003
0010
,
0001
3002
0100
1000
2003
3020
0032
0023
,
2030
0100
0001
3002
0010
1000
2003
0100
,
0001
0000
3002
0000
0010
0000
1003
0000
0001
0100
0001
1000
0010
0100
0010
1000
,
0002
0010
1000
2003
0100
0001
3002
0100
,
1000
2003
0010
0001
3002
0023
2030
3020
,
0032
1003
0100
1100
1000
0001
0101
0100
,
0010
0000
1010
0000
1000
0000
0001
0000
0010
0001
0010
0100
1000
0001
1000
0010
,
0100
0010
1000
1010
0010
0100
0110
0010
,
0001
0011
0010
0100
0110
0000
1000
0001
,
0011
0010
0100
0110
0010
1000
1010
0010
,
0100
0000
1000
0000
0001
0000
0100
0000
0010
1000
0001
1000
0100
0010
0001
0010
,
0100
0000
0110
1001
0000
0001
0100
0010
,
1000
0000
0100
0000
1000
0000
0100
0010
0100
0000
0010
0001
0010
0000
0001
1000
,
0001
0000
0000
0101
0000
0000
1000
0001
1000
0000
0000
1100
0000
0000
0100
0010
,
0100
0000
1000
0000
0010
0000
1000
0000
0100
0010
0001
0010
0100
1000
0100
0010
,
0001
0000
1000
0010
1000
0000
0100
0000
1000
0010
1000
0000
0001
0000
0010
0000
,
0100
1000
0001
0000
0100
0001
1000
0000
0001
1000
0010
1000
0001
0000
0100
0000
,
0010
0100
0001
1000
0001
0000
1000
0001
0010
0100
0010
0000
0100
0000
1000
0000
,
0100
0010
0001
0000
1000
0010
0100
0010
0001
0000
0010
0000
0100
0000
0001
0000
,
0010
0000
0100
1000
0100
0000
0010
0000
0001
1000
0001
0100
0010
0000
1000
0001
,
1000
0000
0100
1000
0100
0010
0001
0000
0100
0001
0100
0010
1000
0001
0100
0010
,
1000
0000
1000
0001
0100
0001
1000
0000
0001
1000
0100
0010
0100
0000
0010
0001
,
0010
0100
1000
0000
1000
0000
1000
0001
1000
0010
0100
0010
1000
0001
0100
0000
,
0001
0100
0001
1000
0010
0000
0010
1000
0001
0100
0001
0000
1000
0001
0010
0001
,
1000
0100
1000
0001
0010
0000
0010
0001
1000
0100
1000
0000
0100
0010
0100
1000
,
0001
0000
0010
0000
1000
0000
0010
0100
0010
0001
1000
0001
0100
0010
0100
0001
,
1000
0000
0001
0000
0100
0001
1000
0010
1000
0001
0100
0001
1000
0100
0010
0001
,
0010
0000
0100
0000
0010
0000
0100
0000
0010
0001
1000
0100
1000
0001
0100
0000
,
0001
0000
0100
0000
0001
0000
0100
0000
0001
1000
0010
0100
0001
0100
0010
0000
,
1000
0000
0001
1000
0100
1000
0100
1000
0100
1000
0100
1000
0100
1000
0002
0000
,
0003
0000
0001
0000
0001
0000
0001
0000
1000
0001
0010
0100
0010
0001
0100
0010
,
1000
0010
0001
0011
0010
1000
1010
0010
,
0200
0000
0000
0000
0320
0000
0000
0000
1030
0000
0001
0000
0100
0000
0001
0010
,
0001
0010
1000
1010
0010
0001
0011
0010
,
0200
0000
0000
0000
0320
0000
0000
0000
0031
0000
1000
0000
0010
1000
0001
1000
,
0100
0010
0001
0001
0010
0100
1000
0010
,
0100
0000
0100
0000
0010
1000
0001
1000
0001
0000
0000
0000
1000
0000
1001
0000
,
0000
0100
0110
0000
0001
1001
0000
1000
,
0020
0000
0000
0000
0130
0001
1000
0010
0000
0000
0100
0001
1000
0010
0000
0000
,
0100
0001
1000
0010
0000
0000
0100
0001
1000
0010
0000
0000
0100
0001
1000
0010
,
1000
0001
1000
0000
0100
1000
0100
0000
0010
0100
0010
0000
0100
0010
0001
0010
,
0001
0010
0001
0010
0001
0010
0001
0010
0001
0000
1000
0000
0010
0000
0100
0000
,
0001
0000
0100
0000
0010
1000
0010
1000
0010
1000
0010
1000
0010
1000
0010
1000
,
0001
1000
0001
1000
0001
1000
0100
0010
0001
0000
1000
0000
0001
0010
0100
1000
,
0001
0000
0010
0000
1000
0000
0010
0100
0000
0010
0000
0001
0000
0001
1000
0000
,
0100
1000
0100
1000
0000
0000
0001
0100
0001
0100
0000
0000
0010
0000
1000
0000
,
0001
0000
0100
0000
1000
0000
0100
0010
0000
1000
0000
0010
0000
0100
0001
1000
,
0001
0000
0000
0000
0010
0100
1000
0000
0100
0010
0001
0000
1000
0001
1000
0010
,
0200
0000
0300
0000
0001
0000
0010
0100
0000
0010
0000
1000
0000
0010
0100
0000
,
0010
0001
0010
0001
0000
0000
1000
0010
1000
0010
0000
0000
0100
0000
0010
0000
,
1000
0000
0010
0000
0100
0000
0010
0100
0000
0001
0000
1000
0000
0100
1000
0001
,
1000
0000
0000
0000
0001
0010
0100
0000
1000
0100
0010
0000
0001
1000
0001
1000
,
0010
0000
0100
0000
0001
0000
0100
0010
1000
0000
0001
0000
0010
0000
0100
1000
,
0100
0010
0100
0010
0000
0000
0001
1000
0001
1000
0000
0000
0010
0100
0010
0100
,
0001
0000
0010
0000
1000
0000
0010
0100
0010
0000
0001
0000
0100
0000
0010
0100
,
0010
0000
0010
0000
1000
0010
1000
0010
0100
0010
0100
0010
0100
0001
0100
0001
,
1000
0100
0010
0010
0000
0010
0100
1000
,
0001
0000
1000
0100
1000
0000
0100
0010
0100
0000
0010
0001
0010
0000
0001
0000
,
1000
1000
0001
0101
0000
1100
1000
0100
,
0010
0001
0010
0001
1000
0001
1000
0001
1000
0010
1000
0010
0100
0000
0001
0000
,
1000
0100
0010
0220
0000
0000
0330
1000
,
0001
0000
0100
0001
1000
0000
0001
0100
0010
0000
1000
0001
0010
0000
0001
1000
,
0100
0100
0100
0100
0100
0100
1000
0001
,
0100
0000
0010
0000
0010
0000
0010
0000
1000
0000
0001
0000
0100
0001
1000
0020
,
0030
0000
0000
0000
0101
0000
0001
0100
0010
0000
1010
0000
1000
0001
1000
0000
,
1100
0000
0100
0010
0001
0000
0011
0000
0010
0100
0010
0000
0220
0000
0000
0000
,
0330
0000
0000
0000
0100
1000
0001
0010
0000
0000
0100
1000
0001
0010
0000
0000
,
0001
0100
0010
1000
0000
0000
0001
0100
0010
1000
0000
0000
0100
1000
0001
0010
,
0001
1000
0010
1000
0010
0000
1000
0001
0010
0001
0010
0000
0001
1000
0010
1000
,
0010
0100
0001
1000
0100
0010
0100
1000
0001
0100
0010
1000
0001
0010
0100
1000
,
0000
0000
0000
0000
0000
0000
0000
0000
0000
0000
0000
0000
1000
0001
0100
0002
,
0020
0000
0000
0000
,
0000
0000
0000
0000
,
0000
0000
0000
0000
0000
0000
0000
0033
;

//---------------dance-single - ----------------
#NOTEDATA:;
#CHARTNAME:;
#STEPSTYPE:dance-single;
#DESCRIPTION:;
#CHARTSTYLE:;
#DIFFICULTY:Medium;
#METER:12;
#RADARVALUES:0.544910,0.655428,0.244609,0.642099,0.000000,499.000000,467.000000,32.000000,84.000000,0.000000,0.000000,0.000000,0.000000,0.000000,0.544910,0.655428,0.244609,0.642099,0.000000,499.000000,467.000000,32.000000,84.000000,0.000000,0.000000,0.000000,0.000000,0.000000;
#CREDIT:;
#NOTES:
0000
0000
0000
0000
,
0000
0000
0000
0000
,
0000
0000
0000
0000
,
0000
0000
0000
0000
,
0000
0000
0000
0000
,
0000
0000
0000
0000
,
0000
0000
0000
0000
,
0000
0000
0000
0000
,
1000
0000
0001
1000
0010
0100
0010
1000
,
0001
0000
1000
0001
0010
0100
0010
0001
,
1000
0000
0100
0200
0300
0000
0010
0020
,
0000
0000
0031
2000
0000
3010
1000
0001
,
0100
0000
0010
0020
0000
0000
0030
1000
,
0020
2030
3200
0302
,
0103
0000
1000
2000
0000
0000
3010
0000
,
0010
1000
0001
0100
0001
1000
0010
0000
,
1000
0000
0100
0200
0000
0000
0300
0100
,
2000
3002
0203
0320
,
1030
0000
1001
0000
1001
0000
1000
0001
,
0100
0010
0020
0000
1030
0001
0010
0200
,
0300
0000
1100
0000
0000
0101
0000
0000
,
0011
0000
0000
1010
0000
0000
2002
0000
,
3003
0000
1000
0001
0100
0001
1000
0100
,
1000
0001
0100
0001
1000
0100
1000
0001
,
0010
0100
0010
0100
0010
0100
0010
0200
,
0020
0000
0000
0330
,
2000
0000
3100
0002
0000
0103
2000
0000
,
3100
0002
0000
0103
2000
0000
3010
0100
,
0002
0000
0103
2000
0000
3100
0002
0000
,
0103
2000
0000
3100
0001
1000
0001
0000
,
2000
0000
3010
0002
0000
0013
2000
0000
,
3010
0002
0000
0013
2000
0000
3010
0100
,
0002
0000
0013
2000
0000
3010
0002
0000
,
0013
2000
0000
3010
0001
1000
0001
0000
,
2000
0000
3100
0020
0000
0130
2000
0000
,
3010
0200
0000
0310
2000
0000
3010
0100
,
0002
0000
0013
0200
0000
0310
0002
0000
,
0103
0020
0000
0130
0001
1000
0001
0000
,
1100
0000
0010
0020
0000
0000
0030
0000
,
0002
0203
0320
2030
,
3100
0000
0100
1000
0010
0000
0010
0100
,
0001
1000
0001
0010
0100
1000
0001
0100
,
0010
0000
0100
0010
0000
0000
0010
1000
,
0002
0023
0230
2300
,
3001
0000
1000
0010
0000
0010
1000
0000
,
0200
0000
0300
0000
1000
0001
1000
0000
,
0010
0000
0100
0001
1000
0100
1000
0000
,
0001
0000
0100
0010
0000
0010
1000
0000
,
0100
0000
1000
0001
0000
1000
0001
0020
,
0000
0000
0030
0000
0001
1000
0001
0000
,
1000
0000
1100
0000
0100
0010
0001
0000
,
1000
0000
1010
0000
0010
0100
0001
0100
,
0001
0000
0001
0010
0000
0010
0100
0000
,
0011
1000
1010
0010
,
0110
0000
0110
0000
0110
0000
1000
0001
,
1001
0000
1001
0000
0001
1000
0100
0000
,
0110
0110
1001
0110
,
0001
0010
0100
1000
0100
0010
0001
1000
,
0001
0000
0100
0010
0000
0100
0002
0000
,
0000
0000
0000
0000
0003
0000
1000
0001
,
1000
0000
0100
0010
0000
0100
2000
0000
,
0000
0000
0000
0000
3000
0000
0001
1000
,
0001
0000
0100
0010
0000
0100
0001
0000
,
1000
0100
0000
0010
0100
0000
1000
0010
,
0000
0010
0100
0000
0100
0001
0000
0001
,
0020
0200
0000
0000
,
0000
0000
0000
0330
,
0100
1000
0100
0010
0001
0010
0100
1000
,
0001
1000
0001
1000
0001
0100
0010
0000
,
1000
0001
0010
0100
0010
0100
0010
0100
,
0010
0001
1000
0000
1100
0000
0011
0000
,
0001
0000
1000
0001
0100
0010
0100
0001
,
1000
0000
0001
1000
0100
0010
0100
1000
,
0001
0000
0100
0100
0000
0100
0020
0000
,
1030
0001
0010
0000
0001
1000
0010
0000
,
2000
3000
0001
1000
0010
0100
0010
1000
,
0001
0000
1000
0001
0010
0100
0010
0001
,
1000
0000
0100
0010
0000
0010
0010
0100
,
1000
0001
0010
0000
0001
1000
0010
0000
,
1001
0000
0001
0010
0100
1000
0100
0010
,
0001
0000
1000
0010
0100
0001
0100
0010
,
1000
0000
0100
0200
0300
0000
0010
0020
,
0000
0000
0130
2000
0000
3001
0100
0001
,
1000
0000
0010
0020
0000
0000
0030
1000
,
0020
0032
0023
2030
,
3100
0000
0010
0020
0000
0000
0130
0000
,
0010
0001
1000
0100
1000
0001
0010
0000
,
0001
0000
0100
0200
0000
0000
0300
0100
,
0002
2003
3020
0230
,
0301
0000
1001
0000
1001
0000
1000
0001
,
0000
0010
0020
0000
0031
1000
0010
0200
,
0300
0000
0101
0000
0000
0011
0000
0000
,
1010
0000
0000
1100
0000
0000
2002
0000
,
3003
0000
0001
0100
0010
1000
0010
0100
,
0001
0100
0010
1000
0010
0100
0001
0100
,
0010
1000
0100
0010
0001
0100
0010
1000
,
0001
1000
0001
1000
0001
1000
0100
0010
,
0000
0000
0000
0000
,
2200
0000
0000
0000
,
0000
0000
0000
0000
,
0000
0000
0000
0000
0000
0000
0000
3300
;

//---------------dance-single - ----------------
#NOTEDATA:;
#CHARTNAME:;
#STEPSTYPE:dance-single;
#DESCRIPTION:;
#CHARTSTYLE:;
#DIFFICULTY:Easy;
#METER:8;
#RADARVALUES:0.323233,0.385546,0.030576,0.214033,0.000000,296.000000,292.000000,4.000000,28.000000,0.000000,0.000000,0.000000,0.000000,0.000000,0.323233,0.385546,0.030576,0.214033,0.000000,296.000000,292.000000,4.000000,28.000000,0.000000,0.000000,0.000000,0.000000,0.000000;
#CREDIT:;
#NOTES:
0000
0000
0000
0000
,
0000
0000
0000
0000
,
0000
0000
0000
0000
,
0000
0000
0000
0000
,
0000
0000
0000
0000
,
0000
0000
0000
0000
,
0000
0000
0000
0000
,
0000
0000
0000
0000
,
1000
0100
0010
0001
,
0010
0100
1000
0001
,
1000
0010
0100
0001
,
0100
0010
1000
0001
,
0010
0000
0100
0200
0000
0000
0300
0000
,
0100
1000
0001
0100
,
0010
0010
1000
1000
,
0001
0001
0100
0100
,
0001
0000
0010
0020
0000
0000
0030
0000
,
0010
0001
1000
0010
,
0200
0000
0000
0000
,
0020
0000
0000
0000
,
0330
0000
0010
0000
0000
1000
0000
0000
,
0100
0000
0000
0001
0000
0000
0020
0000
,
0030
0001
0001
0001
,
1000
1000
1000
0001
,
0001
0001
1000
1000
,
2000
0000
0000
3000
,
0100
0000
0000
1000
0000
0000
0100
0000
,
0000
1000
0000
0000
0100
0000
0010
0000
,
0001
0000
0000
0010
0000
0000
0001
0000
,
0000
0010
0000
0000
0002
0000
0003
0000
,
1000
0000
0000
0010
0000
0000
1000
0000
,
0000
0010
0000
0000
1000
0000
0010
0000
,
0100
0000
0000
0001
0000
0000
0100
0000
,
0000
0001
0000
0000
0200
0000
0300
0000
,
0001
1000
0100
1000
,
0001
0100
0001
1000
,
0001
0010
0001
1000
,
0010
1000
0100
0010
,
0001
0000
1000
2000
0000
0000
3000
0000
,
0010
1000
0001
0100
,
0001
0000
0000
0020
0000
0000
0030
0000
,
0002
0023
0230
2300
,
3001
0100
1000
1000
,
0100
0001
1000
0001
,
0001
0010
1000
1000
,
0010
0001
1000
0001
,
1000
0010
0100
0100
,
0001
0010
0001
1000
,
0001
0010
0100
0100
,
1000
1000
1000
0001
,
0010
0100
1000
0001
,
1000
0100
0010
0001
,
0100
0010
1000
0001
,
1000
0010
0100
0001
,
0010
0010
0010
0100
,
1000
1000
1000
1000
,
0001
0001
0001
0100
,
0010
0010
0010
0110
,
0001
0000
0000
0001
0000
0000
0001
0000
,
1000
0100
1000
0010
,
1000
0000
0000
1000
0000
0000
1000
0000
,
0001
0100
0001
0010
,
0001
0000
0000
0001
0000
0000
1000
0000
,
0000
1000
0000
0000
0100
0000
0000
0100
,
0000
0000
0010
0000
0000
0010
0000
0000
,
0002
1003
0000
0000
,
0000
0000
0000
0000
,
2002
0000
0000
0000
,
0000
0000
0000
3003
,
0220
0000
0000
0330
,
1000
0000
0100
0000
0010
0001
1000
0000
,
0001
0100
1000
0100
,
0001
1000
0001
0010
,
1000
0010
0002
0000
,
0003
1000
0001
1000
,
1000
0010
0001
0010
,
1000
0001
1000
0100
,
0001
0100
2000
0000
,
3000
0001
1000
0001
,
0001
0100
0010
1000
,
0100
1000
0010
0100
,
0001
0010
0100
1000
,
0010
1000
0100
0010
,
0001
0000
0100
0200
0000
0000
0300
0000
,
0100
0001
1000
0100
,
0010
0010
0001
0001
,
1000
1000
0100
0100
,
1000
0000
0010
0020
0000
0000
0030
0000
,
0010
1000
0001
0010
,
0200
0000
0000
0000
,
0020
0000
0000
0000
,
0330
0000
0010
0000
0000
0001
0000
0000
,
0100
0000
0000
1000
0000
0000
0020
0000
,
0030
1000
1000
1000
,
0001
0001
0001
1000
,
1000
0001
1000
0001
,
1000
0010
0100
0001
,
0000
0000
0000
0000
,
0220
0000
0000
0000
,
0000
0000
0000
0000
,
0000
0000
0000
0000
0000
0000
0000
0330
;

//---------------dance-single - ----------------
#NOTEDATA:;
#CHARTNAME:;
#STEPSTYPE:dance-single;
#DESCRIPTION:;
#CHARTSTYLE:;
#DIFFICULTY:Beginner;
#METER:4;
#RADARVALUES:0.180181,0.299646,0.045864,0.038220,0.000000,165.000000,159.000000,6.000000,5.000000,0.000000,0.000000,0.000000,0.000000,0.000000,0.180181,0.299646,0.045864,0.038220,0.000000,165.000000,159.000000,6.000000,5.000000,0.000000,0.000000,0.000000,0.000000,0.000000;
#CREDIT:;
#NOTES:
0000
0000
0000
0000
,
0000
0000
0000
0000
,
0000
0000
0000
0000
,
0000
0000
0000
0000
,
0000
0000
0000
0000
,
0000
0000
0000
0000
,
0000
0000
0000
0000
,
0000
0000
0000
0000
,
1000
0000
0100
0000
,
1000
0000
0100
1000
,
0001
0000
0100
0000
,
0001
0000
0100
0001
,
1000
0000
0010
0000
,
0100
0000
0010
1000
,
0001
0000
0010
0000
,
0100
0000
0010
0001
,
1000
0000
0010
0000
,
0100
0000
0100
0010
,
0020
0000
0000
0000
,
0030
0000
0000
0000
,
0000
0000
1000
0000
0000
0100
0000
0000
,
0010
0000
0000
0001
0000
0000
1001
0000
,
0000
0000
0000
0000
,
0000
0000
0000
0000
,
0001
1000
0001
1000
,
0001
0000
0000
0000
,
1000
0000
0000
1000
,
0000
0000
0100
0010
,
0001
0000
0000
0001
,
0000
0000
0100
0010
,
1000
0000
0000
1000
,
0000
0000
0010
0100
,
0001
0000
0000
0001
,
0000
0000
0010
0100
,
1000
0000
0000
1000
,
0000
0000
0001
0010
,
0001
0000
0000
0001
,
0000
0000
1000
0010
,
1000
0000
0000
0000
,
1000
0000
0010
0000
,
0100
0000
0100
0000
,
0110
0000
0000
0000
,
1000
0000
0010
0000
,
0100
0000
0010
0000
,
1000
0000
0100
0000
,
0010
0000
0100
1000
,
0001
0000
0100
0000
,
0010
0000
0100
0000
,
0001
0000
0010
0000
,
0100
0000
0010
0001
,
1000
0000
0010
0000
,
0100
0000
0001
0000
,
0100
0000
0010
0000
,
1000
0000
0001
1000
,
0001
0000
0010
0000
,
0100
0000
1000
0000
,
0001
0000
0100
0000
,
0010
0000
0010
0000
,
1000
0000
0000
0000
,
0001
0000
0001
0000
,
0001
0000
0000
0000
,
1000
0000
1000
0000
,
1000
0000
0000
0100
,
0000
0000
0001
0000
,
0000
0100
0000
0000
,
2002
3003
0000
0000
,
0000
0000
0000
0000
,
0000
0000
0000
0000
,
0000
0000
0000
0000
,
0220
0000
0000
0000
,
0330
0000
0000
0000
,
0001
0000
0000
0000
,
0001
0000
0100
0000
,
0010
0000
0000
0000
,
0010
0000
0100
0000
,
0001
0000
0000
0000
,
1000
0000
0100
0000
,
0010
0000
0000
0000
,
0010
0000
0100
0000
,
1000
0000
0000
0000
,
0001
0000
0100
0000
,
1000
0000
0000
0000
,
1000
0000
0100
0000
,
0001
0000
0000
0000
,
0001
0000
0010
0000
,
0100
0000
0000
0000
,
1000
0000
0010
0000
,
0100
0000
0000
0000
,
0010
0000
1000
0000
,
0001
0000
0000
0000
,
1000
1000
1000
1000
,
0000
0000
0001
0000
0000
0100
0000
0000
,
0010
0000
0000
1000
0000
0000
1001
0000
,
0000
0000
0000
0000
,
0000
0000
0000
0000
,
0001
1000
0001
1000
,
0010
0100
0010
0100
,
0000
0000
0000
0000
,
1001
0000
0000
0000
;
